#TITLE:Brave New World;
#SUBTITLE:;
#ARTIST:古代祐三;
#TITLETRANSLIT:;
#SUBTITLETRANSLIT:;
#ARTISTTRANSLIT:Yuzo Koshiro;
#GENRE:;
#CREDIT:;
#MENUCOLOR:;
#METERTYPE:DDR;
#BANNER:Brave New World-bn.png;
#BACKGROUND:Brave New World-bg.png;
#LYRICSPATH:;
#CDTITLE:!cdtitle.png;
#MUSIC:Brave New World.mp3;
#OFFSET:-0.459;
#SAMPLESTART:44.444;
#SAMPLELENGTH:21.829;
#SELECTABLE:YES;
#LISTSORT:;
#BPMS:0.000=139.000;
#STOPS:;
#BGCHANGES:;
#ATTACKS:;

//---------------dance-single - ----------------
#NOTES:
     dance-single:
     :
     Hard:
     8:
     0.486,0.424,0.238,0.010,0.266: // measure 1
0000
0000
0000
0000
,  // measure 2
1000
0000
0000
0100
0000
0000
1000
0000
0010
0000
0000
0010
0000
0000
0100
0000
,  // measure 3
0001
0000
0000
0010
0000
0000
0001
0000
1000
0000
0000
0100
0000
0000
0010
0000
,  // measure 4
0100
0000
0000
0100
0000
0000
1000
0000
0010
0000
0000
1000
0000
0000
0001
0000
,  // measure 5
0010
0000
0000
0100
0000
0000
1000
0000
0010
0000
0000
1000
0000
0000
0001
0000
,  // measure 6
1000
0000
0000
1000
0000
0000
0001
0000
0100
0000
0000
0100
0000
0000
0010
0000
,  // measure 7
1000
0000
0000
0001
0000
0000
0010
0000
0001
0000
0000
0100
0000
0000
0010
0000
,  // measure 8
1000
0000
0000
0001
0000
0000
0001
0000
0010
0000
0000
0100
0000
0000
0100
0000
,  // measure 9
1000
0000
0000
0100
0000
0000
0010
0000
0001
0000
1000
0000
0001
0000
0100
0000
,  // measure 10
0010
1000
0010
0000
0100
0000
0001
0010
,  // measure 11
0000
0010
0001
0000
1000
0100
0010
0000
,  // measure 12
0001
0000
1000
0001
0000
0001
0100
0000
,  // measure 13
0001
0010
1000
0000
1000
0010
0001
0010
,  // measure 14
0100
0000
1000
0001
0100
0000
0010
1000
,  // measure 15
0000
0001
0000
0010
0001
0010
0100
1000
,  // measure 16
0001
0000
0100
0010
0000
1000
0000
0001
,  // measure 17
1000
0000
0000
0000
0100
0000
0010
0000
0001
0000
0000
0010
0000
0000
0100
0000
,  // measure 18
1000
0000
0000
0000
0010
0000
1000
0000
0001
0000
0000
0100
0000
0000
0010
0000
,  // measure 19
1000
0000
0000
0000
0001
0000
1000
0000
0100
0000
0000
1000
0000
0000
0001
0000
,  // measure 20
0100
0000
0010
1000
0001
0000
0010
0100
,  // measure 21
0000
0000
1000
0000
0100
0000
0010
0000
0001
0000
0000
1000
0000
0000
0001
0000
,  // measure 22
0100
0000
0010
0000
1000
0000
0001
0000
1000
0000
0000
0010
0000
0000
0100
0000
,  // measure 23
0001
0000
0100
0000
0010
0000
1000
0000
0001
0000
0000
1000
0000
0000
0001
0000
,  // measure 24
0100
0000
0010
1000
0100
0000
0100
0010
,  // measure 25
0001
0000
0000
0001
0000
0000
0100
0000
0010
0000
0000
0000
1000
0000
0001
0000
,  // measure 26
1000
0000
0101
1100
,  // measure 27
0101
0000
0010
0000
1000
0100
0000
0011
,  // measure 28
0000
1010
0000
1001
0000
0100
0000
0001
,  // measure 29
0010
0000
1100
0000
1000
0001
0000
1001
,  // measure 30
0000
0000
0101
0000
0000
0000
0001
0000
0100
0000
0000
0100
0010
0000
0000
0010
,  // measure 31
1000
0000
1010
0000
0100
0001
0000
1001
,  // measure 32
0000
0100
0000
1100
0000
0010
0001
0010
,  // measure 33
0000
0100
1000
0000
0001
1000
0001
0100
,  // measure 34
0010
1000
0100
1000
0001
0000
0101
0000
,  // measure 35
1010
0000
0001
0000
1000
0100
0000
0011
,  // measure 36
0000
1100
0000
1001
0000
0100
0000
0010
,  // measure 37
1000
0000
1010
0000
0100
0001
0000
0101
,  // measure 38
0000
0000
1001
0000
0000
0000
1000
0000
0100
0000
0000
0100
0010
0000
0000
0010
,  // measure 39
0001
0000
0011
0000
1000
0001
0000
0101
,  // measure 40
0000
0010
0000
1100
0000
0010
0000
1001
,  // measure 41
0000
1000
0001
0000
0010
0100
1000
0100
,  // measure 42
0010
0001
1000
0010
,  // measure 43
0100
0000
0000
0001
0000
0000
0100
0000
0000
0000
0010
0000
0010
0000
1000
0000
,  // measure 44
0100
0000
0000
0010
0000
0000
0100
0000
1000
0000
0001
0000
0100
0000
0000
0000
,  // measure 45
0010
0000
0000
0010
0000
0000
0010
0000
0000
0000
1000
0000
0001
0000
1000
0000
,  // measure 46
0100
0000
0000
1000
0000
0000
0001
0000
0000
0000
0100
0000
0010
0000
1000
0000
,  // measure 47
0001
0000
0000
1001
0000
0000
0000
0000
0010
0000
0100
0000
1000
0000
0001
0000
,  // measure 48
0100
0000
0000
0010
0000
0000
0010
0000
0000
0000
1000
0000
0001
0000
1000
0000
,  // measure 49
0001
0000
0000
0001
0000
0000
0100
0000
0000
0000
0010
0000
1000
0000
0100
0000
,  // measure 50
1000
0000
0000
1000
0000
0000
0010
0000
0000
0000
0100
0000
0001
0000
1000
0000
,  // measure 51
0001
0000
0000
0010
0000
0000
0001
0000
0100
0000
0000
1000
0000
0000
0100
0010
,  // measure 52
1000
0000
0000
0001
0000
0000
0010
0000
0100
0000
0000
1000
0000
0000
0001
0000
,  // measure 53
0100
0000
0000
0010
0000
0000
0100
0000
0001
0000
0000
1000
0000
0000
0100
0010
,  // measure 54
0001
0000
0000
1000
0000
0000
0010
0000
0001
0000
0000
0010
0000
0000
0100
0000
,  // measure 55
0010
0000
0000
1000
0000
0000
0010
1000
0100
0000
0000
0010
0000
0000
0100
0000
,  // measure 56
1000
0000
0000
0010
0000
0000
0100
0001
0010
0000
0000
0100
0000
0000
0010
0000
,  // measure 57
0001
0000
0000
1000
0000
0000
0010
0100
0001
0000
0000
0001
0000
0000
1000
0000
,  // measure 58
0100
0000
0000
0010
0000
0000
0001
1000
0010
0000
0000
0100
0000
0000
0001
0000
,  // measure 59
0020
0000
0000
0000
,  // measure 60
0000
0000
0030
0000
;

//---------------dance-single - ----------------
#NOTES:
     dance-single:
     :
     Medium:
     6:
     0.367,0.386,0.048,0.048,0.071:
0000
0000
0000
0000
,
0010
0000
0000
0001
0100
0000
0000
0010
,
1000
0000
0000
1000
0100
0000
0000
0010
,
0001
0000
0000
0001
0100
0000
0000
0010
,
1000
0000
0000
1000
0100
0000
0000
0010
,
0001
0000
0000
0001
0000
0000
0000
0000
0100
0000
0000
0100
0000
0000
0010
0000
,
1000
0000
0000
1000
0000
0000
0000
0000
0001
0000
0000
0001
0000
0000
0000
0000
,
1000
0000
0000
1000
0000
0000
0000
0000
0100
0000
0000
0100
0000
0000
1000
0000
,
0001
0000
0000
0001
0000
0000
0000
0000
0010
0000
0100
0000
1000
0000
0000
0000
,
0100
0010
0002
0100
,
1003
0000
0010
0000
0100
0001
0010
0000
,
0100
0000
2000
0010
0000
0000
3000
0000
,
0001
0000
0000
0000
0010
0000
0001
0010
,
0001
0000
0001
0100
0010
0000
0020
1000
,
0000
0030
0100
0001
,
1000
0000
0100
0010
0000
0000
0001
0000
,
1000
0000
0000
0000
0010
0000
1000
0100
,
0010
0000
0000
0010
0010
0000
0001
0100
,
0010
0000
0000
0010
0010
0000
1000
0001
,
0010
0000
0001
1000
0100
0000
0010
0001
,
0000
1000
0100
0000
0100
0000
1000
0010
,
0100
0000
0000
0100
0100
0000
0001
0010
,
0100
0000
0000
0100
0100
0000
1000
0001
,
0100
0000
0001
1000
0010
0000
1000
0001
,
0000
1000
0100
0010
,
0001
0000
1000
0100
,
0011
0000
0100
0000
0010
1000
0000
0001
,
0000
1000
0000
0100
0000
0010
0000
0100
,
0010
0000
0001
0000
1000
0001
0000
0100
,
0000
0001
0000
0010
0100
0000
1000
0000
,
1001
0000
0000
0000
0010
0100
0000
0001
,
0000
1000
0000
0100
0000
0010
0100
1000
,
0000
1000
0001
0000
0100
0000
0010
0100
,
0010
0100
0001
0000
1000
0000
1100
0000
,
0101
0000
0000
0000
0010
0001
0000
1000
,
0000
0010
0000
0100
0000
0010
0000
1000
,
0001
0000
0010
0000
0100
1000
0000
0100
,
0000
0010
0000
0001
1000
0000
0010
0000
,
0100
0000
0010
0000
0100
0001
0000
1000
,
0000
0001
0000
0010
0000
0100
0000
1000
,
0000
0100
0010
0000
0001
0000
1000
0000
,
0001
0100
0010
1000
,
0001
0000
0000
0100
0000
0000
0001
0000
0000
0000
0000
0000
0010
0000
0000
0000
,
0100
0000
0000
1000
0000
0000
0100
0000
0000
0000
0000
0000
1000
0000
0000
0000
,
0001
0000
0000
0100
0000
0000
0010
0000
0000
0000
0000
0000
1000
0000
0000
0000
,
0100
0000
0000
1000
0000
0000
0010
0000
0000
0000
0000
0000
0100
0000
0000
0000
,
0001
0000
0000
0010
0000
0000
0000
0000
0001
0000
0000
0000
0100
0000
0000
0000
,
0010
0000
0000
1000
0000
0000
0100
0000
0000
0000
0000
0000
0010
0000
0000
0000
,
0100
0000
0000
0100
0000
0000
0200
0000
0000
0000
0000
0000
0000
0000
0000
0000
,
0310
0000
0000
0010
0000
0000
0020
0000
0000
0000
0000
0000
0000
0000
0000
0000
,
0031
0000
0100
0010
1000
0000
0001
0010
,
1000
0000
0010
0001
0100
0000
0010
1000
,
0001
0000
0100
0001
0010
0000
0100
1000
,
0010
0000
0100
0001
1000
0100
1000
0010
,
0100
0000
0010
1000
0001
0000
0100
0001
,
0010
0000
0001
0010
1000
0000
0010
0100
,
1000
0000
1000
0010
0001
0000
0010
0100
,
0001
0000
1000
0001
0010
0000
0100
0000
,
1001
0000
0000
0000
;

//---------------dance-single - ----------------
#NOTES:
     dance-single:
     :
     Beginner:
     1:
     0.082,0.138,0.057,0.057,0.000:
0000
0000
0000
0000
,
1000
0000
0000
0000
,
0000
0000
0000
0000
,
0001
0000
0000
0000
,
0000
0000
0000
0000
,
0010
0000
0000
0000
,
0000
0000
0000
0000
,
0100
0000
0000
0000
,
0000
0000
0000
0000
,
0001
0000
0000
0000
,
0100
0000
0000
0000
,
0001
0000
0000
0000
,
0100
0000
0000
0000
,
1000
0000
0000
0000
,
0010
0000
0000
0000
,
1000
0000
0000
0000
,
0010
0000
0000
0000
,
0100
0000
0000
0000
,
0001
0000
0000
0000
,
0010
0000
0000
0000
,
0001
0000
0000
0000
,
1000
0000
0000
0000
,
0100
0000
0000
0000
,
1000
0000
0000
0000
,
0010
0000
0000
0000
,
0000
0000
0000
0000
,
2000
3000
0000
0000
,
0000
0000
0000
0000
,
0002
0003
0000
0000
,
0000
0000
0100
0100
,
0200
0300
0000
0000
,
0000
0000
0000
0000
,
0020
0030
0000
0000
,
0000
0000
0001
0000
,
1001
0000
0000
0000
,
0000
0000
0000
0000
,
0110
0000
0000
0000
,
0000
0000
0100
0100
,
0200
0300
0000
0000
,
0000
0000
0000
0000
,
0020
0030
0000
0000
,
0000
0000
0000
0000
,
1000
0000
0000
0000
,
0100
0000
0000
0000
,
0010
0000
0000
0000
,
0001
0000
0000
0000
,
1000
0000
0000
0000
,
0001
0000
0000
0000
,
0100
0000
0000
0000
,
0010
0000
0000
0000
,
0110
0000
0000
0000
,
0000
0000
0000
0000
,
1001
0000
0000
0000
,
0000
0000
0000
0000
,
0110
0000
0000
0000
,
0000
0000
0000
0000
,
1001
0000
0000
0000
,
0010
0000
0010
0000
,
0010
0000
0000
0000
;

//---------------dance-single - ----------------
#NOTES:
     dance-single:
     :
     Easy:
     4:
     0.249,0.276,0.076,0.019,0.000:
0000
0000
0000
0000
,
1000
0000
0100
0000
,
0010
0000
0001
0000
,
0100
0000
0010
0000
,
1000
0000
0001
0000
,
0010
0000
0001
0000
,
0100
0000
0010
0000
,
1000
0000
0100
0000
,
0010
0000
0100
0100
,
1100
0000
0010
0000
,
0001
0000
1000
0001
,
0100
0000
0010
0000
,
0000
0000
0100
0001
,
0010
0000
0011
0000
,
0100
0000
1000
0100
,
1000
0000
0010
0000
,
0100
0000
0001
0001
,
0011
0000
1000
1000
,
1010
0000
0100
0100
,
0100
0000
0010
0000
,
1000
0001
0100
0100
,
0101
0000
1000
1000
,
1100
0000
0010
0010
,
0100
0000
0010
0000
,
2002
0000
0000
0000
,
3003
0000
0001
1000
,
1001
0000
1000
0010
,
0100
0001
1000
0000
,
0100
0000
0010
0000
,
0100
1000
0001
0001
,
0100
0000
0010
1000
,
0001
0010
0001
1000
,
0100
0100
0000
0010
,
0000
0001
1000
0001
,
0100
0000
0010
0000
,
1000
1000
0010
0100
,
0001
1000
0100
0000
,
0010
0100
1000
1000
,
0001
0000
0100
0000
,
0010
1000
0001
0010
,
0100
1000
0000
0100
,
0100
0000
0010
0000
,
0001
0100
0001
0100
,
1000
0100
1000
0100
,
0001
0010
0001
0010
,
1000
0010
1000
0010
,
0001
0010
0100
1000
,
0001
0010
0100
1000
,
0001
0100
0010
1000
,
0001
0100
0010
1000
,
0001
0100
1000
0100
,
0001
0010
1000
0010
,
0001
0100
1000
0010
,
0001
0100
1000
0010
,
0001
0100
1000
0100
,
0001
0010
1000
0010
,
0001
0010
1000
0100
,
0001
0010
1000
0100
,
0001
0000
0000
0000
;
