#TITLE:BECAUSE OF YOU;
#SUBTITLE:(SCP MASTERPOP VERSION);
#ARTIST:JAGER;
#TITLETRANSLIT:;
#SUBTITLETRANSLIT:;
#ARTISTTRANSLIT:;
#CREDIT:;
#BANNER:BECAUSE OF YOU (SCP MASTERPOP VERSION)-bn.png;
#BACKGROUND:BECAUSE OF YOU (SCP MASTERPOP VERSION)-bg.png;
#LYRICSPATH:;
#CDTITLE:infinity-cd.png;
#MUSIC:BECAUSE OF YOU (SCP MASTERPOP VERSION).mp3;
#OFFSET:-1.320;
#SAMPLESTART:46.487;
#SAMPLELENGTH:15.400;
#SELECTABLE:YES;
#BPMS:0.000=124.000,92.000=62.000,94.000=124.000,142.000=62.000,159.000=124.000;
#STOPS:;
#BGCHANGES:;

//---------------dance-single - ----------------
#NOTES:
     dance-single:
     :
     Hard:
     7:
     0.490,0.505,0.278,0.152,0.152:
1001
0001
1000
0100
0010
0100
1000
0000
,
0000
1000
0100
0010
0001
0000
0001
1000
,
0000
0100
0010
0001
1000
0010
0100
0000
,
0000
1000
0100
1000
0100
1000
0001
1000
,
0000
0001
0100
1000
0100
0001
1000
0000
,
0000
0001
1000
0100
2000
0000
3100
1000
,
0000
0001
1000
0100
0010
0100
1000
0000
,
0001
1000
0001
0010
0001
1000
1001
0000
,
0100
0000
0110
0000
0001
1000
1001
0000
,
0001
0010
0100
1000
0010
1000
1001
0000
,
0000
1000
0100
0000
0100
0010
0110
0000
,
0001
1000
0010
0100
0001
1000
1001
0000
,
0100
0000
0110
0000
0001
1000
1001
0000
,
0100
0010
0100
1000
0001
0010
0001
0000
,
0000
1000
0001
1000
0100
0010
0100
1000
,
0001
0000
1000
0001
1000
0001
1000
0000
0100
0000
0010
0000
0001
1000
0001
1000
,
0001
0000
1001
0100
0010
0100
0010
0000
,
0001
0000
0000
0001
1000
0100
0010
0000
,
0100
0000
1100
0100
0000
0000
0000
1000
,
0100
0010
0001
1000
0010
0100
0001
1000
,
0002
0000
0000
1000
1003
0000
1001
0000
,
0100
0000
0110
0000
0010
0000
0001
1000
,
0020
0000
0000
1000
1030
0000
0001
0000
,
1001
0000
0000
1000
0100
0000
0100
0000
1100
0000
0000
0000
1001
0000
0010
0000
,
0100
0010
0100
0000
0210
0000
0300
0001
,
1000
0010
1000
0001
1000
0000
1001
0000
,
0001
1000
1001
0000
0100
0010
0100
1000
,
0100
0010
0001
1000
1001
0000
0001
0010
,
0001
0011
0001
1001
,
1000
0000
1001
0001
2000
0000
0000
0001
,
3001
0000
1001
0000
0100
0000
0010
0100
,
1000
0000
0000
0000
0001
0000
1000
0100
2000
0000
0001
0000
0000
0000
3010
0000
,
0200
0000
0001
0301
0000
0000
1001
0100
,
0010
0000
0002
0000
1000
1000
0000
0100
,
0100
0000
0010
0010
0010
0003
1000
0001
,
1000
0000
0000
1000
0100
0000
0100
0010
0100
0010
0001
0010
0000
0100
1000
0100
,
0000
0010
0001
0020
0000
0032
0000
2003
0000
3010
0100
0020
0000
0000
0000
2030
,
0000
0000
0000
0000
3000
0000
0000
0000
1000
0100
0001
0100
0000
1000
0000
0100
,
0000
0010
0001
0010
0000
0100
1000
0100
0000
1000
0100
2000
0000
0000
0000
3002
,
0000
0000
0000
0003
1000
0100
1000
0100
1000
0000
0100
0000
1000
0000
0100
0000
,
1100
0000
0100
0010
0110
0000
0001
1000
,
1001
0000
0001
0100
0101
0000
0010
1000
,
1010
2002
0000
3003
,
0000
0000
0100
1000
0100
0010
0001
0100
,
0010
1000
0010
1000
0010
1000
0001
1000
,
0010
1000
0100
0010
0001
1000
0010
0100
,
0001
1000
0100
0010
0001
1000
0010
0100
,
0001
1000
0001
1000
0000
1000
0100
0000
,
0100
0010
0001
1000
0001
1000
0010
0100
,
0010
1000
0010
0010
0100
0100
0001
0010
,
1000
0000
0010
0000
0001
0000
0001
0010
0001
0010
0001
0000
1000
0000
0100
0000
,
0010
0100
0001
0000
0000
0000
0000
0000
;

//---------------dance-single - ----------------
#NOTES:
     dance-single:
     :
     Easy:
     2:
     0.169,0.207,0.063,0.125,0.000:
1001
0000
1000
0001
,
0000
1000
0010
0000
,
0000
1000
0001
0000
,
0000
1000
0001
1000
,
0000
0001
0100
1000
,
0000
1000
0200
0000
,
0310
0000
0001
0000
,
1000
0100
1000
0001
,
1001
0000
0100
0010
,
0100
1000
0001
0000
,
0000
1000
0000
0100
,
0000
0010
0000
0010
,
1000
0010
0001
0010
,
0000
1000
0000
0100
,
0000
0001
0000
0100
,
0000
1000
0000
0001
,
0001
0000
1000
0100
,
1000
0000
0001
0100
,
0001
0000
0000
0000
,
1000
0100
0010
0001
,
2000
0000
0000
3000
,
0000
0000
0000
0001
,
2000
0000
0000
3000
,
0001
0000
1001
0000
,
1000
0100
1000
0000
,
0001
0100
0001
0000
,
0000
0000
1000
0100
,
0001
0100
2000
0000
,
0000
3000
0000
0000
,
0000
0001
2000
0000
,
0000
3000
0000
0000
,
1000
0000
0001
0000
1000
0000
0000
0100
,
0000
0010
0000
0000
,
0001
0000
1000
0000
0001
0000
0000
0100
,
0000
0010
0000
1000
,
0000
0001
0001
0000
,
2000
0000
3002
0000
,
0203
0000
0320
0000
,
2030
0000
3002
0000
,
2003
0100
3100
0010
,
0000
0010
0000
0001
,
0000
0001
0000
1000
,
0000
1000
0000
0000
,
0000
2001
0000
0000
,
0000
0000
3000
0000
,
0000
0210
0000
0000
,
0000
0300
0000
0000
,
0000
0000
1001
0000
0000
0100
0000
0000
,
0010
0000
1000
0000
,
0001
0000
1000
0000
,
0100
0000
0010
0100
,
0010
1001
0000
0000
;

//---------------dance-single - ----------------
#NOTES:
     dance-single:
     :
     Medium:
     6:
     0.328,0.321,0.233,0.072,0.000:
0001
0000
1001
0000
1000
0100
1000
0000
,
0000
0000
0001
0000
1000
0000
0100
1000
,
0000
0100
0010
0100
,
0000
1000
0001
1001
,
0000
0000
0100
1000
0100
0000
0020
0000
,
0000
0032
1003
0100
,
0000
0100
0010
0001
,
1000
0100
0010
0001
1000
0100
0010
0000
,
0001
0000
1001
0000
0001
1000
0001
0000
,
0010
0000
0100
0000
1000
0001
1000
0000
,
0000
1000
0100
0000
0010
0100
0010
0000
,
0001
0000
1001
0000
0001
1000
0001
0000
,
0010
0000
0100
0000
1000
0001
0100
0000
,
0010
1000
0010
0000
2000
0000
3001
0000
,
0010
0000
0100
0000
1000
0100
0010
0002
,
0000
0000
1000
0103
,
1001
0000
0100
0000
0010
0100
0010
0000
,
1001
0000
0100
0000
0010
0100
0010
0000
,
0001
0000
1000
0100
0000
0000
0000
0000
,
0010
0001
0010
0000
0100
1000
0100
0000
,
0200
0000
0000
0001
0301
0000
0100
0000
,
0000
0000
0110
0000
0000
0000
0001
1000
,
0002
0000
0000
1000
1003
0000
0001
0000
,
1001
0000
0001
1000
1001
0000
0000
0000
,
0100
0010
0100
0000
0110
0000
0000
0000
,
0001
1000
0001
0000
1001
0000
0110
0000
,
0000
0000
0001
0100
,
1000
0000
0100
0000
0002
0000
0000
1000
,
1003
1001
0100
0110
,
0001
0000
1000
0001
2000
0000
0000
0001
,
3001
0000
1001
0000
0100
0000
0010
0001
,
1000
0000
0100
0000
0010
0001
0000
0001
,
0010
0000
0001
1000
0000
0000
1001
0000
,
0000
0000
0100
0000
1000
0100
0000
0100
,
0010
0000
0010
0001
1000
0000
1001
0000
,
0100
0010
0100
0010
0100
0000
0000
0000
,
1000
0000
0001
0000
,
1000
0000
0001
0000
,
1000
0000
0001
0000
,
1000
0000
0000
0000
1000
0001
0000
0000
,
1001
0000
0110
0000
,
1001
0000
1100
0000
,
0011
1001
0000
0100
,
1000
0000
0001
1000
0001
0100
0001
1000
,
0001
0100
0001
0000
1000
0000
0100
0000
,
0010
0000
0001
0010
0100
1000
0100
0010
,
0001
0000
1000
0000
0001
0100
0010
0000
,
0010
0000
1000
0001
0000
0001
1000
0000
,
0010
0100
0000
0000
1001
0000
0100
0000
,
1100
0000
0001
1000
0100
0010
0001
1000
,
0010
0100
0010
1000
0001
0010
0100
1000
,
0001
1001
0000
0000
;

//---------------dance-single - Copied from----------------
#NOTES:
     dance-single:
     Copied from:
     Challenge:
     9:
     0.563,0.528,0.278,0.242,0.193:
1001
0001
1000
0100
0010
0100
0110
0000
,
2000
0001
3001
0010
0001
0000
1001
1000
,
0200
0010
0310
0001
1000
0010
0100
0000
,
0002
1000
1003
0020
0100
0130
0001
1000
,
0002
0100
0103
0020
0100
0130
0001
0000
,
2000
0001
3001
0010
0200
0000
1300
0001
,
2000
0001
3001
0200
0010
0310
1000
0000
,
0001
0000
0010
0100
1000
0100
0010
0000
0001
1000
0001
0000
0100
0000
0000
0000
,
1100
0000
0110
0000
0001
1000
1001
0000
,
0001
0010
0100
1000
0010
1000
1001
0000
,
0001
1000
1100
0000
0100
0010
0110
0000
,
0001
1000
1010
1000
0001
1000
1001
0000
,
0100
0000
0120
0000
0031
1000
1001
0000
,
0100
0010
0110
1000
0001
1000
1001
0000
,
0001
1000
1001
1000
0100
0010
0100
1000
,
0001
0000
1000
0001
1000
0001
1000
0000
0100
0010
0001
0000
1000
0010
0100
0001
,
0100
0000
1001
0100
0010
0100
0020
0000
,
0031
0000
1001
0001
1000
0100
0010
0000
,
0100
0000
1100
0100
0010
0001
0010
1000
,
0010
0001
0100
1000
0100
0001
0010
0100
,
2000
0000
0000
0001
3001
0000
1001
0000
,
0100
0000
0110
0000
0010
0000
0001
1000
,
0020
0000
0000
1000
1030
0000
0001
1000
,
1001
0000
0000
1000
0100
0000
0100
0000
1100
0000
0000
0000
1001
0000
0010
0000
,
0100
0010
0100
0010
0200
0000
1300
0001
,
1000
0010
1000
0001
1000
0100
0001
0010
,
0100
1000
0001
0010
0100
0010
0100
1000
,
0100
0010
0001
1000
1001
0000
0001
0010
,
0001
0100
1000
0100
0001
0010
1000
0010
,
0001
0010
0100
1000
0002
0000
0100
0100
,
0103
0000
0010
0000
1000
0000
0100
0000
0010
0000
0001
1000
0001
0000
0010
0000
,
0100
0000
1000
0001
1000
0000
0001
0010
0001
0000
0001
0000
0010
0000
0100
0000
,
2000
0000
0001
3001
1000
0001
1001
0100
,
0010
0000
0002
0000
1000
1000
0000
0100
,
0100
0000
0010
0010
0010
0003
1000
0001
,
1000
0000
0000
1000
0100
0000
0100
0010
0100
0010
0001
0010
0000
0100
1000
0100
,
0000
0010
0001
0020
0000
0032
0000
2003
0000
3010
0100
0020
0000
0000
0000
2030
,
0000
0000
0000
0000
3000
0000
0000
0000
1000
0100
0001
0100
0000
1000
0000
0100
,
0000
0010
0001
0010
0000
0100
1000
0100
0000
1000
0100
2000
0000
0000
0000
3002
,
0000
0000
0000
0003
1000
0100
1000
0100
1000
0000
0100
0000
1000
0000
0100
0000
,
1100
0100
0010
0100
0110
0001
1000
0001
,
1001
0001
0100
0001
0101
0010
1000
1000
,
0001
0001
2002
0000
0000
0000
3003
0000
,
0000
0000
1000
0100
1000
0100
0001
0100
,
0001
0100
0010
0100
0010
0100
1000
0100
,
1000
0001
0010
0100
1000
0001
0010
0100
,
1000
0001
0100
0010
1000
0100
0010
0100
,
0010
0001
0010
0010
0100
1000
1000
0001
,
0100
0100
0100
1000
0100
0001
0010
0100
,
0010
1000
0010
0010
0001
0001
0010
1000
,
0010
0000
0001
0000
0001
0000
0001
0010
0001
0010
0001
0000
1000
0100
0010
0001
,
0010
0000
0100
1000
0001
0000
0000
0000
0000
0000
0000
0000
0000
0000
0000
0000
;

//---------------dance-single - ----------------
#NOTES:
     dance-single:
     :
     Beginner:
     1:
     0.091,0.115,0.009,0.054,0.000: // measure 1
0000
0000
0000
0000
,  // measure 2
0000
1000
0000
0000
,  // measure 3
0000
0001
0000
0000
,  // measure 4
0000
1000
0000
0000
,  // measure 5
0000
0010
0000
0000
,  // measure 6
0000
0100
0000
0000
,  // measure 7
0000
1000
0000
0000
,  // measure 8
0001
0000
1000
0000
,  // measure 9
1001
0000
0100
0000
,  // measure 10
0010
0000
0000
0000
,  // measure 11
0000
0001
0000
1000
,  // measure 12
0000
0100
0000
0000
,  // measure 13
0000
0010
0000
0010
,  // measure 14
0000
0010
0000
0000
,  // measure 15
0000
0001
0000
0001
,  // measure 16
0000
0000
0000
0000
,  // measure 17
1000
0000
0000
0000
,  // measure 18
0001
0000
0000
0000
,  // measure 19
0010
0000
0000
0000
,  // measure 20
0100
0000
0100
0000
,  // measure 21
0200
0000
0000
0000
,  // measure 22
0300
0000
0000
0000
,  // measure 23
0020
0000
0000
0030
,  // measure 24
0001
0000
1000
0000
,  // measure 25
0000
0000
0001
0000
,  // measure 26
0000
0000
1000
1000
,  // measure 27
0000
0000
0100
0000
,  // measure 28
0010
0000
0002
0000
,  // measure 29
0000
0000
0003
0000
,  // measure 30
0000
0000
2000
0000
,  // measure 31
0000
0000
0000
3000
0000
0000
0000
0000
,  // measure 32
0000
0000
0001
0000
,  // measure 33
0000
1000
0000
0000
,  // measure 34
0000
0000
0100
0000
,  // measure 35
0000
0010
0000
0001
,  // measure 36
0000
1000
0000
0000
,  // measure 37
0001
0000
1000
0000
,  // measure 38
0100
0000
0001
0000
,  // measure 39
1000
0000
0001
0000
,  // measure 40
1000
0000
0000
0000
,  // measure 41
1000
0000
0001
0000
,  // measure 42
1000
0000
0001
0000
,  // measure 43
1000
0000
0000
0000
,  // measure 44
0000
0002
0000
0000
,  // measure 45
0000
0000
0000
0003
0000
0000
0000
0000
,  // measure 46
0000
2000
0000
0000
,  // measure 47
0000
3000
0000
0000
,  // measure 48
0000
0001
0000
0000
,  // measure 49
1000
0000
0001
0000
,  // measure 50
0010
0000
0100
0000
,  // measure 51
1000
0000
0000
0001
,  // measure 52
0001
0001
0000
0000
;
