#TITLE:ヒツゼンでしょ!;
#SUBTITLE:(Happy Man Japanese Version);
#ARTIST:あーたん;
#TITLETRANSLIT:HITSUZEN DESHO!;
#SUBTITLETRANSLIT:;
#ARTISTTRANSLIT:A-TAN;
#CREDIT:DMAxel;
#BANNER:HITSUZEN DESHO! (Happy Man Japanese Version).png;
#BACKGROUND:HITSUZEN DESHO! (Happy Man Japanese Version)-bg.png;
#LYRICSPATH:HITSUZEN DESHO! (Happy Man Japanese Version).lrc;
#CDTITLE:pop'n music.png;
#MUSIC:HITSUZEN DESHO! (Happy Man Japanese Version).mp3;
#OFFSET:-7.080;
#SAMPLESTART:14.993;
#SAMPLELENGTH:12.000;
#SELECTABLE:YES;
#BPMS:0.000=180.000;
#STOPS:;
#BGCHANGES:;

//---------------dance-single - ----------------
#NOTES:
     dance-single:
     :
     Easy:
     3:
     0.241,0.270,0.179,0.113,0.000: // measure 1
0001
0000
1000
0000
,  // measure 2
0001
0000
0000
1001
0000
0000
0000
0000
,  // measure 3
0100
0000
0010
0000
,  // measure 4
0100
0000
0000
1001
0000
0000
0002
0000
,  // measure 5
0000
0000
0000
2003
,  // measure 6
0000
0000
0000
0000
,  // measure 7
3001
0000
0100
0000
,  // measure 8
0001
0000
1000
0001
,  // measure 9
1000
0000
0010
0000
,  // measure 10
1000
0000
0001
1000
,  // measure 11
0002
0000
0000
0000
,  // measure 12
0203
0000
0000
0000
,  // measure 13
0310
0000
0110
0000
,  // measure 14
0010
0000
1001
0000
,  // measure 15
1000
0000
0100
0000
,  // measure 16
1000
0000
0001
1000
,  // measure 17
0001
0000
0010
0000
,  // measure 18
0001
0000
1000
0001
,  // measure 19
2000
0000
0000
0000
,  // measure 20
3020
0000
0000
0000
,  // measure 21
0130
0000
0110
0000
,  // measure 22
0100
0000
1001
0000
,  // measure 23
0001
0000
0010
0000
,  // measure 24
1000
0000
0010
0000
,  // measure 25
0001
0000
0010
0000
,  // measure 26
1000
0000
1001
0000
,  // measure 27
1000
0000
0100
0000
,  // measure 28
0001
0000
0100
0000
,  // measure 29
1000
0000
1000
0000
,  // measure 30
0001
0000
1001
0000
,  // measure 31
1000
1000
1000
0000
,  // measure 32
0001
0001
1001
0000
,  // measure 33
0001
0001
0001
0000
,  // measure 34
1000
0000
0000
1001
0000
0000
0000
0000
,  // measure 35
0010
0010
0010
0000
,  // measure 36
0100
0100
0110
0000
,  // measure 37
0100
0100
0100
0000
,  // measure 38
0010
0000
0000
0110
0000
0000
2000
0000
,  // measure 39
0000
0000
0000
3002
,  // measure 40
0000
0000
0000
0000
,  // measure 41
1003
0000
0010
0000
,  // measure 42
0100
0000
0001
0010
,  // measure 43
0100
0000
1000
0000
,  // measure 44
0010
0000
0100
0001
,  // measure 45
0010
0000
0000
0000
,  // measure 46
0100
0000
0000
0000
,  // measure 47
0110
0000
1000
0000
,  // measure 48
0001
0000
1001
0000
,  // measure 49
0001
0000
0010
0000
,  // measure 50
0100
0000
1000
0000
,  // measure 51
0001
0000
0010
0000
,  // measure 52
0100
0000
1000
0000
,  // measure 53
0100
0000
0001
0000
,  // measure 54
0100
0000
1000
0000
,  // measure 55
0200
0000
0320
0000
,  // measure 56
0130
0000
1001
0000
,  // measure 57
0001
0000
0100
0000
,  // measure 58
1000
0000
0100
0000
,  // measure 59
0001
0000
1000
0000
,  // measure 60
0010
0000
1001
0000
,  // measure 61
1000
0000
0010
0000
,  // measure 62
0001
0000
0010
0000
,  // measure 63
1000
0001
1000
0000
,  // measure 64
0001
1000
0001
0000
,  // measure 65
1000
0000
0100
0000
,  // measure 66
1000
0000
0001
0100
,  // measure 67
0001
0000
0100
0000
,  // measure 68
0001
0000
1000
0100
,  // measure 69
2000
0000
0000
0000
,  // measure 70
3002
0000
0000
0000
,  // measure 71
0103
0000
0110
0000
,  // measure 72
1001
0000
1001
0000
;

//---------------dance-single - ----------------
#NOTES:
     dance-single:
     :
     Medium:
     6:
     0.526,0.540,0.358,0.434,0.000: // measure 1
2000
0000
0000
3010
0100
0000
0000
0001
,  // measure 2
0010
0001
0000
1000
0000
1001
0000
0000
,  // measure 3
0002
0000
0000
0103
0010
0000
0000
1000
,  // measure 4
0100
1000
0000
1001
0000
0000
0100
0000
,  // measure 5
0100
0100
0100
0100
,  // measure 6
0100
0000
0100
0000
0100
0010
0100
0000
,  // measure 7
0002
0000
0000
0203
0000
0000
0302
0000
,  // measure 8
1000
0000
1003
0000
0010
0100
0010
0000
,  // measure 9
2000
0000
0000
3020
0000
0000
2030
0000
,  // measure 10
0001
0000
3001
0000
0100
0010
0100
0000
,  // measure 11
0001
0000
1000
0010
0000
1000
0010
0000
,  // measure 12
1000
0000
0001
0100
0000
0001
0100
0000
,  // measure 13
0110
0000
1010
0000
,  // measure 14
0011
0000
1001
0001
,  // measure 15
2000
0000
0000
3200
0000
0000
2300
0000
,  // measure 16
0001
0000
3001
0000
0100
0010
0100
0000
,  // measure 17
0002
0000
0000
0023
0000
0000
0032
0000
,  // measure 18
1000
0000
1003
0000
0010
0100
0010
0000
,  // measure 19
1000
0000
0100
1000
0000
0100
1000
0000
,  // measure 20
0001
0000
0010
0001
0000
0010
0001
0000
,  // measure 21
0011
0000
1010
0000
,  // measure 22
0110
0000
1001
0000
,  // measure 23
1000
0010
1000
0000
0010
1000
0010
0000
,  // measure 24
0100
0010
0100
0001
0010
0001
1000
0000
,  // measure 25
0001
0100
0001
0000
0100
0001
0100
0000
,  // measure 26
0010
0100
0010
1000
0001
0000
0000
0000
,  // measure 27
1000
0100
1000
0000
0100
1000
0100
0000
,  // measure 28
0010
0100
0010
0001
1000
0000
1000
0000
,  // measure 29
0001
0001
0001
0000
1000
1000
1000
0000
,  // measure 30
0001
1000
0001
0000
1001
0000
0000
0000
,  // measure 31
0101
0100
0101
0100
,  // measure 32
0101
0100
1001
1001
,  // measure 33
1010
0010
1010
0010
,  // measure 34
1010
0000
0001
1000
0000
0000
0000
0000
,  // measure 35
0011
0010
0011
0010
,  // measure 36
0011
0010
1001
1001
,  // measure 37
1100
0100
1100
0100
,  // measure 38
1100
0000
0001
1000
0000
0000
0010
0000
,  // measure 39
0010
0010
0010
0010
,  // measure 40
0010
0000
0010
0000
0010
0100
0010
0000
,  // measure 41
1001
0000
0010
1000
0000
1000
0002
0000
,  // measure 42
1000
0000
1003
0000
0010
0100
0010
1000
,  // measure 43
0001
0000
0100
0001
0000
0001
2000
0000
,  // measure 44
0001
0000
3001
0000
0100
0010
0100
0000
,  // measure 45
0001
0100
0001
0100
0000
0001
0001
0000
,  // measure 46
1000
0010
1000
0010
0000
1000
1000
0000
,  // measure 47
2020
3030
0022
0033
,  // measure 48
0220
0330
1001
0001
,  // measure 49
2000
0000
0000
3200
0000
0000
0320
0000
,  // measure 50
0000
0031
0000
1000
0001
1000
0001
0000
,  // measure 51
0002
0000
0000
0023
0000
0000
0130
0000
,  // measure 52
1000
0001
0010
0001
,  // measure 53
2000
0000
0000
3200
0000
0000
0310
0000
,  // measure 54
0002
0000
0000
0023
0000
0000
0130
0000
,  // measure 55
2000
0000
3002
0000
,  // measure 56
0203
0000
0310
0000
,  // measure 57
1000
0000
1000
0001
0000
0001
0100
0000
,  // measure 58
0010
0000
1000
0000
0100
0010
0100
0000
,  // measure 59
1000
0000
1000
0001
0000
0001
0100
0000
,  // measure 60
0010
1000
0001
0000
1001
0000
0000
0000
,  // measure 61
0001
0000
0001
1000
0000
1000
0010
0000
,  // measure 62
0100
0000
0001
0000
0010
0100
0010
0000
,  // measure 63
0001
0001
0001
0000
1000
1000
1000
0000
,  // measure 64
0010
0100
0010
0000
1001
0000
0000
0000
,  // measure 65
2000
0000
0000
3020
0000
0000
2030
0000
,  // measure 66
0001
0000
3001
0000
0100
0001
1000
0000
,  // measure 67
0002
0000
0000
0203
0000
0000
0302
0000
,  // measure 68
1000
0000
1003
0000
0010
1000
0001
0000
,  // measure 69
0100
0001
0100
0001
0000
0001
1000
0000
,  // measure 70
0010
1000
0010
1000
0000
1000
0001
0000
,  // measure 71
2002
3003
0220
0330
,  // measure 72
2002
3003
1001
0000
;

//---------------dance-single - ----------------
#NOTES:
     dance-single:
     :
     Hard:
     8:
     0.616,0.573,0.217,0.396,0.000: // measure 1
1001
0000
1000
0001
0100
0000
1000
0100
,  // measure 2
0001
0100
0000
0110
0000
0110
0000
0000
,  // measure 3
1001
0000
0001
1000
0100
0000
0001
0100
,  // measure 4
1000
0100
0010
1002
0000
0000
0100
0000
,  // measure 5
0100
0100
0100
0100
,  // measure 6
1000
1000
1000
1003
,  // measure 7
1001
0000
1000
0002
0000
1000
1003
0000
,  // measure 8
0010
0001
0010
0000
0001
0010
0100
1000
,  // measure 9
0001
0000
0001
2000
0000
0001
3001
0000
,  // measure 10
0100
1000
0100
0000
1000
0100
0010
0000
,  // measure 11
0001
0010
0100
1000
0000
1000
0001
0000
,  // measure 12
1000
0100
0010
0001
0000
0001
1000
0000
,  // measure 13
1001
1000
0020
0130
,  // measure 14
0101
0000
1100
0100
,  // measure 15
1001
0000
1000
0002
0000
0010
0013
0000
,  // measure 16
0100
1000
0100
0000
1000
0100
0010
0001
,  // measure 17
1000
0000
0001
2000
0000
0100
3100
0000
,  // measure 18
0010
0001
0010
0000
0001
0010
0100
0000
,  // measure 19
1000
0100
0010
0001
0000
0001
1000
0000
,  // measure 20
0001
0010
0100
1000
0000
1000
0001
0000
,  // measure 21
1001
0001
0200
0310
,  // measure 22
1010
0000
0011
0001
,  // measure 23
2000
0000
0000
3020
0000
0000
0230
0000
,  // measure 24
0000
0301
1000
0001
0010
0100
1000
0000
,  // measure 25
0002
0000
0000
0203
0000
0000
0320
0000
,  // measure 26
0000
1030
0001
0010
0100
0000
1000
0001
,  // measure 27
2000
0000
0000
3200
0000
0000
0320
0000
,  // measure 28
0000
0031
1000
0001
0010
0100
1000
0000
,  // measure 29
0001
0100
0001
1000
0010
1000
0100
0010
,  // measure 30
0001
0010
0100
1000
0001
0000
0000
0000
,  // measure 31
0010
0100
1000
0010
1000
0001
0010
0001
,  // measure 32
1000
0010
1000
0001
0200
0000
0001
0301
,  // measure 33
1000
0100
1000
0001
0100
0001
1000
0100
,  // measure 34
1000
0001
0010
0100
0000
0000
0000
0000
,  // measure 35
1000
0100
0010
0001
1000
0001
0010
0001
,  // measure 36
1000
0010
1000
0001
0100
0100
0100
0000
,  // measure 37
0001
0010
0001
1000
0010
1000
0001
0010
,  // measure 38
0001
1000
0100
0010
0000
0001
0100
0010
,  // measure 39
1000
0001
0100
0010
1000
0100
0010
0001
,  // measure 40
1000
0100
0010
0001
0010
1000
0010
0000
,  // measure 41
1001
0000
0010
2000
0000
0001
3001
0000
,  // measure 42
0010
1000
0010
0000
0100
0001
0010
0100
,  // measure 43
1000
0000
0010
2000
0000
0001
3001
0000
,  // measure 44
0100
0001
0100
0000
0001
0010
0100
0000
,  // measure 45
1000
0100
0001
0100
0000
1000
0001
0000
,  // measure 46
0001
0010
1000
0010
0000
0001
1000
0000
,  // measure 47
1001
1000
0020
0130
,  // measure 48
0101
0000
1100
0100
,  // measure 49
1001
0000
0001
0100
0000
0100
0010
0000
,  // measure 50
1000
0002
0000
1000
1003
0100
0010
0001
,  // measure 51
1000
0000
0001
0100
0000
0100
0010
0000
,  // measure 52
1000
0010
0100
0001
0100
1000
0100
0010
,  // measure 53
2000
0000
0001
3001
0000
0001
0100
0010
,  // measure 54
2000
0000
0001
3001
0000
0001
0100
0010
,  // measure 55
1000
0100
0001
0000
0100
1000
0001
0000
,  // measure 56
0202
0303
2002
3003
,  // measure 57
0002
0000
0000
0023
0000
0000
0230
0000
,  // measure 58
0000
1300
0001
0001
1000
0100
0010
0000
,  // measure 59
0002
0000
0000
0023
0000
0000
0230
0000
,  // measure 60
0000
1300
0001
0010
0100
0000
1000
0001
,  // measure 61
2000
0000
0000
3200
0000
0000
0320
0000
,  // measure 62
0000
0031
1000
1000
0001
0010
0100
0000
,  // measure 63
1000
0010
0100
0001
1000
0100
0010
0001
,  // measure 64
1000
0100
0001
0100
1000
0000
0001
0000
,  // measure 65
1001
0000
0010
0002
0000
1000
1003
0000
,  // measure 66
0010
1000
0010
0000
0100
0001
0010
0100
,  // measure 67
1000
0000
0100
2000
0000
0001
3001
0000
,  // measure 68
0100
0001
0100
0000
0010
1000
0100
0000
,  // measure 69
1000
0100
0001
0100
0000
0010
0001
0000
,  // measure 70
0001
0010
1000
0010
0000
0100
1000
0000
,  // measure 71
2020
3000
0200
0030
,  // measure 72
0002
0303
1001
0000
;

//---------------dance-single - ----------------
#NOTES:
     dance-single:
     :
     Beginner:
     2:
     0.121,0.202,0.075,0.000,0.000:
1000
0000
0000
0000
,
0001
0000
0000
0000
,
1000
0000
0000
0000
,
0001
0000
0000
0000
,
0000
0000
0000
0000
,
0000
0000
0000
0000
,
1001
0000
0001
0000
,
0001
0000
0000
0000
,
1000
0000
1000
0000
,
1000
0000
0000
0000
,
0001
0000
0000
0000
,
0010
0000
0000
0000
,
0100
0000
0000
0000
,
1000
0000
0000
0000
,
1001
0000
1000
0000
,
1000
0000
0000
0000
,
0001
0000
0001
0000
,
0001
0000
0000
0000
,
1000
0000
0000
0000
,
0100
0000
0000
0000
,
0010
0000
0000
0000
,
0001
0000
0000
0000
,
1000
0000
0000
0000
,
0000
0000
0000
0000
,
0100
0000
0000
0000
,
0000
0000
0000
0000
,
1000
0000
0000
0000
,
0000
0000
0000
0000
,
0001
0000
0001
0000
,
0001
0000
1001
0000
,
0001
0000
1000
0000
,
0001
0000
0000
0000
,
0100
0000
0010
0000
,
0100
0000
0000
0000
,
0010
0000
0100
0000
,
0010
0000
0000
0000
,
1000
0000
0001
0000
,
1000
0000
0000
0000
,
0000
0000
0000
0000
,
0000
0000
0000
0000
,
1001
0000
0001
0000
,
1000
0000
0001
0000
,
1000
0000
0100
0000
,
1000
0000
0100
0000
,
0010
0000
0000
0000
,
0001
0000
0000
0000
,
0010
0000
0000
0000
,
0010
0000
0000
0000
,
1001
0000
0000
0000
,
0000
0000
0000
0000
,
0001
0000
0000
0000
,
0000
0000
0000
0000
,
1000
0000
0000
0000
,
1000
0000
0000
0000
,
1000
0000
0000
0000
,
1001
0000
0000
0000
,
0001
0000
0000
0000
,
0000
0000
0000
0000
,
0010
0000
0000
0000
,
0000
0000
0000
0000
,
0100
0000
0000
0000
,
0000
0000
0000
0000
,
1000
0000
0001
0000
,
1000
0000
1000
0000
,
1001
0000
0001
0000
,
1000
0000
0001
0000
,
1000
0000
0100
0000
,
1000
0000
0100
0000
,
0010
0000
0000
0000
,
0001
0000
0000
0000
,
0010
0000
0010
0000
,
0010
0000
1001
0000
;
