#TITLE:HAPPY TOYBOYS;
#SUBTITLE:(Speed Mix);
#ARTIST:SPEEDMASTER feat. JENNY ROM;
#TITLETRANSLIT:;
#SUBTITLETRANSLIT:;
#ARTISTTRANSLIT:;
#CREDIT:DMAxel;
#BANNER:HAPPY TOYBOYS (Speed Mix).png;
#BACKGROUND:HAPPY TOYBOYS (Speed Mix)-bg.png;
#LYRICSPATH:HAPPY TOYBOYS (Speed Mix).lrc;
#CDTITLE:Dancemania SPEED G.png;
#MUSIC:HAPPY TOYBOYS (Speed Mix).mp3;
#OFFSET:-7.200;
#SAMPLESTART:12.408;
#SAMPLELENGTH:12.000;
#SELECTABLE:YES;
#BPMS:0.000=182.550;
#STOPS:;
#BGCHANGES:;

//---------------dance-single - ----------------
#NOTES:
     dance-single:
     :
     Easy:
     4:
     0.331,0.348,0.070,0.158,0.000:
2000
0000
3002
0000
,
0103
0000
0000
0000
,
0110
0000
0001
0001
,
1001
0000
0000
0000
,
1000
0100
0010
0001
,
1000
0100
1000
0100
,
1000
0001
0010
0100
,
2000
0000
3001
0000
,
0001
0010
0100
1000
,
0001
0010
0001
0010
,
0001
1000
0100
0010
,
0002
0000
1003
0000
,
1000
0001
0010
0010
,
0001
1000
0100
0100
,
1000
0001
0010
0010
,
0002
0000
1003
0000
,
0001
1000
0010
0010
,
1000
0001
0100
0100
,
0001
1000
0010
0010
,
2000
0000
0001
3001
,
1000
0000
0100
0000
,
1000
0000
0100
0000
,
0010
0000
0001
0000
,
1000
1000
1000
0000
,
0001
0000
0100
0000
,
0001
0000
0100
0000
,
0010
0000
1000
0000
,
0001
0001
0001
0000
,
1000
0000
0100
0000
,
0010
0000
0001
0000
,
1000
0000
0001
0000
,
0100
0100
0100
0000
,
0001
0000
0010
0000
,
0100
0000
1000
0000
,
0001
0000
1000
0000
,
0020
0000
0000
0000
,
0130
0010
0100
0000
,
0001
0001
1001
0000
,
0010
0100
0010
0000
,
1000
1000
1001
0000
,
0100
0010
0100
0000
,
0001
0001
1001
0000
,
0010
0000
0100
0000
,
0020
0000
2030
0000
,
0000
0000
0000
0000
,
0000
0000
0000
0000
,
3001
0000
0001
1000
,
0010
0010
0110
0000
,
1000
0100
0010
0001
,
1000
0010
0100
0010
,
1000
0100
0010
0001
,
2000
0000
3001
0000
,
0001
0010
0100
1000
,
0001
0100
0010
0100
,
0001
0010
0100
1000
,
0001
0001
1000
1000
,
1001
0010
0100
1000
,
0001
0100
0010
0100
,
0001
0010
0100
1000
,
0002
0000
1003
0000
,
1000
0100
0010
0001
,
1000
0010
0100
0010
,
1000
0100
0010
0001
,
1000
1000
0001
0001
,
1000
0001
0100
0100
,
0001
1000
0010
0010
,
1000
0001
0100
0100
,
0002
0000
1003
0000
,
0001
1000
0010
0010
,
1000
0001
0100
0100
,
0001
1000
0010
0010
,
2000
0000
3001
0000
,
1000
0100
0020
0000
,
0032
0000
1003
0100
,
0010
0001
1000
0100
,
0020
0000
0000
0000
,
0031
0010
0200
0000
,
2300
0000
3001
0010
,
0100
1000
0010
0100
,
0001
1000
1001
0000
;

//---------------dance-single - ----------------
#NOTES:
     dance-single:
     :
     Medium:
     7:
     0.552,0.557,0.403,0.149,0.000:
0001
0001
1000
1000
,
0010
0010
0100
0100
,
0001
0001
0010
0100
,
1001
0000
1001
0000
0010
0100
0010
0000
,
1000
0010
1000
0010
1000
0000
0001
0010
,
0001
0000
0010
0001
1000
0000
0010
0100
,
0020
0000
1000
0000
1030
0000
0010
0100
,
0002
0000
0000
1003
0000
0000
0000
0000
,
0001
0100
0001
0100
0001
0000
1000
0100
,
1000
0000
0100
1000
0001
0000
0100
0010
,
0200
0000
0001
0000
0301
0000
0100
0010
,
2000
0000
0001
3001
,
0100
0000
1001
0000
0100
0000
0100
0010
,
0100
0000
0001
1000
0001
0000
0100
0001
,
0100
0000
0010
1000
0010
0000
1000
0000
,
0002
0000
1000
1003
,
0010
0000
1001
0000
0010
0000
0010
0100
,
0010
0000
1000
0001
1000
0000
0010
1000
,
0010
0000
0100
0001
0100
0000
0001
0000
,
2000
0000
0000
0000
3001
1000
0001
0000
,
0100
0010
0100
0010
,
1000
0100
1000
0100
,
0010
0001
0010
0001
,
1001
0100
1001
0100
,
1000
0100
1000
0100
,
0010
0100
0010
0100
,
0010
0001
0010
0001
,
1001
0010
1001
0010
,
0001
0010
0001
0010
,
0100
0010
0100
0010
,
0100
1001
0100
1001
,
0010
1001
0010
1001
,
0010
1000
0010
1000
,
0010
0100
0010
0100
,
0001
0100
0001
1000
,
0100
0010
1001
0000
,
0010
0001
0010
0000
0001
0010
0001
0000
,
1010
1010
1001
1001
,
0100
1000
0100
0000
1000
0100
1000
0000
,
0101
0101
1001
1001
,
0100
0001
0100
0000
0001
0100
0001
0000
,
1100
1100
1001
1001
,
0010
1000
0010
0000
1000
0010
1000
0000
,
0010
0000
0010
0100
0020
0000
0000
0000
,
0000
0000
0000
0000
,
0000
0000
0000
0000
0000
0000
0030
1000
,
0001
0010
0100
1000
,
0110
0110
0110
1001
,
0001
0010
0001
0010
0001
0000
0010
0001
,
1000
0000
0010
1000
0010
0000
0100
0010
,
0200
0000
0001
0000
0301
0000
1000
0100
,
2000
0000
0000
3001
0000
0000
0000
0000
,
1000
0100
1000
0100
1000
0000
0100
1000
,
0001
0000
0100
0001
0100
0000
0010
0100
,
0020
0000
1000
0000
1030
0000
0001
0010
,
0002
1000
1000
1003
,
1100
0000
0001
0100
0001
0000
0100
0001
,
1000
0000
0100
1000
0100
0000
0010
0001
,
0010
0000
0001
1000
0001
1000
0001
0000
,
2000
0000
0001
3001
,
0011
0000
1000
0010
1000
0000
0010
1000
,
0001
0000
0010
0001
0010
0000
0100
1000
,
0100
0000
1000
0001
1000
0001
1000
0000
,
1001
0000
1001
0000
0100
0010
0100
0000
,
0101
0000
0101
0000
1000
0100
1000
0000
,
1010
0000
1010
0000
0001
0010
0001
0000
,
0101
0000
0101
0000
1000
0100
1000
0000
,
0002
0000
0000
0000
0103
0010
0100
0000
,
0101
0000
0101
0000
1000
0100
1000
0000
,
1010
0000
1010
0000
0001
0010
0001
0000
,
0101
0000
0101
0000
1000
0100
1000
0000
,
0002
0000
0000
0000
0103
0010
0100
0000
,
0001
0100
0001
0100
0020
0000
0000
0000
,
1030
0001
1000
0001
1000
0100
0010
0000
,
0100
0010
0001
0000
1000
0100
0010
0000
,
0100
0010
0002
0000
1000
0000
1003
0000
,
1000
0010
1000
0010
0200
0000
0000
0000
,
0301
1000
0001
1000
0001
0010
0100
0000
,
0010
0100
1000
0000
0001
0010
0100
0000
,
0010
0100
1000
0000
1001
0000
0000
0000
;

//---------------dance-single - ----------------
#NOTES:
     dance-single:
     :
     Hard:
     9:
     0.721,0.662,0.289,0.079,0.232: // measure 1
1000
0010
0100
0000
0001
1000
1000
0000
,  // measure 2
0100
0010
0001
0000
1000
0001
0001
0000
,  // measure 3
0010
0100
1000
0000
0001
1000
1000
0000
,  // measure 4
1001
0000
1001
0000
1000
0001
0100
0000
,  // measure 5
0001
0010
0100
0010
0001
0010
0100
0010
,  // measure 6
0001
1000
0100
0001
0100
1000
0001
0010
,  // measure 7
0100
0000
1000
0100
0001
0100
0010
0001
,  // measure 8
2000
0000
0001
0000
3001
0100
0001
0000
,  // measure 9
1000
0100
0010
0100
1000
0100
0010
0100
,  // measure 10
1000
0001
0100
1000
0100
0001
1000
0100
,  // measure 11
0010
0000
0001
0100
1000
0100
0010
1000
,  // measure 12
0002
0000
1000
0000
1000
1000
1003
0000
,  // measure 13
1010
0000
0011
0000
0100
1000
0001
0000
,  // measure 14
0101
0000
1100
0000
0010
0001
1000
0000
,  // measure 15
1010
0000
0011
0000
0100
1000
0001
0100
,  // measure 16
0002
0000
0000
1003
0100
0010
0001
0000
,  // measure 17
1100
0000
0101
0000
0010
1000
0001
0000
,  // measure 18
0011
0000
1010
0000
0100
0001
1000
0000
,  // measure 19
1001
0000
0001
0100
1000
0000
1000
0100
,  // measure 20
0001
0000
0100
0000
0100
0001
1001
0000
,  // measure 21
0100
0101
0100
0101
,  // measure 22
0100
0001
0010
0100
1000
0000
0001
0001
,  // measure 23
0100
0000
0000
0000
0101
0000
0000
0000
0100
0000
0000
0000
0101
0000
0000
0001
,  // measure 24
1000
0000
0000
1000
0010
0000
0000
0100
0001
0000
0010
0000
0100
0000
0000
0000
,  // measure 25
0100
1100
0100
1100
,  // measure 26
0100
1000
0010
0100
0001
0000
1000
1000
,  // measure 27
0100
0000
0000
0000
1100
0000
0000
0000
0100
0000
0000
0000
1100
0000
0000
1000
,  // measure 28
0001
0000
0000
0001
0100
0000
0000
0010
1000
0000
0100
0000
0010
0000
0000
0000
,  // measure 29
1001
0000
0001
0000
1000
0100
1000
0000
,  // measure 30
0100
1000
0001
0010
0100
0000
1000
1000
,  // measure 31
0001
0000
0100
0000
1000
0000
0000
0000
1000
0000
0100
0000
0001
0000
0000
1000
,  // measure 32
0001
0000
0000
0001
0010
0000
0000
0100
1000
0000
0010
0000
0100
0000
0000
0000
,  // measure 33
1001
0000
1000
0000
0001
0010
0001
0000
,  // measure 34
0010
0001
1000
0100
0010
0000
0001
0001
,  // measure 35
1000
0100
0010
0001
1000
0010
0100
0000
,  // measure 36
0100
0000
1001
0000
0100
0100
0000
0000
,  // measure 37
0001
0000
0100
0000
0001
0000
1000
0000
0100
0000
0010
0000
0100
0000
0000
1000
,  // measure 38
0001
0000
0000
1000
0010
0000
0000
0100
0001
0000
0010
0000
0100
0000
0000
0000
,  // measure 39
1000
0000
0010
0000
1000
0000
0001
0000
0010
0000
0100
0000
0010
0000
0000
0001
,  // measure 40
1000
0000
0000
0001
0100
0000
0000
0010
1000
0000
0100
0000
0010
0000
0000
0000
,  // measure 41
0001
0000
0010
0000
0001
0000
1000
0000
0100
0000
0010
0000
0100
0000
0000
1000
,  // measure 42
0001
0000
0000
1000
0100
0000
0000
0010
0001
0000
0100
0000
0010
0000
0000
0000
,  // measure 43
1000
0100
1000
0001
0100
0001
1000
0100
,  // measure 44
0001
0100
1000
0001
0100
0000
0100
0000
,  // measure 45
0100
0100
0100
0100
,  // measure 46
0100
0000
0100
0000
0100
0000
0100
0001
,  // measure 47
1000
1000
0001
0001
,  // measure 48
1001
0000
0110
0000
1001
0000
1000
1000
,  // measure 49
0001
0010
0100
0010
0001
1000
0100
1000
,  // measure 50
0001
0010
0100
1000
0100
0001
0100
1000
,  // measure 51
0001
0000
0100
0000
0001
0000
1000
0000
0100
0000
1000
0000
0001
0000
0100
0001
,  // measure 52
0200
0000
0000
0000
0000
0000
0301
1000
0001
0000
1000
0000
0100
0000
0000
0000
,  // measure 53
1000
0100
0010
0100
1000
0001
0010
0001
,  // measure 54
1000
0010
0100
0001
0100
1000
0100
0001
,  // measure 55
1000
0000
0010
0000
1000
0000
0001
0000
0010
0000
0001
0000
1000
0000
0000
0010
,  // measure 56
0100
0000
0000
0010
0100
0000
0000
0010
0100
0000
0001
0000
0010
0000
0100
0000
,  // measure 57
1001
0000
0000
1000
0100
0000
0000
0100
0001
0000
0000
0000
0100
0000
0001
0000
,  // measure 58
0010
0100
1000
0001
0000
0100
0001
1000
,  // measure 59
0100
0000
0010
0000
0001
0000
0100
0000
1000
0000
0100
0000
0001
0000
0100
0010
,  // measure 60
0200
0000
0000
0000
0000
0000
0301
1000
0001
0000
0010
0000
0001
0000
0000
0000
,  // measure 61
1001
0000
0000
0001
0100
0000
0000
0100
1000
0000
0000
0000
0100
0000
1000
0000
,  // measure 62
0010
0100
0001
1000
0000
0100
1000
0100
,  // measure 63
0001
0000
0001
0100
1000
0000
0010
0100
,  // measure 64
0110
0000
0000
0000
1001
0000
0000
0000
0100
0000
0010
0000
0100
0000
0000
0001
,  // measure 65
0100
0000
0000
0100
0010
0000
0000
0010
1000
0000
0100
0000
0010
0000
0000
0001
,  // measure 66
0010
0000
0000
0010
0100
0000
0000
0100
1000
0000
0010
0000
0100
0000
0000
0001
,  // measure 67
0100
0000
0000
0100
0010
0000
0000
0010
1000
0000
0100
0000
0010
0000
0001
1000
,  // measure 68
0002
0000
0000
0000
0000
0000
1003
0010
1000
0000
0001
0000
1001
0000
0000
1000
,  // measure 69
0010
0000
0000
0010
0100
0000
0000
0100
0001
0000
0010
0000
0100
0000
0000
1000
,  // measure 70
0100
0000
0000
0100
0010
0000
0000
0010
0001
0000
0100
0000
0010
0000
0000
1000
,  // measure 71
0010
0000
0000
0010
0100
0000
0000
0100
0001
0000
0010
0000
0100
0000
1000
0001
,  // measure 72
2000
0000
0000
0000
0000
0000
3001
0100
0001
0000
1000
0000
0100
0000
1000
0001
,  // measure 73
1000
0010
0100
0001
0200
0000
0000
0301
,  // measure 74
0100
1000
0100
0001
0100
0001
0100
0001
,  // measure 75
0100
1000
0100
1000
0100
0010
0100
0010
,  // measure 76
0001
0100
0010
0100
0001
1000
0100
0010
,  // measure 77
0001
0000
1000
0001
1000
0000
0100
0000
0020
0000
0000
0000
0000
0000
0031
0000
,  // measure 78
0100
1000
0100
0001
0100
0001
0100
0001
,  // measure 79
0100
1000
0100
1000
0100
0010
0100
0010
,  // measure 80
0001
0100
0010
1000
0100
0000
0000
0000
;

//---------------dance-single - ----------------
#NOTES:
     dance-single:
     :
     Beginner:
     2:
     0.144,0.244,0.105,0.000,0.000:
1000
0000
0000
0000
,
1000
0000
0000
0000
,
0001
0000
0000
0000
,
1001
0000
0000
0000
,
0001
0000
1000
0000
,
0001
0000
0000
0000
,
1000
0000
0000
0000
,
1000
0000
0000
0000
,
1000
0000
0001
0000
,
1000
0000
0000
0000
,
0001
0000
0000
0000
,
0001
0000
0000
0000
,
0100
0000
0010
0000
,
0100
0000
0000
0000
,
0100
0000
0000
0000
,
0100
0000
0000
0000
,
0010
0000
0100
0000
,
0010
0000
0000
0000
,
0010
0000
0000
0000
,
0010
0000
0000
0000
,
1000
0000
0000
0000
,
0000
0000
0000
0000
,
1000
0000
0000
0000
,
0000
0000
0000
0000
,
0001
0000
0000
0000
,
0000
0000
0000
0000
,
0001
0000
0000
0000
,
0000
0000
0000
0000
,
0100
0000
0010
0000
,
0100
0000
0000
0000
,
0010
0000
0100
0000
,
0010
0000
0000
0000
,
1000
0000
0001
0000
,
1000
0000
0000
0000
,
0001
0000
1000
0000
,
0001
0000
0000
0000
,
1001
0000
1000
0000
,
1001
0000
0000
0000
,
1001
0000
0001
0000
,
1001
0000
0000
0000
,
0110
0000
0100
0000
,
0110
0000
0000
0000
,
0110
0000
0010
0000
,
0110
0000
0000
0000
,
0000
0000
0000
0000
,
0000
0000
0000
0000
,
0000
0000
0000
0000
,
1000
0000
1001
0000
,
0001
0000
0001
0000
,
1000
0000
1000
0000
,
0001
0000
0001
0000
,
1000
0000
0000
0000
,
0001
0000
0001
0000
,
1000
0000
1000
0000
,
0001
0000
0001
0000
,
1000
0000
0000
0000
,
0010
0000
0010
0000
,
0100
0000
0100
0000
,
0010
0000
0010
0000
,
0100
0000
0000
0000
,
0001
0000
1000
0000
,
0001
0000
1000
0000
,
0001
0000
0001
0000
,
1001
0000
0000
0000
,
1000
0000
0000
0000
,
0001
0000
0000
0000
,
0010
0000
0000
0000
,
0100
0000
0000
0000
,
1000
0000
0000
0000
,
0001
0000
0000
0000
,
0010
0000
0000
0000
,
0100
0000
0000
0000
,
1000
0000
0000
0000
,
1000
0000
0100
0000
,
0010
0000
0001
0000
,
1000
0000
0000
0000
,
0001
0000
0000
0000
,
0001
0000
0010
0000
,
0100
0000
1000
0000
,
0001
0000
1001
0000
;
