#TITLE:You Gotta Share;
#SUBTITLE:[Spaghetti Western Mix];
#ARTIST:Eurobeat Brony ft. Wild Joe's Eurobeat Band;
#TITLETRANSLIT:;
#SUBTITLETRANSLIT:;
#ARTISTTRANSLIT:;
#GENRE:;
#CREDIT:TaroNuke;
#BANNER:share-bn.png;
#BACKGROUND:share-bg.png;
#LYRICSPATH:;
#CDTITLE:;
#MUSIC:You Gotta Share.ogg;
#OFFSET:0.128;
#SAMPLESTART:37.472;
#SAMPLELENGTH:12.000;
#SELECTABLE:YES;
#BPMS:0.000=161.000;
#STOPS:;
#BGCHANGES:;
#KEYSOUNDS:;

//---------------dance-single - TaroBrony (ITG)----------------
#NOTES:
     dance-single:
     TaroBrony (ITG):
     Challenge:
     12:
     0.884,1.000,0.195,0.081,1.000:
0000
0000
0000
0000
,
0000
0000
0000
0000
,
0000
0000
0000
0000
,
0000
0000
0000
0000
,
0000
0000
0000
0000
,
0000
0000
0000
0000
,
0000
0000
0000
0000
,
0000
0000
0000
0000
,
0000
0000
0000
0000
,
0000
0000
0000
0000
,
1000
0100
0010
0001
0010
0100
1000
0100
0010
0001
0010
0100
1000
0001
1000
0000
,
0001
0100
0010
1000
0010
0100
0001
0100
0010
1000
0001
1000
0010
0000
0000
0000
,
1000
0100
0010
0001
0100
0010
1000
0100
0010
0001
0100
0010
1000
0001
1000
0000
,
0001
0100
0010
0100
0001
1000
0100
0010
0001
1000
0010
0100
0010
1000
0001
0100
,
0001
0010
0100
1000
0100
0010
0001
0010
0100
1000
0100
0010
0001
1000
0001
0000
,
1000
0010
0100
0001
0100
0010
1000
0010
0100
0001
1000
0001
0100
0000
0000
0000
,
0001
0010
0100
1000
0010
0100
0001
0010
0100
1000
0010
0100
0001
1000
0001
0000
,
1000
0010
0100
0010
1000
0100
0010
0001
1000
0010
0100
0010
1000
0001
0010
0100
,
1000
0000
0001
0010
0001
0000
0100
0010
0100
0000
0010
1000
0001
0000
0010
0001
,
1000
0000
0100
0010
0100
0000
0010
0001
0010
0000
0100
1000
0001
0000
0100
0001
,
1000
0000
0001
0100
0001
0000
1000
0010
1000
0000
0100
0010
0001
0000
0100
0010
,
1000
0000
0100
1000
0100
0000
1000
0100
1000
0000
0100
1000
0010
0000
0100
0001
,
1000
0000
0001
0010
0001
0000
0100
0010
0100
0000
0010
1000
0001
0000
0010
0001
,
1000
0000
0100
0010
0100
0000
0010
0001
0010
0000
0100
1000
0001
0000
0100
0001
,
1000
0000
0001
0100
0001
0000
1000
0010
1000
0000
0100
0010
0001
0000
0100
0010
,
1000
0000
0100
1000
0100
0000
1000
0100
1000
0000
0100
1000
0010
0000
0100
0001
,
M0M0
0M0M
0M0M
0M0M
0000
0000
0000
0000
,
1000
0010
0100
0010
1000
0100
0010
0001
0010
0100
1000
0010
1000
0100
1000
0010
,
1000
0100
0010
0100
0001
0100
0010
0100
1000
0010
0100
0010
0001
0010
0100
0010
,
1000
0000
0010
0100
0000
0100
0001
0000
0101
0000
0001
0100
0000
0100
0010
0000
,
0110
0000
0100
0010
0000
0010
1000
0000
0001
0010
0100
1000
0100
0010
0001
1000
,
0010
0100
0001
0100
0010
1000
0100
0010
0001
0010
0100
1000
0010
0100
0001
1000
,
0001
0010
0100
0010
1000
0010
0100
0010
0001
0100
0010
0100
1000
0100
0010
0100
,
0001
0000
0010
0100
0000
0100
1000
0000
1100
0000
1000
0100
0000
0100
0010
0000
,
0001
0100
0000
0010
0000
1000
0000
0010
0200
0000
0000
0000
M01M
0000
0000
0000
,
0301
0000
0100
0000
0001
0000
0100
0010
0000
0000
0110
0000
0000
0000
1000
0000
,
0010
0000
0100
0001
0000
0001
0100
0000
0010
0000
0000
0000
0000
0000
1000
0100
,
1000
0000
0100
0010
0000
0000
0001
0000
0010
0000
0100
0000
0000
0000
1000
0000
,
0001
0000
0010
0001
0000
0000
0010
0000
0100
0000
0000
0000
0000
0000
0000
0000
,
1000
0100
1000
0000
0001
0000
0010
0100
0000
0000
0000
0000
1001
0000
0000
0000
,
0001
0000
0000
0100
0010
0100
0000
0000
0001
0000
0000
0000
1001
0000
1000
0100
,
1000
0000
0000
0010
0000
0100
0000
0000
1000
0000
0000
0000
0100
0000
0000
0000
,
0001
0000
0000
0000
0100
0010
0100
0000
0001
0000
0000
0000
0010
0001
0010
0100
,
1000
0100
0010
0001
0100
0010
2000
0000
0000
0000
0100
0000
0100
0000
3000
0000
,
0001
0010
0100
1000
0010
0100
0002
0000
0000
0000
0010
0000
0010
0000
0003
0000
,
1000
0100
0000
0110
0000
0012
0000
0000
0013
0000
0010
0000
0100
0000
1000
0000
,
0001
0100
0010
1000
0100
0010
0002
0000
0000
0000
0100
0000
0100
0000
0003
0000
,
1000
0010
0100
0001
0010
0100
2000
0000
0000
0000
0010
0000
0010
0000
3000
0000
,
0001
0100
0000
0110
0000
2010
0000
0000
3100
0000
0100
0000
0010
0000
0001
0000
,
M0M0
0M0M
0M0M
0M0M
0000
0000
0000
0000
,
1000
0010
0100
0010
1000
0100
0010
0001
0010
0100
1000
0010
1000
0100
1000
0010
,
1000
0100
0010
0100
0001
0100
0010
0100
1000
0010
0100
0010
0001
0010
0100
0010
,
1000
0000
0010
0100
0000
0100
0001
0000
0101
0000
0001
0100
0000
0100
0010
0000
,
0110
0000
0100
0010
0000
0010
1000
0000
0001
0010
0100
1000
0100
0010
0001
1000
,
0010
0100
0001
0100
0010
1000
0100
0010
0001
0010
0100
1000
0010
0100
0001
1000
,
0001
0010
0100
0010
1000
0010
0100
0010
0001
0100
0010
0100
1000
0100
0010
0100
,
0001
0000
0010
0100
0000
0100
1000
0000
1100
0000
1000
0100
0000
0100
0010
0000
,
0001
0100
0000
0010
0000
1000
0000
0010
0200
0000
0000
0000
M01M
0000
0000
0300
,
0001
0010
0000
0100
0000
0000
1000
0000
0000
0000
0100
0000
0010
0000
0001
0000
,
1000
0010
0000
0100
0010
0000
1000
0010
0000
0100
0000
0001
0010
0100
1000
0001
,
0000
1100
0000
0000
0110
0000
0000
0011
0000
0000
0110
0000
1100
0000
1000
0000
,
0001
0100
0010
0100
0001
1000
0100
1000
0010
0000
0100
0010
0000
0100
0010
0000
,
1000
0000
0001
0010
0100
0010
0100
1000
0001
0010
0001
1000
0100
0010
0100
1000
,
0100
0000
0000
1001
0000
0000
0011
0000
0010
0100
1000
0100
0000
1000
0100
0010
,
0001
0100
0010
1000
0010
0100
0001
0100
0010
1000
0100
0010
0001
0010
0100
1000
,
0100
1000
0000
0100
0000
0010
0000
0100
2000
0000
0000
0000
3M1M
0000
0000
0000
,
1000
0010
0100
0001
0100
0010
1000
0010
0100
0001
0010
0100
0000
0100
0010
0000
,
0001
0010
0100
1000
0001
0100
0010
1000
0000
1100
0000
0101
0000
0001
0100
0001
,
0000
0000
1001
0000
0000
0110
0000
0000
0001
1000
0010
1000
0100
1000
0010
1000
,
0100
0010
0000
0001
0010
0000
0100
1000
0000
0100
0010
0000
0001
0000
0100
0010
,
1000
0100
1000
0100
0010
0001
0010
0001
1000
0010
1000
0010
0100
0001
0100
0001
,
1000
0100
0010
0001
1000
0001
0010
0001
1000
0010
0100
0001
1000
0001
0100
0001
,
1000
0100
0010
0001
1000
0010
0100
0001
1000
0100
0010
0001
1000
0010
0100
0001
,
1000
0100
0010
0001
0010
0100
1000
0010
0100
0001
0100
0010
0100
0001
0010
0100
,
2000
0000
0000
0000
,
0000
0000
0000
0000
,
0000
0000
0000
0000
,
0000
0000
0000
0000
,
300M
0000
000M
0000
0000
0000
0000
M000
,
M000
0000
0000
0000
0000
000M
000M
00M0
,
00M0
0000
0000
000M
0000
00M0
00M0
0000
000M
0000
0000
0000
00M0
0000
0000
000M
,
0000
00M0
0000
0000
00M0
0000
0000
0000
0000
0000
0000
0000
0000
0000
0000
0000
,
0000
0000
0000
0000
0000
0000
0000
0000
0000
0000
0000
0000
0000
M000
0000
0000
;

//---------------dance-single - TaroNuke (DDR)----------------
#NOTES:
     dance-single:
     TaroNuke (DDR):
     Hard:
     9:
     0.569,0.759,0.105,0.292,0.199:
0000
0000
0000
0000
,
0000
0000
0000
0000
,
0000
0000
0000
0000
,
0000
0000
0000
0000
,
0000
0000
0000
0000
,
0000
0000
0000
0000
,
0000
0000
0000
0000
,
0000
0000
0000
0000
,
0000
0000
0000
0000
,
0000
0000
0000
0000
,
1000
0100
0010
0001
0100
0010
0001
0000
,
0010
1000
0100
0010
0001
0010
1000
0000
,
0010
0001
0100
0010
1000
0100
0001
0000
,
0100
0010
0001
1000
0010
0100
1000
0100
,
0002
0013
0100
1000
0010
0100
1000
0000
,
0100
0001
0010
0100
1000
0100
0001
0000
,
0100
1000
0010
0100
0001
0010
1000
0000
,
0010
0100
1000
0001
0100
0010
0001
0010
,
2000
3100
0020
0031
0200
0310
1000
1000
,
0002
0103
0020
1030
0200
0310
0002
0000
,
2003
3100
0002
0103
2000
3010
0100
0100
,
0010
1000
0100
0010
0001
0100
0010
1000
,
0002
0103
0020
0130
0002
0103
0010
0010
,
2000
3100
0020
0130
2000
3100
0020
0000
,
0032
0103
2000
3100
0020
1030
0100
0100
,
1000
0010
0100
0001
1000
0001
0100
0010
,
1000
0000
0100
0010
0000
0001
1000
0000
0100
0010
0000
0001
1000
0000
1001
0000
,
0001
0100
0010
0100
0001
1000
0100
0000
,
1000
0100
0010
0000
0100
0010
0001
0000
,
1000
0000
0000
0100
0000
0000
0010
0000
0001
0000
0000
0100
0000
0000
0010
0000
,
1000
0000
0000
0001
0000
0000
0100
0000
0001
0000
0010
0000
0100
0000
1000
0000
,
0001
0100
1000
0100
0010
1000
0001
0000
,
0100
0010
0001
0000
0010
1000
0001
0000
,
1000
0000
0000
0010
0000
0000
0100
0000
0001
0000
0000
0010
0000
0000
0100
0000
,
1000
0010
0000
0100
0000
0010
0000
1000
0002
0000
0000
0000
0103
0000
0000
0000
,
0100
0001
0100
0001
0010
0000
0010
0000
,
0100
1000
0010
1000
0010
0000
0010
0000
,
0100
0100
0010
0001
0010
0100
0000
0100
,
0010
0100
1000
0100
0010
0000
2000
0000
,
3001
0001
0010
0100
0001
0000
0100
0000
,
1000
0000
0000
0010
0100
0010
0000
0000
1000
0000
0000
0000
0001
0000
0000
0000
,
1000
0000
0000
0100
0000
0010
0000
0000
1000
0000
0000
0000
0010
0000
0000
0000
,
0001
0000
0000
0000
0100
0001
0100
0000
0010
0000
0000
0000
1000
0000
0100
0000
,
1100
0000
0000
0021
0000
0130
1000
0000
,
0101
0000
0000
1020
0000
0130
0001
0000
,
1000
0010
0000
0100
0000
0002
0000
0000
1003
0000
0010
0000
0100
0000
0001
0000
,
0101
0000
0000
1020
0000
0130
0001
0000
,
1100
0000
0000
0021
0000
0130
1000
0000
,
0001
0010
0000
0100
0000
2000
0000
0000
3002
0000
0023
0000
0230
0000
2300
0000
,
3001
0000
0010
0100
0000
1000
0001
0000
0010
0100
0000
1000
0001
0000
1001
0000
,
1000
0010
0100
0010
1000
0001
0010
0000
,
0001
0010
0100
0000
0010
0100
1000
0000
,
0001
0000
0000
0010
0000
0000
0100
0000
1000
0000
0000
0010
0000
0000
0100
0000
,
0001
0000
0000
1000
0000
0000
0010
0000
1000
0000
0100
0000
0010
0000
0001
0000
,
1000
0010
0001
0010
0100
0001
1000
0000
,
0010
0100
1000
0000
0100
0001
1000
0000
,
0001
0000
0000
0100
0000
0000
0010
0000
1000
0000
0000
0100
0000
0000
0010
0000
,
0001
0100
0000
0010
0000
0100
0000
0001
2000
0000
0000
0000
3010
0000
0000
0000
,
1000
0100
1000
0000
0010
0000
0100
0000
,
0001
0100
0001
0100
0001
0000
1000
0000
,
0010
0100
0001
0100
0010
0000
1000
0000
,
0001
0000
0100
0000
0001
0000
0000
0000
1000
0000
0010
0100
0000
0010
0100
0000
,
0001
0010
0100
1000
0001
0100
0010
1000
,
1010
0000
0000
0110
0000
0000
0101
0000
0001
0000
0100
0000
0010
0000
0000
0000
,
1000
0100
0001
0100
0010
1000
0001
0100
,
1000
0010
0000
0100
0000
0001
0000
0010
0002
0000
0000
0000
1003
0000
0000
0000
,
1000
0100
0001
0100
1000
0010
0100
0000
,
0001
0100
0010
0100
0001
1000
0100
1000
,
0000
0000
0001
0000
0000
0100
0000
0000
0001
0000
0010
0000
0100
0000
1000
0000
,
0001
0100
0000
0100
0001
0000
0001
1000
0000
1000
0010
0000
0100
0000
0000
0000
,
0001
0100
0010
1000
0001
0010
0100
1000
,
0001
0100
1000
0100
0001
0010
1000
0010
,
0001
0100
0010
0001
1000
0100
0001
0010
,
0100
1000
0001
0100
0010
0100
0001
1000
,
0002
0000
0000
0000
,
0000
0000
0000
0000
,
0000
0000
0000
0000
,
0000
0000
0000
0000
,
0003
0000
0000
0000
;

//---------------dance-single - Hard (Rolls)----------------
#NOTES:
     dance-single:
     Hard (Rolls):
     Edit:
     9:
     0.576,0.806,0.130,0.300,0.223:
0000
0000
0000
0000
,
0000
0000
0000
0000
,
0101
0000
0000
0000
,
0000
0000
0000
0000
,
1010
0000
0000
0000
,
0000
0000
0000
0000
,
1001
0000
2000
3000
,
0004
4000
0000
0000
0000
0000
0000
0000
0000
0000
0000
0000
0000
0000
0000
0000
,
0000
0000
0000
0000
0000
0000
0003
3000
0000
0000
0000
0000
0000
0000
0000
0000
,
0000
0000
0000
0000
,
1000
0100
0010
0001
0100
0010
0001
0000
,
0010
1000
0100
0010
0001
0010
1000
0000
,
0010
0001
0100
0010
1000
0100
0001
0000
,
0100
0010
0001
1000
0010
0100
1000
0100
,
0002
0013
0100
1000
0010
0100
1000
0000
,
0100
0001
0010
0100
1000
0100
0001
0000
,
0100
1000
0010
0100
0001
0010
1000
0000
,
0010
0100
1000
0001
0100
0010
0001
0010
,
2000
3100
0020
0031
0200
0310
4000
0000
,
3002
0103
0020
1030
0200
0310
0002
0000
,
2003
3100
0002
0103
2000
3010
0400
0000
,
0310
1000
0100
0010
0001
0100
0010
1000
,
0002
0103
0020
0130
0002
0103
0040
0000
,
2030
3100
0020
0130
2000
3100
0020
0000
,
0032
0103
2000
3100
0020
1030
0400
0000
,
1300
0010
0100
0001
1000
0001
0100
0010
,
1000
0000
0100
0010
0000
0001
1000
0000
0100
0010
0000
0001
1000
0000
1001
0000
,
0001
0100
0010
0100
0001
1000
0100
0000
,
1000
0100
0010
0000
0100
0010
0001
0000
,
1000
0000
0000
0100
0000
0000
0010
0000
0001
0000
0000
0100
0000
0000
0010
0000
,
1000
0000
0000
0001
0000
0000
0100
0000
0001
0000
0010
0000
0100
0000
1000
0000
,
0001
0100
1000
0100
0010
1000
0001
0000
,
0100
0010
0001
0000
0010
1000
0001
0000
,
1000
0000
0000
0010
0000
0000
0100
0000
0001
0000
0000
0010
0000
0000
0100
0000
,
1000
0010
0000
0100
0000
0010
0000
1000
0002
0000
0000
0000
0103
0000
0000
0000
,
0100
0001
0100
0001
0010
0000
0010
0000
,
0100
1000
0010
1000
0010
0000
0010
0000
,
0100
0100
0010
0001
0010
0100
0000
0100
,
0010
0100
1000
0100
0010
0000
2000
0000
,
3001
0001
0010
0100
0001
0000
0100
0000
,
1000
0000
0000
0010
0100
0010
0000
0000
1000
0000
0000
0000
0001
0000
0000
0000
,
1000
0000
0000
0100
0000
0010
0000
0000
1000
0000
0000
0000
0010
0000
0000
0000
,
0001
0000
0000
0000
0100
0001
0100
0000
0010
0000
0000
0000
1000
0000
0100
0000
,
1100
0000
0000
0021
0000
0130
1000
0000
,
0101
0000
0000
1020
0000
0130
0001
0000
,
1000
0010
0000
0100
0000
0002
0000
0000
1003
0000
0010
0000
0100
0000
0001
0000
,
0101
0000
0000
1020
0000
0130
0001
0000
,
1100
0000
0000
0021
0000
0130
1000
0000
,
0001
0010
0000
0100
0000
2000
0000
0000
3002
0000
0023
0000
0230
0000
2300
0000
,
3001
0000
0010
0100
0000
1000
0001
0000
0010
0100
0000
1000
0001
0000
1001
0000
,
1000
0010
0100
0010
1000
0001
0010
0000
,
0001
0010
0100
0000
0010
0100
1000
0000
,
0001
0000
0000
0010
0000
0000
0100
0000
1000
0000
0000
0010
0000
0000
0100
0000
,
0001
0000
0000
1000
0000
0000
0010
0000
1000
0000
0100
0000
0010
0000
0001
0000
,
1000
0010
0001
0010
0100
0001
1000
0000
,
0010
0100
1000
0000
0100
0001
1000
0000
,
0001
0000
0000
0100
0000
0000
0010
0000
1000
0000
0000
0100
0000
0000
0010
0000
,
0001
0100
0000
0010
0000
0100
0000
0001
2000
0000
0000
0000
3010
0000
0000
0000
,
1000
0100
1000
0000
0010
0000
0100
0000
,
0001
0100
0001
0100
0001
0000
1000
0000
,
0010
0100
0001
0100
0010
0000
1000
0000
,
0001
0000
0100
0000
0001
0000
0000
0000
1000
0000
0010
0100
0000
0010
0100
0000
,
0001
0010
0100
1000
0001
0100
0010
1000
,
1010
0000
0000
0110
0000
0000
0101
0000
0001
0000
0100
0000
0010
0000
0000
0000
,
1000
0100
0001
0100
0010
1000
0001
0100
,
1000
0010
0000
0100
0000
0001
0000
0010
0002
0000
0000
0000
1003
0000
0000
0000
,
1000
0100
0001
0100
1000
0010
0100
0000
,
0001
0100
0010
0100
0001
1000
0100
1000
,
0000
0000
0001
0000
0000
0100
0000
0000
0001
0000
0010
0000
0100
0000
1000
0000
,
0001
0100
0000
0100
0001
0000
0001
1000
0000
1000
0010
0000
0100
0000
0000
0000
,
0001
0100
0010
1000
0001
0010
0100
1000
,
0001
0100
1000
0100
0001
0010
1000
0010
,
0001
0100
0010
0001
1000
0100
0001
0010
,
0100
1000
0001
0100
0010
0100
0001
1000
,
0002
0000
0000
0000
,
0000
0000
0000
0000
,
0000
0000
0000
0000
,
0000
0000
0000
0000
,
M003
0000
M000
0000
0000
0000
0000
000M
,
000M
0000
0000
0000
0000
M000
M000
0M00
,
0M00
0000
0000
M000
0000
0M00
0M00
0000
M000
0000
0000
0000
0M00
0000
0000
M000
,
0000
0M00
0000
0000
0M00
0000
0000
0000
0000
0000
0000
0000
0000
0000
0000
0000
,
0000
0000
0000
0000
0000
0000
0000
0000
0000
0000
0000
0000
0000
000M
0000
0000
;

//---------------dance-single - TaroNuke----------------
#NOTES:
     dance-single:
     TaroNuke:
     Easy:
     3:
     0.287,0.443,0.041,0.211,0.000:
0000
0000
0000
0000
,
0000
0000
0000
0000
,
0000
0000
0000
0000
,
0000
0000
0000
0000
,
0000
0000
0000
0000
,
0000
0000
0000
0000
,
0000
0000
0000
0000
,
0000
0000
0000
0000
,
0000
0000
0000
0000
,
0000
0000
0000
0000
,
1000
0010
0000
0010
,
0001
0010
0000
0010
,
1000
0100
0000
0100
,
0001
0100
0000
0100
,
1100
0010
0000
0010
,
0100
0010
0000
0010
,
1000
0001
0000
0001
,
0100
0001
0100
0001
,
1000
1000
1000
0000
,
0001
0001
0001
0000
,
0100
0100
0100
0000
,
0010
0010
0010
1000
,
0001
0001
0000
0100
,
0010
0010
0000
1000
,
0001
0001
0000
0100
,
0010
0100
0010
0010
,
2000
0000
0000
0000
,
3000
0010
0001
0010
,
1000
0010
0001
0100
,
1000
0001
0010
0001
,
0100
0010
2000
0000
,
3001
0010
1000
0010
,
0001
0010
1000
0100
,
0001
0010
0100
0010
,
0002
2003
3002
0000
,
1003
0000
0010
0000
,
0100
0000
0001
0000
,
0001
0000
0010
0000
,
0100
0000
1000
0000
,
0001
1000
0001
0000
,
0100
0010
0100
0000
,
0010
0010
1000
0000
,
0001
0010
0100
0000
,
1000
0000
0000
0020
0000
0000
1030
0000
,
1000
0000
0000
0002
0000
0000
1003
0000
,
0001
0010
0100
1000
,
0001
0000
0000
0200
0000
0000
0301
0000
,
0001
0000
0000
2000
0000
0000
3001
0000
,
0001
0010
0100
1000
,
2002
0000
0000
3003
,
1000
0010
0001
0010
,
1000
0010
0001
0100
,
1000
0001
0010
0001
,
0100
0010
2000
0000
,
3001
0010
1000
0010
,
0001
0010
1000
0100
,
0001
0010
0100
0010
,
0002
2003
3002
0000
,
1003
0100
1000
0100
,
0010
0010
0010
0001
,
0100
0110
0101
0110
,
0100
0010
1000
0100
,
1000
0100
0010
0001
,
1000
0010
0100
0001
,
1000
0100
0001
0100
,
1000
0100
0010
0001
,
1000
0010
0100
0010
,
1000
0001
0100
0001
,
1000
0100
0001
0010
,
1000
0010
0001
0100
,
1000
0100
0020
0032
,
1003
0010
0200
0302
,
1003
0200
0310
0002
,
2003
3200
0320
0032
,
2003
0000
0000
0000
,
0000
0000
0000
0000
,
0000
0000
0000
0000
,
0000
0000
0000
0000
,
3000
0000
0000
0000
;

//---------------dance-single - TaroNuke----------------
#NOTES:
     dance-single:
     TaroNuke:
     Medium:
     6:
     0.446,0.759,0.000,0.332,0.012:
0000
0000
0000
0000
,
0000
0000
0000
0000
,
0000
0000
0000
0000
,
0000
0000
0000
0000
,
0000
0000
0000
0000
,
0000
0000
0000
0000
,
0000
0000
0000
0000
,
0000
0000
0000
0000
,
0000
0000
0000
0000
,
0000
0000
0000
0000
,
1000
0000
0100
0000
1000
0100
1000
0100
,
0010
0000
0001
0000
0100
0001
0100
0000
,
0010
0000
1000
0000
0010
1000
0010
1000
,
0100
0000
0010
0000
0001
0010
0001
0000
,
1000
0100
1000
0000
0001
0100
0001
0000
,
1000
0010
1000
0000
0001
0010
0001
0000
,
1000
0100
0001
0000
1000
0010
0001
0000
,
1000
0010
0001
0000
1000
0100
0001
0000
,
1000
1000
1000
0100
,
1000
1000
1000
0010
,
0100
0100
0100
0001
,
0100
0100
0100
0010
,
1000
1000
1000
0001
,
0100
0100
0100
1000
,
0100
0100
0100
0010
,
1000
1000
1000
0001
,
0200
0000
0000
0000
,
0301
0100
0010
0100
0001
0000
1000
0100
,
0010
0100
1000
0000
0001
0100
0001
0000
,
1000
0100
0010
0001
,
1000
0010
0100
0001
,
1000
0010
0100
0010
1000
0000
0001
0010
,
0100
0010
0001
0000
1000
0100
0010
0000
,
0001
0010
0100
1000
,
0001
0100
0001
0100
0020
0000
0000
0000
,
1030
0000
0100
0000
0010
0100
1000
0100
,
0010
0000
0100
0000
0010
0001
0010
0100
,
0010
0000
0001
0000
0010
0100
1000
0100
,
0010
0000
0001
0000
0100
0000
0010
1000
,
0001
0000
0100
0000
0010
0100
0001
0100
,
0010
1000
0010
0100
,
0001
1000
0001
0100
,
0010
1000
0010
1000
0100
0000
0010
0000
,
0001
0010
0100
2000
0000
3100
0020
0000
,
0031
0100
0010
2000
0000
3010
0200
0000
,
0301
0100
0001
0000
1000
0010
0100
0001
,
1000
0100
0010
0002
0000
0013
0200
0000
,
1300
0010
0100
0002
0000
0103
0020
0000
,
1030
0100
1000
0100
1000
0010
0100
0001
,
2000
0000
0000
0000
0000
0000
0000
3000
,
0001
0100
0010
0100
0001
0000
1000
0100
,
0010
0100
1000
0000
0001
0100
0001
0000
,
1000
0100
0010
0001
,
1000
0010
0100
0001
,
1000
0010
0100
0010
1000
0000
0001
0010
,
0100
0010
0001
0000
1000
0100
0010
0000
,
0001
0010
0100
1000
,
0001
0100
0001
0100
0020
0000
0000
0000
,
1030
0000
0100
0000
1000
0100
1000
0100
,
0010
0000
0000
0010
0000
0000
0010
0000
0000
0001
0000
0000
0010
0000
0001
0000
,
0100
0010
1000
0001
0100
0000
0010
1000
,
0100
1000
0100
0010
0001
0100
0001
0000
,
1000
0100
0010
0001
0100
0010
0100
0001
,
1000
0000
0000
0100
0000
0000
0010
0000
0001
0000
0100
0000
0010
0000
1000
0000
,
0002
0023
0230
2300
,
3001
1000
0001
1000
0010
0000
0010
0000
,
1000
0100
0010
0001
,
2000
3000
0020
0030
0200
0300
0002
0003
,
1000
0100
1000
0001
,
2000
3000
0020
0030
2000
3000
0002
0003
,
1000
0100
0010
0001
2000
3020
0230
0302
,
1003
0100
0001
0100
2000
3020
0032
0023
,
1030
0100
0020
0032
1003
0010
0200
0302
,
2003
3200
0302
0023
,
2030
0000
0000
0000
,
0000
0000
0000
0000
,
0000
0000
0000
0000
,
0000
0000
0000
0000
,
3000
0000
0000
0000
;
