#TITLE:Wizzy;
#SUBTITLE:;
#ARTIST:Nu Foundation;
#TITLETRANSLIT:;
#SUBTITLETRANSLIT:;
#ARTISTTRANSLIT:;
#CREDIT:;
#BANNER:bn.png;
#BACKGROUND:bg.png;
#LYRICSPATH:;
#CDTITLE:cdt.PNG;
#MUSIC:Wizzy.mp3;
#OFFSET:-0.016;
#SAMPLESTART:65.440;
#SAMPLELENGTH:12.000;
#SELECTABLE:YES;
#BPMS:0.000=176.040;
#STOPS:;
#BGCHANGES:;

//---------------dance-single - ----------------
#NOTES:
     dance-single:
     :
     Hard:
     9:
     0.572,0.598,0.163,0.146,0.240:
0000
0000
0000
0000
,
0000
0000
0000
0000
,
0000
0000
0000
0000
,
0000
0000
0000
0000
,
0000
0000
0000
0000
,
0000
0000
0000
0000
,
0000
0000
0000
0000
,
0000
0000
0000
0000
,
0001
0010
0200
0310
,
0001
0100
0010
1000
,
0001
1000
0200
1300
,
0010
0000
0100
0000
0001
1000
0100
0000
,
1000
0010
0200
0301
,
0001
0010
0001
1000
,
0100
1000
0002
0103
,
0001
0000
0010
0000
0100
1000
0010
0000
,
0001
0100
0000
0000
0100
0010
0000
0000
0010
1000
0000
0000
1000
0100
0000
0000
,
0100
0010
0000
0000
0010
0001
0000
0000
0001
0100
0000
0000
0100
0010
0000
0000
,
0010
1000
0000
0000
1000
0001
0000
0000
0001
0010
0000
0000
0010
0100
0000
0000
,
0100
0010
0000
0000
0010
0001
0000
0000
0001
1000
0000
0000
1000
0100
0000
0000
,
1000
0010
0000
0000
0100
0001
0000
0000
0001
0010
0000
0000
0010
0100
0000
0000
,
0100
1000
0000
0000
1000
0010
0000
0000
0100
0001
0000
0000
0001
0010
0000
0000
,
0010
0100
0000
0000
0100
1000
0000
0000
1000
0001
0000
0000
0001
0010
0000
0000
,
0001
0100
0000
0000
0100
0010
0000
0000
0010
1000
0000
0000
1000
0100
0000
0000
,
1000
0100
0000
0000
0100
1000
0000
0000
1000
0010
0000
0000
0010
0100
0000
0000
,
0100
0001
0000
0000
0001
0010
0000
0000
0010
0100
0000
0000
0100
1000
0000
0000
,
1000
0010
0000
0000
0010
0100
0000
0000
0010
1000
0000
0000
1000
0100
0000
0000
,
0100
0010
0000
0000
0010
0001
0000
0000
0010
0100
0000
0000
0100
1000
0000
0000
,
0010
1000
0000
0000
0100
1000
0000
0000
1000
0001
0000
0000
0001
0010
0000
0000
,
0010
0100
0000
0000
0100
0010
0000
0000
0010
0001
0000
0000
0001
1000
0000
0000
,
0001
0100
0010
0000
0100
0000
0010
0000
,
0100
0001
0100
0001
0000
0010
0010
0000
,
0100
1000
0010
0000
0110
0000
0110
0000
,
0010
1000
0100
0010
0000
0100
1000
0000
,
0100
1000
0010
0000
0101
0000
0101
0000
,
0001
0010
1000
0010
0000
0100
0100
0000
,
0010
0001
0100
0000
1010
0000
0101
0000
,
0001
1000
0010
0100
0000
0100
0001
0000
,
0001
0010
0100
0000
0010
0000
0011
0000
,
0001
0010
1000
0010
0000
0100
0100
0000
,
0010
0001
0100
0000
0110
0000
0101
0000
,
0001
1000
0100
0010
0000
0100
1000
0000
,
0100
0010
0001
0000
0011
0000
1001
0000
,
0001
0010
0001
0100
0000
0010
0010
0000
,
0100
0001
1000
0000
1100
0000
1001
0000
,
0001
0100
0010
0100
0000
0100
0001
0000
,
0001
1000
0100
0000
1100
0000
0110
0000
,
0010
0100
1000
0001
0000
0100
0100
0000
,
0001
0100
1000
0100
0001
0010
0100
0010
,
0001
0001
1000
1000
,
0001
0100
0010
1000
0100
1000
0010
0100
,
0001
0001
1000
1000
,
0001
0100
1000
0100
0010
1000
0100
1000
,
0001
1000
0010
0100
,
0100
0001
0010
0100
0010
0001
1000
0010
,
0100
0001
0010
0200
0000
1000
1300
0000
,
1000
0100
0001
0100
1000
0010
0100
0001
,
0010
0001
0010
0100
,
1000
0010
0100
0001
0010
0100
0010
0001
,
1000
1000
0001
0100
,
0010
1000
0010
0001
0010
1000
0100
1000
,
0001
0001
0100
0100
,
0010
1000
0001
0010
0100
0010
0001
1000
,
0200
0000
0000
0000
,
1300
0000
1000
0100
0000
0010
0001
0000
,
0001
0000
0001
0100
0000
0010
1000
0000
,
0001
0000
0010
0100
0000
0100
1000
0000
,
0001
0000
0010
0010
0000
0100
0200
0000
,
0310
0000
0010
0001
0000
0010
0001
0000
,
0100
0000
0010
0100
0000
0010
0200
0000
,
0301
0000
0001
1000
0000
1000
0010
0000
,
0100
0000
0010
1000
0000
0100
0002
0000
,
0013
0001
0100
0020
0000
0100
0130
0000
,
0100
0010
1000
0200
0000
0310
0110
0000
,
0010
0001
0100
0020
0000
1000
1030
0000
,
1000
0001
0010
0200
0000
1300
1100
0000
,
1000
0001
0010
0200
0000
0010
0310
0000
,
0010
0001
0100
0020
0000
1030
1010
0000
,
1000
0001
0010
0100
0000
0100
0010
0001
,
0100
0010
1000
0100
0000
0100
1000
0010
,
0220
0000
0000
0000
,
0000
0000
0000
0000
,
0330
0000
0000
0000
;

//---------------dance-single - ----------------
#NOTES:
     dance-single:
     :
     Medium:
     6:
     0.420,0.528,0.283,0.017,0.000:
0000
0000
0000
0000
,
0000
0000
0000
0000
,
0000
0000
0000
0000
,
0000
0000
0000
0000
,
0000
0000
0000
0000
,
0000
0000
0000
0000
,
0000
0000
0000
0000
,
0000
0000
0000
0000
,
0001
1000
0010
0010
,
0100
0010
1000
0100
,
0010
0010
0100
1000
,
0001
0010
0100
0010
,
0001
0100
0010
0010
,
0100
0001
1000
0100
,
1000
0010
0100
0100
,
0010
1000
0001
0010
,
0100
0100
0100
0100
,
0010
0010
0010
0010
,
0001
0001
0001
0001
,
1000
1000
1000
1000
,
0001
0100
0001
0010
,
0001
0100
0010
0100
,
0010
1000
0100
1000
,
0010
1000
0100
1000
,
0001
1000
0001
0000
1000
0001
1000
0000
,
0001
1000
0001
0000
1000
0000
0001
0000
,
0100
0010
0100
0000
0010
0100
0010
0000
,
0100
0010
0100
0000
0010
0000
1000
0000
,
0100
1000
0100
0000
1000
0100
1000
0000
,
0100
1000
0100
0000
1000
0000
0001
0000
,
0010
0001
0010
0000
0001
0010
0001
0000
,
0010
0001
0010
0000
0001
0000
0100
0000
,
0100
0001
0011
1100
,
0001
0100
0110
0101
,
0001
1000
1010
0101
,
0001
0000
1000
0000
0100
1000
0010
0000
,
0110
0110
0001
1000
,
1100
1100
1000
0001
,
0101
1010
1000
0001
,
0011
0000
1100
0000
1000
0001
0010
0000
,
0101
1010
1001
1100
,
1000
0001
0010
0100
,
1100
0110
0011
0101
,
0001
0000
1000
0000
0010
0100
0001
0000
,
0101
1010
1100
0011
,
0001
0001
1000
1000
,
0101
1010
1100
0011
,
0001
0010
0100
0010
0000
0001
0001
0000
,
1000
0001
0100
0000
0001
0000
0010
0000
,
0100
0000
0100
1000
0000
1000
0010
0000
,
0100
0010
0100
0000
0010
0000
1000
0000
,
0001
0000
0010
0010
0000
0100
0100
0000
,
1000
0010
0100
0101
,
0001
0100
0010
1000
0000
1000
0001
0000
,
0001
1000
0100
0000
1000
0000
0010
0000
,
0100
0000
0100
0001
0000
0001
0010
0000
,
0001
0010
0100
0000
0010
0000
0001
0000
,
0001
0100
0010
1000
0000
0100
0100
0000
,
0100
1000
0010
0000
0100
0000
0001
0000
,
1000
0001
0100
0001
0000
0001
0010
0000
,
0010
0100
1000
0000
0100
0000
1000
0000
,
0010
0100
0001
0010
0000
0010
0100
0000
,
0100
1000
0010
0000
0100
0000
0001
0000
,
1001
0000
0000
0000
,
1000
0000
0000
0001
0000
0000
0000
0000
,
0100
0000
0000
0001
0000
0010
0100
0000
,
0100
0000
0000
1000
0000
0000
0000
0000
,
1000
0000
0000
0001
0000
1000
0001
0000
,
0100
0000
0000
0010
0000
0000
0000
0000
,
1000
0000
0000
0010
0000
0100
0001
0000
,
0010
0000
0000
0100
0000
0000
0000
0000
,
0100
0000
0000
1000
0000
0100
1000
0000
,
1000
0000
0000
0010
0000
0000
0000
0000
,
0100
0000
0001
0100
0000
0100
0001
0000
,
0001
0000
0000
1000
0000
0000
0000
0000
,
0001
0000
1000
0000
0001
0100
0001
0100
,
0001
0000
0000
0100
0000
0000
0000
0000
,
1000
0000
0000
0100
0000
0001
0010
0000
,
0100
0000
0000
1000
0000
0000
0000
0000
,
0100
0000
0000
1000
0000
0010
0100
0000
,
2002
0000
0000
0000
,
0000
0000
0000
0000
,
3003
0000
0000
0000
;

//---------------dance-single - ----------------
#NOTES:
     dance-single:
     :
     Easy:
     4:
     0.352,0.493,0.360,0.077,0.000:
0000
0000
0000
0000
,
0000
0000
0000
0000
,
0000
0000
0000
0000
,
0000
0000
0000
0000
,
0000
0000
0000
0000
,
0000
0000
0000
0000
,
0000
0000
0000
0000
,
0000
0000
0000
0000
,
0001
0000
1000
0000
,
0010
0000
1000
0000
,
0100
0000
1000
0000
,
0010
1000
0010
1000
,
0010
0000
0100
0000
,
0001
0000
1000
0000
,
0010
0000
1000
0000
,
0100
0000
0010
0000
,
0001
0010
0001
0010
,
0001
1000
0001
1000
,
0001
0100
0001
0100
,
0001
0010
0001
0010
,
0100
1000
0100
1000
,
0100
1000
0010
1000
,
0010
0100
0010
1000
,
0001
0010
0100
1000
,
0010
0010
0010
1000
,
0010
0010
0010
0100
,
0001
0001
0001
0010
,
0100
0100
0100
1000
,
0010
0010
0010
0100
,
0001
0001
0001
0001
,
2000
0000
3002
0000
,
0200
0000
0000
0303
,
0001
1000
0100
0100
,
1000
0010
0100
0001
,
1000
1000
0001
0001
,
1000
0001
0100
0101
,
0001
0100
0010
0010
,
0100
0010
1000
0100
,
1000
0010
0100
0001
,
1001
1001
1001
1001
,
0001
1000
0100
0100
,
1000
0010
0100
0001
,
0010
0100
1000
1000
,
0100
1000
0010
0100
,
0001
0001
1000
1000
,
0001
0100
0001
0010
,
0100
0100
1000
1000
,
2200
0000
0000
3300
,
1100
1100
1100
1100
,
1000
0010
0100
0001
,
0101
0101
0101
0101
,
0001
1000
0010
0100
,
0110
0110
0110
0110
,
0010
1000
0100
0010
,
0011
0011
0011
0011
,
0001
0100
0010
1000
,
1001
0101
1001
0101
,
0001
1000
0010
1000
,
1100
1100
1010
1010
,
0010
0100
0010
1000
,
1001
1001
0101
0101
,
0001
0100
0010
1000
,
1010
1010
0101
0101
,
2002
0000
0000
3003
,
1000
0000
0000
1000
0000
0000
0000
0000
,
0001
0000
0000
0001
0000
0000
0000
0000
,
0100
0000
0000
0100
0000
0000
0000
0000
,
0010
0000
0000
0010
0000
0000
0000
0000
,
1000
0000
0000
0010
0000
0000
0000
0000
,
0100
0000
0000
0001
0000
0000
0000
0000
,
1000
0000
0000
1000
0000
0000
0000
0000
,
0001
0000
0000
0001
0000
0000
0000
0000
,
1000
0000
0000
0001
0000
0000
0000
0000
,
0100
0000
0000
0010
0000
0000
0110
0000
,
0010
0000
0000
0010
0000
0000
0000
0000
,
1000
0000
0001
0001
,
1000
0000
0000
0001
0000
0000
0000
0000
,
0100
0000
0000
0010
0000
0000
1001
0000
,
0001
0000
0000
1000
0000
0000
0000
0000
,
0010
0000
0000
0100
0000
0000
0001
0000
,
2002
0000
0000
0000
,
0000
0000
0000
0000
,
3003
0000
0000
0000
;

//---------------dance-single - ----------------
#NOTES:
     dance-single:
     :
     Beginner:
     2:
     0.152,0.275,0.051,0.000,0.000: // measure 1
0000
0000
0000
0000
,  // measure 2
0000
0000
0000
0000
,  // measure 3
0000
0000
0000
0000
,  // measure 4
0000
0000
0000
0000
,  // measure 5
0000
0000
0000
0000
,  // measure 6
0000
0000
0000
0000
,  // measure 7
0000
0000
0000
0000
,  // measure 8
0000
0000
0000
0000
,  // measure 9
0100
0000
0000
0000
,  // measure 10
0000
0000
0000
0000
,  // measure 11
0010
0000
0000
0000
,  // measure 12
0000
0000
0000
0000
,  // measure 13
1000
0000
0000
0000
,  // measure 14
0000
0000
0000
0000
,  // measure 15
0001
0000
0000
0000
,  // measure 16
0000
0000
0000
0000
,  // measure 17
1000
0000
0000
0000
,  // measure 18
0010
0000
0000
0000
,  // measure 19
0100
0000
0000
0000
,  // measure 20
0100
0000
0000
0000
,  // measure 21
0001
0000
0000
0000
,  // measure 22
0001
0000
0000
0000
,  // measure 23
1000
0000
0000
0000
,  // measure 24
0010
0000
0000
0000
,  // measure 25
0100
0000
0000
0000
,  // measure 26
0010
0000
0000
0000
,  // measure 27
1000
0000
0000
0000
,  // measure 28
0001
0000
0000
0000
,  // measure 29
1000
0000
0000
0000
,  // measure 30
0010
0000
0000
0000
,  // measure 31
0100
0000
0100
0000
,  // measure 32
0100
0000
0000
0000
,  // measure 33
1001
0000
0010
0000
,  // measure 34
0100
0100
0100
0000
,  // measure 35
0010
0000
0010
0000
,  // measure 36
0010
0010
0010
0000
,  // measure 37
1000
0000
1000
0000
,  // measure 38
1000
1000
1000
0000
,  // measure 39
0001
0000
0001
0000
,  // measure 40
0001
0001
0001
0000
,  // measure 41
0100
0000
0100
0000
,  // measure 42
0010
0010
0010
0000
,  // measure 43
1000
0000
1000
0000
,  // measure 44
0001
0001
0001
0000
,  // measure 45
1000
0000
0010
0000
,  // measure 46
0100
0100
0100
0000
,  // measure 47
0010
0000
1000
0000
,  // measure 48
0001
0000
0000
0000
,  // measure 49
1001
0000
0010
0000
,  // measure 50
0001
0001
0001
0000
,  // measure 51
1001
0000
0010
0000
,  // measure 52
0100
0100
0100
0000
,  // measure 53
0110
0000
0100
0000
,  // measure 54
0010
0010
0010
0000
,  // measure 55
1001
0000
1000
0000
,  // measure 56
0001
0001
0001
0000
,  // measure 57
1000
1000
1000
1000
,  // measure 58
1000
0000
0000
0000
,  // measure 59
0001
0001
0001
0001
,  // measure 60
0001
0000
0000
0000
,  // measure 61
0100
0100
0100
0100
,  // measure 62
0100
0000
0000
0000
,  // measure 63
0010
0010
0010
0010
,  // measure 64
0010
0000
0000
0000
,  // measure 65
0010
0000
0000
0000
,  // measure 66
1000
0000
0000
0000
,  // measure 67
0100
0000
0000
0000
,  // measure 68
1000
0000
0000
0000
,  // measure 69
0010
0000
0000
0000
,  // measure 70
0100
0000
0000
0000
,  // measure 71
0001
0000
0000
0000
,  // measure 72
0001
0000
0000
0000
,  // measure 73
1000
0000
0000
0000
,  // measure 74
0001
0000
0000
0000
,  // measure 75
0100
0000
0000
0000
,  // measure 76
0010
0000
0010
0010
,  // measure 77
0010
0000
0000
0000
,  // measure 78
1000
0000
0000
0000
,  // measure 79
0001
0000
0000
0000
,  // measure 80
0100
0000
0000
0000
,  // measure 81
1001
0000
0000
0000
;
