#TITLE:Stop;
#SUBTITLE:;
#ARTIST:Spice Girls;
#TITLETRANSLIT:;
#SUBTITLETRANSLIT:;
#ARTISTTRANSLIT:;
#CREDIT:;
#BANNER:;
#BACKGROUND:;
#LYRICSPATH:;
#CDTITLE:;
#MUSIC:Spice_Girls_-_Stop.ogg;
#OFFSET:-0.460;
#SAMPLESTART:61.200;
#SAMPLELENGTH:11.980;
#SELECTABLE:YES;
#BPMS:0.000=130.140,163.500=140.000,164.000=130.140;
#STOPS:;
#BGCHANGES:;

//---------------dance-single - ----------------
#NOTES:
     dance-single:
     :
     Hard:
     7:
     0.520,0.443,0.170,0.479,0.016: // measure 1
0000
0000
0000
0000
,  // measure 2
1001
0000
0110
0000
1000
0200
0000
0320
,  // measure 3
0000
0032
0000
0203
0000
0310
1000
0200
,  // measure 4
0010
0000
1000
0000
0301
0100
1000
0020
,  // measure 5
1000
0000
0001
0000
1000
1030
0100
0000
,  // measure 6
1001
0000
0200
0000
0320
0000
0130
0002
,  // measure 7
1000
0000
0000
0000
0010
0000
0000
0000
0103
0000
0010
0000
1000
0100
2000
0000
,  // measure 8
0001
0100
0001
3100
,  // measure 9
0110
0000
1001
0000
0100
0010
0110
0000
,  // measure 10
0100
0000
0001
0000
0010
0100
1000
0001
,  // measure 11
0100
0000
0010
0000
0100
0001
0010
0001
,  // measure 12
0100
0000
0010
0000
1000
0001
0100
0001
,  // measure 13
1000
0010
0100
0010
2000
0000
3002
0000
,  // measure 14
1003
0000
0100
0000
1000
0010
0100
0001
,  // measure 15
0010
0000
0001
0000
0100
0010
0100
0001
,  // measure 16
0010
0000
0100
0000
1000
0001
0100
0001
,  // measure 17
0010
0100
1000
0001
0200
0000
0320
0000
,  // measure 18
1030
0000
0001
0100
0001
0001
1000
0100
,  // measure 19
1100
0000
0001
0100
0020
0000
0230
0000
,  // measure 20
0301
0000
1000
0100
1000
1000
0001
0100
,  // measure 21
0101
0000
1000
0010
0200
0000
0320
0000
,  // measure 22
1030
0000
0001
0000
0100
0010
1000
0100
,  // measure 23
0010
0000
0001
0000
0100
0010
0100
0001
,  // measure 24
1000
0000
0100
0000
1000
0010
0100
0001
,  // measure 25
0010
0100
1000
0010
0200
0000
0302
0000
,  // measure 26
1003
0000
0100
1000
0100
1000
0100
1000
,  // measure 27
0001
0000
0000
0000
0101
0000
0000
0000
0100
0001
0000
0000
0101
0000
0000
0000
,  // measure 28
0001
0000
0010
0001
0010
0001
0010
0001
,  // measure 29
1000
0000
0000
0000
0010
0000
0000
0000
1000
0010
0000
0000
1010
0000
0000
0000
,  // measure 30
1000
0001
0100
0010
1000
0000
0100
0010
,  // measure 31
0002
0000
0103
0020
0000
1030
0100
2000
,  // measure 32
0000
3001
0100
0002
0000
1003
0010
2000
,  // measure 33
0000
3100
1000
0100
0020
0000
0230
0000
,  // measure 34
0310
0000
1001
0000
0100
0010
1000
0000
,  // measure 35
0100
0001
0100
0001
0100
0000
1000
0010
,  // measure 36
0200
0000
0320
0000
1030
0100
1000
1000
,  // measure 37
0002
0000
0203
0000
0310
1000
0100
1000
,  // measure 38
1000
0101
1100
1010
,  // measure 39
0010
0001
0010
0001
0010
0000
1000
0100
,  // measure 40
1000
1000
0001
0000
0100
0001
0100
0100
,  // measure 41
0020
0000
2030
0000
3200
0000
0010
0310
,  // measure 42
0001
1000
0200
0000
1300
0001
0200
0000
,  // measure 43
0310
1000
0100
0000
0010
0100
0010
0000
,  // measure 44
0002
0000
0203
0000
1300
0100
0001
0010
,  // measure 45
0002
0000
0023
0000
0130
1000
1001
0000
,  // measure 46
1000
0001
0020
0000
0031
1000
0020
0000
,  // measure 47
1030
0100
0010
0100
1000
0000
1000
0002
,  // measure 48
0000
0013
0100
0100
1000
0000
0100
2000
,  // measure 49
0000
3100
0010
0010
0001
0000
0200
0310
;

//---------------dance-single - ----------------
#NOTES:
     dance-single:
     :
     Medium:
     5:
     0.432,0.390,0.245,0.426,0.000:
0000
0000
0000
0000
,
1000
0000
0001
0000
0100
0002
0000
2003
,
0000
3200
0000
2300
0000
3001
0100
0000
,
0010
0000
1000
0000
0100
1000
1000
0000
,
0001
0000
0100
0000
0001
0010
0010
0000
,
0001
0000
0100
0000
1010
0000
0100
1000
,
0002
0000
0203
0000
0310
1000
0001
0000
,
0100
0010
1000
0010
,
0110
0000
1001
0000
1000
0001
1000
0000
,
0100
0000
1000
0000
0010
0100
0000
0010
,
0000
0000
0100
0000
0001
1000
0000
0100
,
0000
0000
1000
0000
0001
0100
0000
0020
,
0000
1030
0100
0000
1001
0000
0110
0000
,
0001
0000
0100
0000
0010
0100
0000
0010
,
0000
0000
0100
0000
0001
1000
0000
0100
,
0000
0000
1000
0000
0010
0100
0000
0002
,
0000
0103
0010
0000
1001
0000
0110
0000
,
1000
0000
0001
0000
0100
0001
0001
0000
,
0200
0320
2030
3200
,
1300
0000
0001
0000
0010
0001
0001
0000
,
0020
0032
0203
0320
,
1030
0000
0100
0000
1000
0010
0000
0100
,
0000
0000
0001
0000
0010
0001
0000
0100
,
0000
0000
0010
0000
1000
0001
0000
0200
,
0000
0310
1000
0000
1100
0000
0101
0000
,
0100
0000
1000
0000
0100
1000
0100
0000
,
2000
3002
0203
0320
,
1030
0000
0001
0000
0100
0001
0100
0000
,
0002
0203
0320
2030
,
3100
1000
0010
0000
0100
0010
1000
0000
,
0100
1000
0001
0200
0000
0310
0000
2000
,
0000
3001
0000
0020
0000
0031
0000
0200
,
0000
0310
1000
1000
0200
0000
2300
0000
,
3001
0000
0101
0000
1001
0000
1000
0100
,
0000
1000
0010
0000
0100
0000
1001
0000
,
1100
0000
0001
0000
1000
0100
1000
0000
,
0001
0000
1000
0000
0001
0100
0001
0000
,
1000
0000
0110
0000
1001
0000
0010
0001
,
0000
0010
0100
0000
1000
0000
0001
0100
,
0010
0100
1001
0101
,
0020
0032
0203
0302
,
1003
0100
1000
0000
0002
0000
0103
0000
,
0001
0100
0001
0000
2000
0000
3100
0000
,
1000
0001
1100
0101
,
1000
0001
1010
0011
,
1000
0100
1000
0000
0001
0200
0000
0310
,
0000
0000
1000
0000
0001
0000
0100
0020
,
0000
0100
0130
0000
1001
0000
0010
2000
,
0000
0001
3001
0000
0110
0000
1000
0100
;

//---------------dance-single - ----------------
#NOTES:
     dance-single:
     :
     Easy:
     3:
     0.329,0.364,0.170,0.469,0.000:
0000
0000
0000
0000
,
1000
0001
0100
0100
,
0002
2003
3200
2300
,
3002
0000
0100
0103
,
0020
0000
1000
1030
,
0001
1000
0100
1000
,
0020
0000
0100
0130
,
0002
0000
1000
1003
,
1001
0110
1001
1001
,
0100
1000
0010
0000
,
0100
0001
0010
0000
,
0001
1000
0100
0000
,
2000
3002
0203
0320
,
1030
0001
0100
0000
,
0001
1000
0100
0000
,
1000
0010
0100
0000
,
0002
0203
0320
2030
,
3100
1000
0010
0000
,
0100
0010
1000
0000
,
0001
1000
0100
1000
,
0010
0100
0010
0000
,
1000
0001
0010
0000
,
0001
1000
0010
0000
,
1000
0100
0010
0000
,
0200
0320
0032
2003
,
3100
1000
0010
0001
,
0011
0022
0033
0000
,
0010
0001
0100
1000
,
1100
2200
3300
0000
,
1000
0001
0200
0000
,
0301
1000
0200
0000
,
1300
0010
0100
0010
,
1001
0110
1001
1001
,
0100
1000
1100
0000
,
1000
0001
1001
0000
,
0001
0100
0010
1000
,
0200
2300
3002
0203
,
0310
1000
1001
0000
,
0010
0001
1001
0000
,
1000
0001
0100
0010
,
0200
0320
2030
3002
,
0203
0000
0320
0000
,
2030
0000
3200
0000
,
0310
0001
0010
0000
,
0100
1000
0100
0000
,
0020
0000
0032
0000
,
0203
0000
0320
0000
,
2030
0100
3010
0000
,
0002
0000
0010
0000
0103
0000
1000
0001
;

//---------------dance-single - ----------------
#NOTES:
     dance-single:
     :
     Beginner:
     1:
     0.169,0.208,0.043,0.117,0.000:
0000
0000
0000
0000
,
1000
0000
0001
0000
,
0100
0000
0001
0000
,
0020
0000
0030
0000
,
0002
0000
0003
0000
,
0100
0000
0010
0000
,
1000
0000
0001
0000
,
2000
0000
3000
0000
,
0001
1000
0001
0000
,
1000
0000
0001
0000
,
0100
0000
0010
0000
,
0100
0000
0001
0000
,
1000
0000
0100
0000
,
1000
0000
0010
0000
,
0100
0000
0001
0000
,
0010
0000
0100
0000
,
1000
0000
0001
0000
,
0100
0000
0010
0000
,
1001
0000
0110
0000
,
0001
0000
1000
0000
,
0110
0000
1001
0000
,
1000
0000
0100
0000
,
1000
0000
0010
0000
,
0100
0000
0001
0000
,
0010
0000
0100
0000
,
2000
0000
3002
0000
,
0100
0103
0000
0000
,
0002
0000
2003
0000
,
0010
3010
0000
0000
,
2000
3000
0002
0003
,
0200
0300
0020
0030
,
1000
0000
0001
0000
,
0100
0010
0100
0000
,
0001
0000
1000
0000
,
0100
0000
1000
0000
,
0010
0000
0100
0000
,
0010
0000
1000
0000
,
0100
0000
0010
0000
,
0001
0000
0010
0000
,
0001
0000
0100
0000
,
0010
0000
1000
0000
,
0001
0000
1000
0000
,
0100
0000
1000
0000
,
0010
0000
0100
0000
,
0001
0000
0010
0000
,
0001
0000
1000
0000
,
0100
0000
1000
0000
,
0001
0000
0100
0000
,
0010
0000
1000
0001
;
