#TITLE:ONLY GIRL (IN THE WORLD);
#SUBTITLE:;
#ARTIST:Rihanna;
#CREDIT:hooky;
#MUSIC:only girl.ogg;
#SELECTABLE:YES;
#BACKGROUND:Only Girl (In The World)-bg.png;
#BANNER:Only Girl (In The World).png;
#CDTITLE:;
#DISPLAYBPM:127.000:127.000;
#OFFSET:-0.26;
#SAMPLESTART:47.660;
#SAMPLELENGTH:18.500;
#BPMS:0=126.02;
#STOPS:;
#TITLETRANSLIT:23;
#BGCHANGES:-4.000=ONLY GIRL (IN THE WORLD).avi=1.000=0=0=1,99999=-nosongbg-=1.000=0=0=0
;

//---------------dance-single - ----------------
#NOTES:
     dance-single:
     :
     Beginner:
     1:
     0.000,0.000,0.000,0.000,0.000:
0000
0000
0000
0000
,
0000
0000
0000
0000
,
0000
0000
0000
0000
,
0000
0000
0000
0000
,
0000
1000
0000
0001
,
0000
0100
0000
0010
,
0000
0010
0000
0001
,
0000
0010
0000
0100
,
0000
0010
0000
0100
,
0000
0001
0000
0001
,
0000
0001
0000
0100
,
0000
0010
0000
0100
,
0000
0100
0000
0001
,
0000
0100
0000
1000
,
0000
0010
0000
0100
,
0000
0010
0000
0100
,
0000
1000
0000
0010
,
0000
1000
0000
0001
,
0000
0100
0000
1000
,
0000
1001
0000
0100
,
0220
0000
0000
0330
,
0000
0000
0000
0000
,
0000
0000
0000
0000
,
0000
0000
0000
0000
,
0000
0000
0000
0000
,
0000
0000
0000
0000
,
0000
0000
0000
0000
,
0000
0000
0000
0000
,
0010
0000
0010
0000
,
1000
0000
1000
0000
,
0010
0000
0010
0000
,
0100
0000
0100
0000
,
0001
0000
1000
0000
,
0001
0000
1000
0000
,
0110
0000
0000
0000
,
1001
0000
0000
0000
,
1000
0000
1000
0000
,
0100
0000
0100
0000
,
0001
0000
0100
0000
,
0001
0000
1000
0000
,
0010
0000
0100
0000
,
0010
0000
0100
0000
,
0010
0000
1000
0000
,
0100
0000
0001
0000
,
1000
0000
1000
0000
,
0100
0000
0001
0000
,
0010
0000
0010
0000
,
0100
0000
0010
0000
,
0001
0000
0100
0000
,
0001
0000
0010
0000
,
0001
0000
0001
0000
,
1000
0000
1000
0000
,
0010
0000
0000
0000
,
1000
0000
0000
0000
,
0001
0000
0000
0000
,
1000
0000
0000
0000
,
0010
0000
0000
0000
,
0001
0000
0000
0000
,
0110
0000
0000
0000
,
0000
0000
0000
0000
,
0000
0000
0000
0000
,
0000
0000
0000
0000
,
0000
0000
0000
0000
;

//---------------dance-single - ----------------
#NOTES:
     dance-single:
     :
     Easy:
     3:
     0.000,0.000,0.000,0.000,0.000:
0000
0000
0000
0000
,
0000
0000
0000
0000
,
0000
0000
0000
0000
,
0000
0000
0000
0000
,
1000
1000
0000
0001
,
0000
0100
0000
0010
,
1000
0010
0000
0001
,
0000
0010
0000
0100
,
1000
0010
0000
0100
,
0000
0001
0000
0001
,
0010
0001
0000
0100
,
0000
0010
0000
0100
,
0010
0100
1000
0001
,
0010
0100
0001
1000
,
0010
0000
0010
0000
,
0100
0000
0100
0000
,
0001
1000
0010
0010
,
0100
1000
0010
0001
,
0010
0100
0010
1000
,
2002
0000
0000
3003
,
0220
0000
0000
0000
,
0000
0000
0000
0330
,
2002
0000
0000
0000
,
0000
0000
0000
3003
,
2020
0000
0000
0000
,
0000
0000
0000
3030
,
0202
0000
0000
0000
,
0000
0000
0000
0303
,
0010
0100
0010
0000
,
1000
0001
1000
0000
,
1000
0000
0010
0000
,
0100
0100
0100
0000
,
0001
0000
1000
0000
,
0001
0000
1000
0010
,
0220
0000
0000
0330
,
2002
0000
0000
3003
,
1000
0100
1000
0010
,
0100
0000
0100
0100
,
0001
0010
0100
0010
,
0001
0000
1000
1000
,
0010
1000
0100
1000
,
0010
0000
0100
0001
,
0010
0001
1000
0010
,
0100
0000
0001
0001
,
1000
0010
1000
0010
,
0100
0001
0001
1000
,
0010
0100
0010
1000
,
0100
1000
0010
0100
,
0001
0010
0100
0010
,
0001
1000
0010
1000
,
0001
0001
0001
0001
,
1000
1000
1000
1000
,
0020
0000
0130
0000
,
2000
0000
3010
0000
,
0002
0000
0103
0000
,
2000
0000
3100
0000
,
0020
0000
0130
0000
,
0002
0000
1003
0000
,
0220
0000
0000
0000
,
0000
0000
0000
0000
,
0330
0000
0000
0000
,
0000
0000
0000
0000
,
0000
0000
0000
0000
;

//---------------dance-single - ----------------
#NOTES:
     dance-single:
     :
     Medium:
     6:
     0.000,0.000,0.000,0.000,0.000:
0000
0000
0000
0000
,
0000
0000
0000
0000
,
0000
0000
0000
0000
,
0000
0000
0000
0000
,
1000
1010
0001
0101
,
1000
1100
0001
0011
,
0010
0000
0100
0000
0010
0100
0010
0000
,
1000
0000
0100
0000
1000
0100
1000
0000
,
0001
0101
1000
1010
,
1000
1100
0001
0011
,
0100
0000
0010
0000
1000
0100
0010
0000
,
0001
0000
0001
0000
0001
0100
0010
0000
,
1000
1010
0100
1100
,
0001
1001
0100
0110
,
0010
0000
1010
0000
1000
0010
1000
0000
,
0001
0000
0101
0000
0100
1000
0100
0000
,
0010
0110
0001
0011
,
0100
0101
1000
1100
,
0001
0010
0001
0000
0100
0000
0100
0000
,
0010
0100
0010
0000
1000
0000
1000
0000
,
2200
0000
0000
3300
,
0022
0000
0000
0033
,
0202
0000
0000
0303
,
2200
0000
0000
3300
,
0220
0000
0000
0330
,
2002
0000
0000
3003
,
0220
0000
0000
0330
,
2002
0000
0000
3003
,
0001
0001
1000
1000
,
0010
0000
0010
0000
0100
0010
0100
0000
,
1000
1000
0100
0100
,
0001
0000
0001
0000
1000
0001
1000
0000
,
0010
0010
0020
0030
,
0100
0100
0200
0300
,
1000
0000
1000
0000
,
0001
0001
0010
0100
,
1000
0100
1000
0000
0001
0000
0001
0000
,
0010
0001
0010
0000
0100
0000
0100
0000
,
0010
1000
0010
0000
0100
0000
0100
0000
,
1000
0001
1000
0000
0100
0000
0100
0000
,
0010
1000
0010
0000
0100
0000
0100
0000
,
0001
0000
0001
0000
1000
0000
0010
1000
,
0010
0100
1000
0100
,
0010
0100
0001
0001
,
0010
0001
0010
0000
0100
0001
0100
0000
,
1000
0100
1000
0000
0010
1000
0010
0000
,
0100
0000
0010
0100
0010
0000
0001
1000
,
0001
0000
1000
0100
1000
0000
0010
0100
,
0010
0000
0010
0000
1000
0010
1000
0000
,
0001
0100
0001
0000
1000
0100
1000
0000
,
0010
0010
0100
0100
,
0001
0001
1000
1000
,
0010
0000
0010
0000
0010
1000
0010
0000
,
0100
0000
0100
0000
0100
0001
0100
0000
,
1000
0000
1000
0000
1000
0100
1000
0000
,
0001
0000
0001
0000
0010
0100
0010
0000
,
0001
0000
1001
0000
1000
0010
1000
0000
,
0001
0000
0101
0000
1000
0100
1000
0000
,
0020
0000
0000
0000
0000
0000
0000
0200
,
0000
0000
0000
0000
,
0330
0000
0000
0000
,
0000
0000
0000
0000
,
0000
0000
0000
0000
;

//---------------dance-single - ----------------
#NOTES:
     dance-single:
     :
     Hard:
     7:
     0.000,0.000,0.000,0.000,0.000:
0000
0000
0000
0000
,
0000
0000
0000
0000
,
0000
0000
0000
0000
,
0000
0000
0000
0000
,
1000
0000
0100
0000
1000
0100
1000
0000
,
0001
0000
0010
0000
0001
0010
0001
0000
,
0200
1000
0010
0301
,
0020
0001
0100
1030
,
0100
0000
0010
0000
0100
0010
0100
0000
,
1000
0000
0001
0000
1000
0001
1000
0000
,
1000
1000
0100
0000
0010
0010
0001
0000
,
0110
0000
1001
0000
1000
0100
1000
0000
,
0001
0010
0100
1000
0001
0000
0100
0000
,
1000
0100
0010
0001
1000
0000
0010
0000
,
0100
0010
0100
0000
1000
0100
1000
0000
,
0010
0001
0010
0000
0100
0010
1000
0100
,
1000
0100
1000
0000
0010
0001
0010
0000
,
0100
0000
0100
0000
0010
0100
0010
0000
,
2000
0100
0001
3010
,
0002
0100
0010
1003
,
2200
0000
0000
0000
3300
0011
0000
1100
,
0000
0110
0000
0011
0000
2200
3300
0000
,
0220
0000
0000
0330
0000
0101
0000
1010
,
0000
0110
0000
1001
0000
2002
0000
3003
,
0220
0000
0000
0330
0000
1100
0000
0110
,
0000
1100
0000
0011
0000
0220
0000
0330
,
2020
0000
0000
3030
0000
1100
0000
0011
,
0000
0110
0000
0011
0000
2020
0000
3030
,
0101
0000
1000
0000
0100
0010
0100
0000
,
1000
0100
1000
0100
0010
0001
0010
0000
,
1000
0100
1000
0010
0100
1000
0100
0000
,
0010
0001
0010
0100
0010
0001
1000
0000
,
0100
1000
0100
0000
0010
0001
0010
0000
,
0100
0010
0100
0000
1000
0100
1000
0000
,
0020
1000
0100
1030
,
2000
0010
0001
3100
,
1000
0010
0001
0100
1000
0100
1000
0100
,
0010
0100
0001
0010
0100
0010
0010
0100
,
1000
0100
1000
0100
0010
0100
0001
0010
,
1000
0100
1000
0010
0001
0100
0010
0100
,
1000
0100
0010
0100
1000
0001
0010
0100
,
1000
0100
1000
0010
0001
0100
0010
0000
,
2000
0010
0000
0001
0000
0100
3000
0001
,
0002
1000
0000
0010
0000
0100
0003
1000
,
1000
0100
1000
0010
0100
0001
0010
0100
,
1000
0100
1000
0010
0100
0001
0010
0100
,
1000
0100
1000
0100
0010
0100
1000
0001
,
0010
0001
0010
0100
0001
0010
0100
1000
,
1000
0100
1000
0010
0001
0100
0010
0100
,
1000
0100
1000
0010
0001
0100
0010
0000
,
1000
0100
1000
0000
0100
0010
0100
0000
,
0001
0010
0001
0000
0100
1000
0010
0000
,
2000
0100
0010
3100
,
0002
0100
0010
0103
,
0200
1000
0010
1300
,
0010
0100
0010
0000
0001
1000
0001
0000
,
0120
1000
0100
0031
,
0100
0001
1000
0000
0010
0100
0010
0200
,
0000
0020
0000
0300
0000
0001
0000
2000
,
0000
0000
0000
0000
,
3030
0000
0000
0000
,
0000
0000
0000
0000
,
0000
0000
0000
0000
;

//---------------dance-single - ----------------
#NOTES:
     dance-single:
     :
     Challenge:
     9:
     0.000,0.000,0.000,0.000,0.000:
0000
0000
0000
0000
,
0000
0000
0000
0000
,
0000
0000
0000
0000
,
0000
0000
0000
0000
,
1000
0000
0100
0000
1000
0000
0010
0001
0000
0010
0001
0000
0100
0000
1000
0000
,
0100
0000
0010
0000
0100
0000
1000
0001
0000
0001
1000
0000
1000
0000
0100
0000
,
0001
0000
0010
0000
0001
0000
1000
0010
0000
0010
0100
0000
0010
0000
0100
0000
,
1000
0000
0100
0000
1000
0000
0010
0001
0000
0010
0100
0000
1000
0000
0100
0000
,
0001
0000
0010
0000
0001
0000
0100
1000
0000
0100
1000
0000
0010
0000
0001
0000
,
0010
0000
0100
0000
0010
0000
0001
1000
0000
1000
0001
0000
0001
0000
0010
0000
,
1000
0000
0100
0000
1000
0000
0001
0100
0000
0100
0010
0000
0100
0000
0010
0000
,
0001
0000
0010
0000
0001
0000
0100
1000
0000
0100
0010
0000
0001
0000
0010
0000
,
0100
0000
0001
0000
0100
0000
1000
0010
0000
1000
0010
0000
0001
0000
0100
0000
,
0001
0000
1000
0000
0001
0000
0100
0010
0000
0010
0100
0000
0100
0000
0001
0000
,
0010
0000
1000
0000
0010
0000
0100
1000
0000
1000
0001
0000
1000
0000
0001
0000
,
0100
0000
0001
0000
0100
0000
1000
0010
0000
1000
0001
0000
0100
0000
0001
0000
,
0010
0000
1000
0000
0010
0000
0001
0100
0000
0001
0100
0000
1000
0000
0010
0000
,
1000
0000
0001
0000
1000
0000
0010
0100
0000
0100
0010
0000
0010
0000
1000
0000
,
0100
0000
0001
0000
0100
0000
0010
0001
0000
0001
1000
0000
0001
0000
1000
0000
,
0010
0000
1000
0000
0010
0000
0001
0100
0000
0001
1000
0000
0010
0000
1000
0000
,
0220
0000
0000
0330
0000
1100
0000
0011
,
0000
1100
0000
0110
0000
0101
0000
1010
,
2020
0000
0000
3030
0000
0110
0000
1100
,
0000
0011
0000
0110
0000
1001
0000
0110
,
0220
0000
0000
0330
0000
0101
0000
1010
,
0000
0110
0000
0011
0000
1100
0000
0101
,
2020
0000
0000
3030
0000
0110
0000
1010
,
0000
0101
0000
1001
0000
1001
0000
0110
,
0011
0000
0010
0000
0001
0000
0100
1000
0000
0100
1000
0000
0010
0000
0001
0000
,
0010
0000
0100
0000
0010
0000
0001
1000
0000
1000
0001
0000
0001
0000
0010
0000
,
1000
0000
0100
0000
1000
0000
0001
0100
0000
0100
0010
0000
0100
0000
0010
0000
,
0001
0000
0010
0000
0001
0000
0100
1000
0000
0100
0010
0000
0001
0000
0010
0000
,
1000
0000
0100
0000
1000
0000
0010
0001
0000
0010
0001
0000
0100
0000
1000
0000
,
0100
0000
0010
0000
0100
0000
1000
0001
0000
0001
1000
0000
1000
0000
0100
0000
,
0001
0000
0010
0000
0001
0000
1000
0010
0000
0010
0100
0000
0010
0000
0100
0000
,
1000
0000
0100
0000
1000
0000
0010
0001
0000
0010
0100
0000
1000
0000
0100
0000
,
0010
0000
1000
0000
0010
0000
0001
0100
0000
0001
0100
0000
1000
0000
0010
0000
,
1000
0000
0001
0000
1000
0000
0010
0100
0000
0100
0010
0000
0010
0000
1000
0000
,
0100
0000
0001
0000
0100
0000
0010
0001
0000
0001
1000
0000
0001
0000
1000
0000
,
0010
0000
1000
0000
0010
0000
0001
0100
0000
0001
1000
0000
0010
0000
1000
0000
,
0100
0000
0001
0000
0100
0000
1000
0010
0000
1000
0010
0000
0001
0000
0100
0000
,
0001
0000
1000
0000
0001
0000
0100
0010
0000
0010
0100
0000
0100
0000
0001
0000
,
0010
0000
1000
0000
0010
0000
0100
1000
0000
1000
0001
0000
1000
0000
0001
0000
,
0100
0000
0001
0000
0100
0000
1000
0010
0000
1000
0001
0000
0100
0000
0001
0000
,
0100
0000
0010
0000
0001
0000
0100
1000
0000
0100
1000
0000
0010
0000
0001
0000
,
0010
0000
0100
0000
0010
0000
0001
1000
0000
1000
0001
0000
0001
0000
0010
0000
,
1000
0000
0100
0000
1000
0000
0001
0100
0000
0100
0010
0000
0100
0000
0010
0000
,
0001
0000
0010
0000
0001
0000
0100
1000
0000
0100
0010
0000
0001
0000
0010
0000
,
1000
0000
0100
0000
1000
0000
0010
0001
0000
0010
0001
0000
0100
0000
1000
0000
,
0100
0000
0010
0000
0100
0000
1000
0001
0000
0001
1000
0000
1000
0000
0100
0000
,
0001
0000
0010
0000
0001
0000
1000
0010
0000
0010
0100
0000
0010
0000
0100
0000
,
1000
0000
0100
0000
1000
0000
0010
0001
0000
0010
0100
0000
1000
0000
0100
0000
,
0010
0000
1000
0000
0010
0000
0001
0100
0000
0001
0100
0000
1000
0000
0010
0000
,
1000
0000
0001
0000
1000
0000
0010
0100
0000
0100
0010
0000
0010
0000
1000
0000
,
0100
0000
0001
0000
0100
0000
0010
0001
0000
0001
1000
0000
0001
0000
1000
0000
,
0010
0000
1000
0000
0010
0000
0001
0100
0000
0001
1000
0000
0010
0000
1000
0000
,
0100
0000
0001
0000
0100
0000
1000
0010
0000
1000
0010
0000
0001
0000
0100
0000
,
0001
0000
1000
0000
0001
0000
0100
0010
0000
0010
0100
0000
0100
0000
0001
0000
,
0200
2000
0000
0300
0000
0001
0000
0020
,
0000
0000
0000
0000
,
3030
0000
0000
0000
,
0000
0000
0000
0000
,
0000
0000
0000
0000
;
