#TITLE:Melody Of Life;
#SUBTITLE:;
#ARTIST:ReinXeed;
#TITLETRANSLIT:;
#SUBTITLETRANSLIT:;
#ARTISTTRANSLIT:;
#CREDIT:;
#BANNER:bn.PNG;
#BACKGROUND:bg.PNG;
#LYRICSPATH:;
#CDTITLE:;
#MUSIC:Melody Of Life.ogg;
#OFFSET:-0.085;
#SAMPLESTART:41.220;
#SAMPLELENGTH:16.420;
#SELECTABLE:YES;
#BPMS:0.000=160.030;
#STOPS:;
#BGCHANGES:;

//---------------dance-single - ----------------
#NOTES:
     dance-single:
     :
     Hard:
     8:
     0.603,0.556,0.167,0.464,0.111:
0000
0000
0000
0000
,
0000
0000
0000
0000
,
0000
0000
0000
0000
,
0000
0000
0000
0000
,
2000
0000
0000
3200
0000
0000
0320
0000
,
0000
0032
0000
0000
0023
0000
0230
0000
,
2300
0010
0001
3010
,
0002
0000
1000
0000
0010
0003
1000
0010
,
0100
0101
0001
0011
,
0010
0000
0110
0000
0100
0000
1000
0010
,
0100
0000
0001
0010
0000
0001
0100
0010
,
1000
0000
0100
1000
0000
0010
1000
0001
,
0010
0000
0001
0100
0010
0000
1000
0000
,
0100
0000
1000
0010
0100
0000
0001
0000
,
0011
0000
0010
0100
1000
0000
0010
0000
,
1000
0000
0001
0010
0001
0000
0100
0000
,
0110
0000
0010
1000
1100
0000
0100
0000
,
0110
0000
0010
0001
0101
0000
0100
0000
,
0010
1000
0100
0010
0001
1000
0010
1000
,
0001
0100
0001
0010
0100
1000
0010
0100
,
0002
0000
1000
0000
1003
0001
0000
1001
,
0000
0002
0023
0230
,
1300
0010
1000
0001
0010
0001
1000
0100
,
0000
1000
0010
0100
0001
0010
0100
0000
,
1000
0000
1010
0000
0010
0000
0100
0001
,
0010
0000
0011
0000
0010
0100
1000
0010
,
1000
0000
0001
0010
0001
0000
1000
0100
,
1000
0001
0100
0001
0010
0001
0100
0010
,
1000
0000
0100
0010
0001
0000
1001
0000
,
2000
3020
0230
0302
,
0023
0000
0130
1000
0001
0000
0011
0000
,
0002
0203
0320
2030
,
3100
0000
0010
0001
1000
0000
1001
0000
,
1000
0000
0010
0100
0001
0000
0010
0000
,
0001
0000
0100
0010
1000
0000
0100
0000
,
0010
0001
1000
0010
1000
0001
0100
0001
,
1000
0000
0100
1000
0010
0000
1010
0000
,
0020
0230
0302
0023
,
0130
0000
1000
0010
0001
0000
0011
0000
,
0010
0000
1000
0100
0001
0000
0100
0000
,
1100
0000
1000
0010
0100
0000
0001
0000
,
0010
0000
0001
0100
0010
0000
1000
0000
,
1001
0000
0001
0010
0100
0000
1000
0000
,
0010
1000
0001
0010
0001
0100
0010
1000
,
0200
0320
0032
2003
,
3020
0000
2030
0000
3002
0000
0013
0001
,
0200
0320
2030
3200
,
0310
0001
1000
0100
1000
0001
0010
1000
,
0010
0001
0100
0010
1000
0100
0010
0001
,
1000
0000
0000
1000
0010
0000
0000
0010
0100
0000
0000
0100
0001
0000
0000
0001
,
0010
0000
0000
0010
0100
0000
0000
0100
1000
0000
0000
1000
0010
0000
0000
0010
,
0200
0000
0301
0100
0010
1000
0100
0010
,
0001
0010
1000
0010
0002
0000
0103
0000
,
0010
0000
0000
0010
1000
0000
0000
1000
0100
0000
0000
0100
0010
0000
0000
0010
,
0001
0000
0000
0001
1000
0000
0000
1000
0010
0000
0000
0010
0100
0000
0000
0100
,
0001
0010
1000
0010
0001
0100
0010
1000
,
0001
0001
1000
1000
0100
0100
0010
0010
,
0001
0000
0000
0001
1000
0000
0000
1000
0100
0000
0000
0100
0010
0000
0000
0010
,
0001
0000
0000
0001
0100
0000
0000
0100
0010
0000
0000
0010
1000
0000
0000
1000
,
0002
0000
1003
0100
1000
0010
0001
0010
,
2000
0000
0100
0000
3010
0000
0001
0100
,
0020
1030
0002
0103
,
0020
1030
0200
0310
,
0001
0100
0010
1000
0100
0001
0100
1000
,
0010
0010
0100
0100
0001
0001
0010
0010
,
0001
0100
0010
1000
0100
1000
0010
0100
,
0001
0010
0001
0100
0010
1000
0001
1000
,
0002
0000
0000
0000
0000
1003
0010
0100
,
0020
0000
0000
0000
0000
1030
0001
0010
,
0002
0203
0320
2030
,
3100
0010
0001
1000
0001
0000
0000
0000
;

//---------------dance-single - ----------------
#NOTES:
     dance-single:
     :
     Beginner:
     1:
     0.110,0.163,0.000,0.000,0.000:
0000
0000
0000
0000
,
0000
0000
0000
0000
,
0000
0000
0000
0000
,
0000
0000
0000
0000
,
1000
0000
0000
0000
,
1000
0000
0000
0000
,
1000
0000
0000
0000
,
0000
0000
0000
0000
,
0001
0000
0000
0000
,
0001
0000
0000
0000
,
0001
0000
0000
0000
,
0000
0000
0000
0000
,
1000
0000
0000
0000
,
0010
0000
0000
0000
,
0100
0000
0000
0000
,
0001
0000
0000
0000
,
0010
0000
0010
0000
,
0010
0000
0010
0000
,
0010
0000
0000
0000
,
0100
0000
0100
0000
,
0100
0000
0000
0000
,
1000
0000
0000
0000
,
0010
0000
0000
0000
,
1000
0000
0000
0000
,
0001
0000
0000
0000
,
0010
0000
0000
0000
,
0001
0000
0000
0000
,
0100
0000
0100
0000
,
0100
0000
0000
0000
,
0010
0000
0010
0000
,
0010
0000
0000
0000
,
1000
0000
1000
0000
,
1000
0000
0000
0000
,
0001
0000
0000
0000
,
0010
0000
0000
0000
,
0001
0000
0001
0000
,
0001
0000
0000
0000
,
0010
0000
0000
0000
,
0100
0000
0100
0000
,
0000
0000
1000
0000
,
1000
0000
1000
0000
,
0000
0000
0010
0000
,
0010
0000
0000
0000
,
0100
0000
0100
0000
,
0100
0000
0000
0000
,
0001
0000
0000
0000
,
0010
0000
0000
0000
,
0100
0000
0000
0000
,
1000
0000
0000
0000
,
0010
0000
0010
0000
,
0010
0000
0010
0000
,
0010
0000
0000
0000
,
1000
0000
0000
0000
,
0100
0000
0100
0000
,
0100
0000
0100
0000
,
0100
0000
0000
0000
,
0001
0000
0000
0000
,
0010
0000
0010
0000
,
0010
0000
0010
0000
,
0010
0000
0000
0000
,
0001
0000
0000
0000
,
0100
0000
0100
0000
,
0100
0000
0100
0000
,
0100
0000
0000
0000
,
0010
0000
0000
0000
,
0000
0000
0000
0000
,
0000
0000
0000
0000
,
1000
0000
0000
0000
,
0001
0000
0000
0000
,
1000
0000
1000
0000
,
0001
0000
0001
0000
;

//---------------dance-single - ----------------
#NOTES:
     dance-single:
     :
     Easy:
     3:
     0.231,0.294,0.009,0.130,0.000:
0000
0000
0000
0000
,
0000
0000
0000
0000
,
0000
0000
0000
0000
,
0000
0000
0000
0000
,
1000
0000
0100
0000
,
1000
0000
0010
1000
,
0010
0000
0100
0000
,
0001
0000
0010
0000
,
0001
0000
0100
0010
,
0100
0000
0010
1000
,
0010
0100
0001
0000
,
0010
0100
1000
0000
,
0010
0000
1000
0000
,
0001
0000
0010
0000
,
0001
0000
0100
0010
,
0100
0000
0010
0000
,
1000
0000
0100
0000
,
0010
0000
0001
0000
,
1000
0010
1000
0000
,
0001
0010
0001
0000
,
1000
0000
0000
0100
,
0100
0000
0000
0000
,
0010
0000
0001
1000
,
0001
0000
0010
0001
,
0010
0000
0001
0000
,
0100
0000
0010
0000
,
1000
0000
0100
0010
,
0100
0000
0010
0001
,
0020
0000
0000
0030
,
0001
0000
0100
0001
,
0200
0000
0000
0300
,
0010
0000
1000
0100
,
2000
0000
0000
3000
,
0010
0000
0100
0001
,
0100
0000
0001
0000
,
0010
0100
1000
0100
,
0020
0000
0000
0030
,
0001
0000
0100
0010
,
0100
0000
0020
0000
,
0000
0030
1000
0001
,
2000
3000
0002
0000
,
0000
0003
0020
0030
,
0200
0000
0300
1000
,
0010
1000
0001
0010
,
0001
0000
0100
0000
,
0010
0000
1000
0000
,
0100
0010
0100
0010
,
0002
0000
0000
0003
,
2000
0000
0000
3000
,
0010
0010
0100
0100
,
0001
0001
1000
1000
,
0100
0000
0010
0000
,
0001
0000
1000
0000
,
0010
0010
0100
0100
,
0001
0001
0010
0010
,
0200
0000
0000
0300
,
1000
1000
1000
1000
,
0010
0010
0100
0100
,
0001
0001
0010
0010
,
0100
0000
1000
0010
,
1000
0000
0001
0010
,
0001
0000
1000
0000
,
0010
0000
0100
0000
,
0001
0000
0010
0000
,
0100
0100
0100
0100
,
0000
0000
0000
0000
,
0000
0000
0000
0000
,
2000
0000
0000
3000
,
0002
0000
0000
0003
,
1000
0000
0010
0000
,
0100
0000
1001
0000
;

//---------------dance-single - ----------------
#NOTES:
     dance-single:
     :
     Medium:
     6:
     0.440,0.556,0.083,0.492,0.000: // measure 1
0000
0000
0000
0000
,  // measure 2
0000
0000
0000
0000
,  // measure 3
0000
0000
0000
0000
,  // measure 4
0000
0000
0000
0000
,  // measure 5
1000
0000
0000
0100
0000
0000
0010
0000
,  // measure 6
0000
0001
0000
0000
0100
0000
0010
0000
,  // measure 7
1000
0010
0100
0001
,  // measure 8
0010
0000
0100
0000
1000
0000
0001
1000
,  // measure 9
0001
1000
0010
1000
,  // measure 10
0001
0010
0001
0100
,  // measure 11
0010
0000
1000
0010
0000
0000
0100
0000
,  // measure 12
0001
0000
0010
0100
0000
0000
0010
0000
,  // measure 13
0001
0100
0010
1000
,  // measure 14
0100
1000
0001
0010
,  // measure 15
0001
0000
0100
0000
0000
0010
0000
0000
,  // measure 16
0100
0010
1000
0100
,  // measure 17
0020
0030
0002
0003
,  // measure 18
0200
0300
0020
0030
,  // measure 19
1000
0001
0010
0001
,  // measure 20
0100
0010
1000
0100
,  // measure 21
0110
0000
0000
0000
0000
0011
0000
0011
,  // measure 22
0000
0002
0023
0230
,  // measure 23
1300
0000
0010
0000
1000
0000
0001
0010
,  // measure 24
0000
0000
0001
0000
0100
0001
0100
0000
,  // measure 25
0010
0000
0100
0000
0010
0000
1000
0100
,  // measure 26
1000
0000
0010
0000
0100
0000
0001
0010
,  // measure 27
0001
0000
0100
0000
0010
0000
1000
0001
,  // measure 28
1000
0010
1000
0001
,  // measure 29
0010
0000
0001
0100
0001
0000
0100
0000
,  // measure 30
0010
1000
0100
0010
,  // measure 31
0001
0000
1000
0001
1000
0000
0010
0000
,  // measure 32
1000
0001
0010
0001
,  // measure 33
0100
0000
0010
0100
0010
0000
1000
0000
,  // measure 34
0100
0000
1000
0010
1000
0000
0001
0000
,  // measure 35
0010
0000
0001
0100
0001
0000
0100
0000
,  // measure 36
0010
1000
0010
0000
1000
0100
1000
0000
,  // measure 37
0001
0000
0010
0001
0010
0000
0001
0000
,  // measure 38
0100
0010
1000
0100
,  // measure 39
0010
0000
0001
1000
0001
0000
0010
0000
,  // measure 40
0001
0100
0010
1000
,  // measure 41
0100
0000
0010
0001
0010
0000
0001
0000
,  // measure 42
0100
0010
1000
0001
,  // measure 43
0010
0000
0001
0100
0001
0000
0100
0000
,  // measure 44
0010
1000
0100
0000
0010
0001
0100
0000
,  // measure 45
0020
2030
3002
0023
,  // measure 46
0032
0000
0203
0000
0320
0000
1030
0100
,  // measure 47
2000
3020
0230
0302
,  // measure 48
0013
0001
0100
0010
,  // measure 49
1000
0100
0010
0001
,  // measure 50
2000
3020
2030
3002
,  // measure 51
0023
0032
0203
0320
,  // measure 52
2030
3100
0010
0001
,  // measure 53
1000
0010
0100
0001
0200
0000
0300
0000
,  // measure 54
0020
2030
3002
0023
,  // measure 55
0032
0203
0320
2030
,  // measure 56
3100
0010
0001
0100
,  // measure 57
0010
1000
0100
0000
0010
0001
1000
0000
,  // measure 58
0020
2030
3002
0023
,  // measure 59
0032
0203
0320
2030
,  // measure 60
3200
0000
0310
0000
0001
0000
0100
0010
,  // measure 61
0100
0000
0010
0000
1000
0000
0100
1000
,  // measure 62
0200
0300
0020
0030
,  // measure 63
0002
0003
2000
3000
,  // measure 64
0010
1000
0001
0010
,  // measure 65
0001
1000
0001
1000
0001
1000
0001
1000
,  // measure 66
0000
0000
0000
0000
,  // measure 67
0000
0000
0000
0000
,  // measure 68
2002
0000
0000
3003
,  // measure 69
0220
0000
0000
0330
,  // measure 70
1010
0101
0011
1100
,  // measure 71
1000
0001
1000
0001
1000
0000
0000
0000
;
