#TITLE:マトリョシカ (Rap Version);
#SUBTITLE:;
#ARTIST:ハチ feat. ゼブラ and はしやん;
#TITLETRANSLIT:Matryoshka (Rap Version);
#SUBTITLETRANSLIT:;
#ARTISTTRANSLIT:Hachi feat. Zebra and Hashiyan;
#GENRE:Happy Vocaloid Cover;
#CREDIT:Frozen_Heat/Azn_Punk_07/GuardianFrozen;
#MENUCOLOR:#01b7cd;
#METERTYPE:DDR;
#BANNER:Matryoshka (Rap Version)-bn.png;
#BACKGROUND:Matryoshka (Rap Version)-bg.png;
#LYRICSPATH:[Happy Songs] - Matryoshka (Rap Version).lrc;
#CDTITLE:!cdtitle.png;
#MUSIC:Matryoshka (Rap Version).mp3;
#OFFSET:-0.055;
#SAMPLESTART:46.420;
#SAMPLELENGTH:15.000;
#SELECTABLE:YES;
#LISTSORT:;
#BPMS:0.000=205.000,256.000=209.000,264.000=214.000,272.000=220.000,276.000=230.000,280.000=245.000,284.000=250.000,288.000=255.000,296.000=265.000,304.000=275.000,312.000=290.000;
#STOPS:;
#BGCHANGES:7.000=[Happy Songs] - Matryoshka (Rap Version).avi=1.000=1=0=1,
224.000=[Happy Songs] - Matryoshka (Rap Version).avi=1.200=0=0=1,
226.000=[Happy Songs] - Matryoshka (Rap Version).avi=1.000=0=0=1,
99999=-nosongbg-=1.000=0=0=0 // don't automatically add -songbackground-
;
#ATTACKS:;

//---------------dance-single - ----------------
#NOTES:
     dance-single:
     :
     Hard:
     9:
     0.771,0.772,0.634,0.097,0.000:
0000
0000
0000
0000
,
0000
0000
0000
0000
,
0000
0000
0000
0000
,
1000
1100
0001
0101
,
1010
0000
1000
0100
0001
0100
0000
0100
,
1000
0001
0100
1000
0100
0000
0001
0010
,
0100
0000
1000
0010
0001
0010
0000
0010
,
1000
0100
0010
0001
1000
0000
1100
0000
,
0011
0000
0001
0100
0001
0001
0000
1000
,
1000
0010
0100
0001
0010
0000
0100
0100
,
1000
0000
0001
0001
0100
0010
0000
0010
,
0100
0001
1000
0010
0010
0000
1010
0000
,
0000
0002
0000
1003
0200
0000
1300
0010
,
1000
0000
1010
0000
0011
0000
0100
2000
,
0000
3100
0010
0100
0020
0000
0031
0100
,
0001
0100
1000
0100
1000
0000
1100
0000
,
0101
0000
0010
1000
0100
0000
0010
0001
,
1000
0000
0101
0000
0110
0000
0010
1000
,
0000
0001
0100
0000
1000
0100
0000
0010
,
1000
0011
2002
3003
,
1010
0000
0001
0100
0000
0001
0010
0100
,
0001
0000
1000
0100
0000
1000
0010
0100
,
0001
0000
1001
0000
0100
0001
0100
0000
,
0010
1000
0000
0100
0010
0001
0010
0000
,
0100
1000
0100
0010
0100
0000
1100
0000
,
1001
0000
0101
0000
0010
0000
0100
0001
,
0000
0001
0010
0000
0011
0000
0100
0010
,
0001
0100
0010
0001
0010
0000
1000
0010
,
1000
0001
0010
0001
0100
0000
0101
0000
,
1001
0000
1010
0000
0101
0000
1000
0100
,
0000
0010
0001
1000
0100
0010
0001
1000
,
0001
0001
0010
0100
0220
0000
0330
0000
,
0011
0000
0001
0100
0000
0001
0010
0000
,
1010
0000
1000
0100
0000
1000
0010
1000
,
0100
0001
0000
0001
0100
1000
0000
1001
,
0000
0001
0100
1000
0100
0000
0110
0000
,
1001
0000
0001
0010
0000
1000
0010
0000
,
1001
0000
1000
0100
0000
0001
0100
0001
,
1000
1000
0100
0010
0001
0100
0010
1000
,
0011
0000
0110
0000
1100
0001
1000
0001
,
0100
0000
0001
1000
0000
1100
0000
0101
,
0000
0001
0010
0000
0011
0000
1100
0000
,
0001
0100
0000
0010
1000
0010
0000
0100
,
0001
0100
0010
1000
0010
0000
1100
0000
,
1010
0000
0001
0100
0000
0101
0000
1010
,
0000
1000
0001
0000
1001
0000
1000
0000
,
0110
0000
0000
0010
1000
0000
1100
0000
,
1000
0100
0010
0100
0010
0000
0002
0000
,
0013
0000
0001
0100
0000
0101
0000
1001
,
0000
1000
0100
0000
0011
0000
1100
0000
,
1000
0100
1000
0000
0001
0010
0001
0000
,
1000
0100
1000
0001
0010
0001
1000
0000
,
1001
0000
0001
0100
0000
0010
1000
0010
,
0000
0001
0101
0000
1010
0000
0100
0000
,
0001
0000
1000
0100
0000
1000
0100
0000
,
0010
0001
0010
0100
1000
0000
0001
0000
,
1100
0000
0000
0001
0100
0000
0101
0000
,
0000
0000
1000
0010
0000
0000
0010
1000
,
0000
0001
1000
0001
1000
0001
0010
0100
,
1000
0000
1100
0000
0100
0010
0001
0100
,
0001
0000
0001
1000
0000
1000
0010
1000
,
0100
0010
0001
0000
0001
0100
0000
0000
,
0001
0010
0000
0100
0000
0010
0001
1000
,
0010
1000
0001
1000
0100
0000
1100
0000
,
1010
0000
0001
0100
0000
0010
1000
0010
,
0000
1000
0100
0010
0001
0000
0001
0100
,
0000
0001
1000
0000
1000
0100
0010
0000
,
0010
0100
1000
0001
0100
0010
0100
0000
,
0001
0001
0010
0100
0100
0000
1000
1000
,
0001
0001
0100
0010
0010
1000
0100
0010
,
0100
1000
0010
0001
0010
1000
0100
0010
,
0001
0100
0010
1000
0001
0010
0001
0000
,
1000
0000
0100
0000
1000
0100
1000
0000
,
0010
0000
0100
0000
0001
1000
0001
0000
,
0010
0000
0100
0000
0010
0001
1000
0000
,
0010
0000
0100
0000
0001
1000
0100
0000
,
0010
0100
1000
0000
0100
1000
0001
0000
,
0100
0001
0100
0000
0010
1000
0010
0000
,
0001
0100
0010
0000
1000
0001
0010
0000
,
0001
0011
1000
1010
;

//---------------dance-single - ----------------
#NOTES:
     dance-single:
     :
     Challenge:
     10:
     0.966,0.900,0.946,0.000,0.263:
0000
0000
0000
0000
,
0000
0000
0000
0000
,
0000
0000
0000
0000
,
0011
0101
1010
1100
,
0010
0000
0000
0000
0001
1000
0001
0000
0100
0000
0001
0000
0000
0000
0001
0000
,
1000
0010
1000
0000
0100
0000
0010
0000
0100
0000
0000
0000
1000
0000
0010
0100
,
0010
0000
0000
0000
1000
0001
1000
0000
0100
0000
0010
0000
0000
0000
0001
0000
,
0100
0001
0100
0000
0010
0000
1000
0000
0100
0000
0000
0000
0011
0000
0000
0000
,
1100
0000
0000
0000
0010
0100
0010
0000
0001
0000
0100
0000
0000
0000
0010
0000
,
1000
0001
1000
0000
0100
0000
0010
0000
0100
0000
0000
0000
1000
0000
0100
1000
,
0100
0000
0000
0000
0010
0001
0010
0000
0001
0000
0100
0000
0000
0000
0010
0000
,
1000
0010
1000
0000
0100
0000
0010
0000
0001
0000
0000
0000
0101
0000
0000
0000
,
0000
1010
0000
0001
1000
0100
1000
0001
,
0011
0000
1100
0000
1001
0000
1000
1010
,
0000
0100
0101
0010
1000
0000
0100
1000
,
0100
0000
0010
0000
0001
0000
0010
0000
0011
0000
1000
0001
1000
0000
0001
1000
,
0001
0100
0010
1000
0010
0010
0100
0100
,
0101
0000
0010
1000
0100
0000
0010
0001
,
0000
0001
0100
0001
0010
0100
0000
1000
,
1100
0000
0000
0000
0011
0000
0000
0000
1000
0001
1000
0001
1000
0000
0000
0000
,
1001
0000
1000
1100
0000
0001
0101
1000
,
0010
0000
1000
1010
0000
0001
0011
1000
,
0100
0000
0110
0000
0001
0100
1000
0100
,
0001
0001
0010
0000
0100
0100
1000
0000
,
0000
0100
0101
0000
0011
0000
1010
0000
,
1100
0000
0011
0000
1001
0000
0001
0101
,
0000
0010
1000
0100
0010
0000
0001
0001
,
0010
0000
0100
0000
1000
0000
0100
0000
1100
0000
0001
1000
0001
0000
1000
0001
,
1000
0010
0100
0001
0100
0100
0010
0010
,
1000
0001
0001
0000
1100
0000
0100
1000
,
0000
1000
0010
1000
0100
0010
0001
0001
,
0001
0000
0010
0000
0100
0000
1000
0000
0001
1000
0001
1000
0001
0000
0000
0000
,
1001
0000
0000
0000
0001
0000
0101
0000
0000
0000
1000
0100
1000
0000
0010
0000
,
0110
0000
0000
0000
1000
0000
1100
0000
0000
0000
0010
0100
0010
0000
1000
0000
,
0001
0010
0100
0010
0001
0100
1000
0100
,
0010
1000
0100
0010
0001
0010
0100
0000
,
1001
0000
0000
0000
1000
0000
1010
0000
0000
0000
0001
0010
0001
0000
0100
0000
,
0110
0000
0000
0000
0001
0000
0011
0000
0000
0000
0100
0010
0100
0000
0001
0000
,
1000
0100
0001
1000
0010
0001
0100
1000
,
1100
0000
0101
0000
0110
1000
1000
1000
,
0001
0000
0001
1010
0000
1001
0000
1100
,
0000
0010
0011
0000
1100
0000
0010
0000
,
0010
0100
1000
0001
1000
0100
0010
0001
,
1000
0100
0010
0100
1000
0000
1001
0000
,
0101
0000
0010
0100
0000
0101
0000
1010
,
0000
0001
1100
0000
0011
0000
0100
0000
,
1001
0000
0001
0100
1000
0100
0001
0010
,
1000
0001
0100
1000
0100
0000
1100
0000
,
0011
0000
0100
0101
0000
1010
0000
1001
,
0000
0001
0011
0000
0110
0000
1100
0000
,
1000
0010
1000
0010
0100
0001
0100
0001
,
1000
0100
0001
0010
1000
0000
1001
0000
,
0101
0000
0010
1010
0000
0001
0011
0100
,
0000
1010
1100
0000
1001
0010
0100
0000
,
1000
0000
0000
0100
0000
0000
1100
0000
0000
0000
0001
0000
0100
0000
0000
0000
,
1000
0100
0010
0001
1001
0000
0010
0000
,
1100
0000
0000
0001
1001
0000
0101
0000
,
0010
0000
0001
1000
0001
0000
0010
1000
,
0000
0000
0100
1000
0100
0000
0010
0000
0001
0000
0001
0000
0100
0000
0010
0100
,
0010
0000
1000
0000
1000
0000
0010
0000
1000
0000
0001
0000
1000
0001
1000
0000
,
0100
0010
0100
0000
0010
0000
0001
0000
0000
0000
1000
0000
0001
0000
0001
0000
,
0100
0100
0010
0000
0001
0010
0000
0000
,
0100
1100
0000
0101
0100
0010
0100
1000
,
0010
0100
0001
1000
0001
0001
1001
0000
,
0101
0000
0010
1010
0000
1000
1100
0010
,
0001
1000
0100
0010
0011
0000
1000
1010
,
0000
0001
0101
0100
0010
1000
0100
0010
,
0010
0000
0100
0000
1000
0000
0001
0000
0100
0000
0010
0100
0010
0000
1000
0000
,
0001
0010
1000
0010
0001
1000
0001
0100
,
1000
0000
0100
0000
0001
0000
0010
0000
0100
0000
1000
0000
0100
1000
0100
0000
,
0010
0000
0001
0000
0100
0001
0100
0000
0010
0000
1000
0000
0010
1000
0010
0000
,
0100
0000
0001
0000
0010
0001
0010
0000
0100
0000
1000
0000
0001
1000
0001
0000
,
0010
0100
1000
0000
0010
0000
0100
0000
0010
1000
0010
0000
0100
0000
0001
0000
,
1000
0100
0010
0000
0001
0000
1000
0000
0100
0001
0100
0000
0010
0000
0100
0000
,
1000
0001
0100
0000
0010
0000
1000
0000
0001
0010
0100
0000
0010
0000
0001
0000
,
1000
0100
1000
0000
0010
0000
0100
0000
0010
0001
0010
0000
0100
0000
0001
0000
,
0100
0010
0100
0000
0010
1000
0010
0000
0100
0000
0001
0000
1000
0000
0100
0000
,
0010
0001
0010
0000
0001
0100
0001
0000
1000
0000
0010
0000
0100
0000
0001
0000
,
1000
0100
0010
0000
0001
0100
0010
0000
1000
0001
0100
0000
0010
1000
0001
0000
,
1100
0101
1001
0110
;

//---------------dance-single - ----------------
#NOTES:
     dance-single:
     :
     Medium:
     8:
     0.614,0.643,0.505,0.065,0.000:
0000
0000
0000
0000
,
0000
0000
0000
0000
,
0000
0000
0000
0000
,
1000
0100
0010
0001
,
1000
0000
0010
1000
0100
0010
0000
0010
,
0100
0000
1000
0100
0010
0000
0001
1000
,
0001
0000
0100
0010
0100
0001
0000
0001
,
0010
0000
0100
0010
0001
0000
1000
0000
,
0001
0101
1100
0010
,
0100
0100
0110
1010
,
0001
0001
0010
0011
,
1001
0010
0100
0110
,
0000
0001
0100
0000
0010
0000
1000
0010
,
1000
0001
0101
0000
,
1000
0100
1000
0000
0100
0000
0010
0000
,
0001
0000
1000
0001
1000
0000
0100
0000
,
0000
0010
0000
0010
0100
0000
1000
0001
,
1000
1010
1001
0000
,
0001
0100
0001
0000
0001
0000
0010
0000
,
0011
0110
1100
0000
,
1000
0000
0000
0001
0000
0001
0100
0000
,
0010
0000
0000
1000
0000
1000
0100
0000
,
0010
0000
0100
0000
1000
0100
0010
0000
,
0100
0010
0001
0000
1001
0000
0110
0000
,
0000
0001
0010
0000
0110
0000
1100
0000
,
0001
1000
1001
0000
,
1000
0000
0010
1000
0010
0000
0100
0000
,
0001
0010
0001
0010
0100
0000
0010
0000
,
0000
0100
1000
0000
1100
0000
1000
0000
,
1010
1001
1010
0000
,
0001
0100
0010
1000
,
1001
0010
1100
0000
,
0001
0000
0100
0001
0000
0100
0001
0000
,
1000
0000
0100
1000
0000
0100
1000
0000
,
0010
0010
0100
0100
,
0001
0010
0100
1000
0100
0000
0010
0000
,
1000
0000
0010
1000
0000
0010
1000
0000
,
0001
0000
0010
0001
0000
0010
0001
0000
,
1000
0100
1000
0000
0001
0100
0001
0000
,
1100
0110
0011
0000
,
1000
1010
1000
1010
,
0001
1000
0001
0000
0100
0000
0110
0000
,
0001
2000
0000
3100
2000
0000
0000
3010
,
2000
0000
3100
0010
0001
0000
0010
0000
,
1100
0000
0010
0001
0000
0100
0000
0001
,
0000
1000
0100
0000
0010
0000
0100
0000
,
1100
0000
0000
1000
0001
0000
1001
0000
,
0001
0100
1000
0100
0001
0000
0110
0000
,
0001
0011
0001
0011
,
1010
0110
0101
1000
,
0002
0010
0000
1003
0002
0100
0000
0013
,
0002
0000
0103
0010
1000
0000
0001
0000
,
1000
0000
0000
0001
0000
1000
0001
1000
,
0000
0010
0100
0000
0110
0000
0000
0000
,
0001
0000
0000
1001
0000
0010
0100
0000
,
0101
0110
1010
0000
,
1000
0000
0000
0010
1000
0000
0010
0000
,
0000
0000
1000
0100
0000
0000
1000
0100
,
0000
1000
0100
0000
0010
0001
0010
0000
,
0001
0100
0010
1000
,
0001
1000
0001
0000
0010
0000
1100
0000
,
0010
0000
0001
0000
1000
0010
0000
0000
,
0100
0001
0000
0100
0000
0001
0100
0000
,
0010
1000
0010
0000
1000
0000
0100
0000
,
0010
0000
0010
0100
0000
0100
1000
0000
,
0100
1000
0001
0000
0100
0000
0001
0100
,
0000
0010
1000
0000
0100
0000
0010
0000
,
0001
0010
0100
0010
0001
1000
0001
0000
,
0100
0100
0010
1000
,
0001
0000
1000
0000
0001
0000
0010
0001
,
0100
0000
0010
0000
1000
0000
0100
1000
,
0010
0000
0100
0000
0001
0010
0001
0000
,
1000
0010
0100
0001
,
1000
0100
0010
0100
,
1000
0001
0100
1000
,
0001
0010
1000
0100
,
0010
0001
1000
0100
,
0001
0100
0010
0100
,
1000
0001
0100
0010
,
1001
0100
0010
1001
;

//---------------dance-single - ----------------
#NOTES:
     dance-single:
     :
     Easy:
     6:
     0.444,0.729,0.237,0.194,0.000:
0000
0000
0000
0000
,
0000
0000
0000
0000
,
0000
0000
0000
0000
,
0010
0010
0100
0100
,
0001
0010
0100
0010
,
0001
1000
0001
0000
,
1000
0100
0010
0010
,
0100
1000
0001
1000
,
1100
0001
0101
0010
,
0100
0100
0010
0001
,
0101
0010
1010
1000
,
0100
0010
0001
1001
,
0000
1000
0100
0000
,
0010
0100
1000
0000
,
0001
0001
0100
0000
,
0010
1000
0100
0000
,
0000
0010
0100
0000
,
1000
1000
0010
0000
,
0100
0001
1000
0100
,
0010
0010
0100
0000
,
0020
0000
0032
0000
,
0203
0000
0320
0000
,
2030
0100
0100
0000
,
3020
0100
1000
1000
,
0030
1000
0100
0000
,
0011
1001
0011
0000
,
0100
0100
0010
0010
,
1000
0001
1001
0000
,
0000
0100
0100
0000
,
1010
1001
1010
0000
,
0100
0100
0001
1000
,
0100
0100
0010
0000
,
0002
0000
0103
0000
,
2000
0000
3100
0000
,
0020
0230
0302
2003
,
3200
0320
0032
0203
,
0320
0000
1030
0000
,
0200
0000
0301
0000
,
1000
1000
0100
0100
,
0010
0001
0011
0000
,
0001
0001
0100
0100
,
0001
0100
0001
0100
,
0010
0010
1000
1000
,
0100
1000
0100
1000
,
0010
0010
0100
0100
,
0001
1000
0001
1000
,
0100
0010
0100
1000
,
0001
0100
0010
0100
,
0001
0001
0100
0100
,
0001
0010
0100
1000
,
0100
0100
0010
0010
,
0100
1000
0001
0010
,
0001
0001
1000
1000
,
0010
0010
0010
0000
,
0100
0000
0001
0000
,
1000
0100
1001
0000
,
0001
0100
0000
0001
,
0000
1000
0000
0100
,
0010
0010
0100
0100
,
1000
0001
0100
0000
,
0010
1000
0001
0000
,
0010
0001
1000
0000
,
0100
0000
0010
0000
,
0100
1000
0001
0100
,
0010
0010
1000
1000
,
0001
0010
0100
0100
,
0010
0001
1000
0001
,
0100
0010
0100
0000
,
0001
0001
0010
0100
,
1000
1000
0010
0100
,
0010
0010
0100
0100
,
0001
0010
0100
1000
,
1001
0000
0100
0000
,
0110
0000
1000
0000
,
0011
0000
0100
0000
,
1010
0000
0100
0000
,
1001
0000
0010
0000
,
1100
0000
0001
0000
,
0101
0000
0010
0000
,
1000
0100
0010
1001
;

//---------------dance-single - ----------------
#NOTES:
     dance-single:
     :
     Beginner:
     3:
     0.276,0.386,0.054,0.065,0.000: // measure 1
0000
0000
0000
0000
,  // measure 2
0000
0000
0000
0000
,  // measure 3
0000
0000
0000
0000
,  // measure 4
1000
0000
0000
0000
,  // measure 5
0001
0000
0100
0000
,  // measure 6
0001
0000
0000
0000
,  // measure 7
1000
0000
0100
0000
,  // measure 8
1000
0000
0000
0000
,  // measure 9
0010
0000
0100
0000
,  // measure 10
0001
0000
0000
0000
,  // measure 11
1000
0000
0100
0000
,  // measure 12
0010
0000
0000
0000
,  // measure 13
0000
1000
1000
0000
,  // measure 14
0001
0001
0001
0000
,  // measure 15
0100
0000
0010
0000
,  // measure 16
1000
0000
0100
0000
,  // measure 17
0000
0010
0010
0000
,  // measure 18
0100
0100
0100
0000
,  // measure 19
1000
0000
0001
0000
,  // measure 20
0100
0100
0100
0000
,  // measure 21
0010
0000
0000
0000
,  // measure 22
1000
0000
0000
0000
,  // measure 23
0001
0000
0010
0000
,  // measure 24
0100
0100
0100
0000
,  // measure 25
0000
0010
0010
0000
,  // measure 26
0001
0001
0001
0000
,  // measure 27
1000
0000
0010
0000
,  // measure 28
0100
0100
0100
0000
,  // measure 29
0000
1000
1000
0000
,  // measure 30
0001
0001
0001
0000
,  // measure 31
0010
0000
0100
0000
,  // measure 32
0010
0010
0010
0000
,  // measure 33
0002
0000
0003
0000
,  // measure 34
2000
0000
3000
0000
,  // measure 35
0010
0000
0100
0000
,  // measure 36
0110
0000
1001
0000
,  // measure 37
0020
0000
0030
0000
,  // measure 38
0200
0000
0300
0000
,  // measure 39
0001
0000
1000
0000
,  // measure 40
1001
0110
1001
0000
,  // measure 41
1000
0000
0100
0000
,  // measure 42
0010
0010
0010
0000
,  // measure 43
0001
0000
0100
0000
,  // measure 44
0010
0010
0010
0000
,  // measure 45
1000
0000
0100
0000
,  // measure 46
0001
0001
0001
0000
,  // measure 47
1000
1000
1000
0000
,  // measure 48
0010
0010
0010
0000
,  // measure 49
0100
0000
0001
0000
,  // measure 50
1000
0000
0100
0000
,  // measure 51
0010
0000
0100
0000
,  // measure 52
1000
1000
1000
0000
,  // measure 53
0010
0000
0100
0000
,  // measure 54
0001
0001
0001
0000
,  // measure 55
0010
0000
0100
0000
,  // measure 56
0010
0000
0001
0000
,  // measure 57
2000
0000
3000
0000
,  // measure 58
0002
0000
0003
0000
,  // measure 59
0100
0000
0010
0000
,  // measure 60
0100
0100
0100
0000
,  // measure 61
0001
0010
0100
0000
,  // measure 62
0100
0010
0001
0000
,  // measure 63
1000
0000
0010
0000
,  // measure 64
0100
0010
1000
0000
,  // measure 65
0100
0000
0010
0000
,  // measure 66
0100
1000
0001
0000
,  // measure 67
0100
0000
0001
0000
,  // measure 68
0010
0001
1000
0000
,  // measure 69
0001
0001
0010
0000
,  // measure 70
0100
0100
1000
0000
,  // measure 71
0010
0010
0100
0000
,  // measure 72
0001
0001
1000
0000
,  // measure 73
1000
0000
0100
0000
,  // measure 74
0010
0000
0001
0000
,  // measure 75
0100
0000
0010
0000
,  // measure 76
1000
0000
0001
0000
,  // measure 77
0010
0000
0100
0000
,  // measure 78
1000
0000
0010
0000
,  // measure 79
0100
0000
0001
0000
,  // measure 80
1000
0001
1000
0001
;
