#TITLE:Laughing Lunatics;
#SUBTITLE:;
#ARTIST:xRGTMx;
#TITLETRANSLIT:;
#SUBTITLETRANSLIT:;
#ARTISTTRANSLIT:;
#CREDIT:;
#BANNER:LaughingLunatics.png;
#BACKGROUND:;
#LYRICSPATH:;
#CDTITLE:;
#MUSIC:Laughing Lunatics.mp3;
#OFFSET:-11.408;
#SAMPLESTART:93.480;
#SAMPLELENGTH:12.000;
#SELECTABLE:YES;
#BPMS:0.000=190.000,192.000=95.000,208.000=190.000;
#STOPS:;
#BGCHANGES:;

//---------------dance-single - xRGTMx----------------
#NOTES:
     dance-single:
     xRGTMx:
     Hard:
     10:
     0.845,0.836,0.351,0.408,0.445:
1100
0000
0021
0000
0130
1000
0010
0100
,
0000
0201
0000
0301
0100
1000
0100
0001
,
0020
0000
0130
0020
0000
0130
1000
0010
,
0200
0000
0301
0200
0000
1300
0100
0001
,
0020
0000
0130
1000
0010
0100
0001
1000
,
0100
0000
0110
0100
2000
0000
3010
0100
,
0002
0000
0013
0100
1000
0001
0100
0010
,
1000
0000
0000
0000
1001
0000
1000
0100
1000
0000
0001
0100
0001
0000
1000
0100
,
1000
0000
2001
0000
3001
0100
1000
0001
,
0000
1002
0000
1003
0100
0001
1000
0100
,
0020
0000
0130
2000
0000
3001
0100
1000
,
0002
0000
0013
2000
0000
3001
0010
0100
,
2000
0000
3100
0001
0100
1000
0010
0001
,
0010
0000
0110
0100
0001
0000
0010
0100
,
1100
0000
1000
0001
1000
0010
0100
0001
,
0020
0100
0001
0230
1000
0010
1300
0001
,
1001
0000
0120
0000
1030
0001
1000
0001
,
0100
0000
0100
0000
0010
0000
1000
0100
1000
0001
0100
0000
0010
0000
0100
0001
,
1000
0000
0110
0000
0011
0010
0001
1000
,
0010
0000
0010
0000
1000
0000
0100
1000
0100
0010
0100
0000
0010
0000
0001
0100
,
0010
0000
1002
0000
1003
0001
1000
0001
,
0100
0000
0100
0000
0010
0000
0100
0001
0010
0100
0010
0000
0001
0000
1000
0001
,
0100
0000
1010
0000
0100
0001
0010
0100
,
1000
0010
1000
0010
1000
0000
0001
0010
0001
0010
0001
0000
0100
0010
0100
0010
,
0100
0000
2001
0000
3001
1000
0001
1000
,
0100
0000
0100
0000
0010
0000
0001
0100
0001
1000
0100
0000
0010
0000
0100
1000
,
0100
0000
0000
0000
0021
0000
0000
0000
0130
1000
0100
1000
0010
0100
0010
0100
,
0001
0000
0000
1000
0000
0000
1001
0000
0001
1000
0001
1000
0010
0100
0010
0100
,
0001
0000
0000
0000
0011
0000
0000
0000
1100
0000
0000
0000
1000
0100
1000
0100
,
0010
0000
0000
0000
0110
0000
0000
0000
2001
0000
0000
0000
3001
1000
0001
1000
,
0001
0100
0010
1000
0100
0010
0001
0100
,
0010
0100
0010
0000
1000
0001
1000
0000
0100
1000
0100
1000
0001
0010
0001
0100
,
0010
0010
1000
1000
0001
0001
0100
0100
,
0010
0010
0001
0001
1000
1000
0100
0100
,
0010
0010
1000
1000
0100
0100
0010
0010
,
0001
0000
0010
0000
0100
0000
1000
0000
0001
1000
0001
0000
1000
0001
1000
0001
,
0100
0100
0010
0010
1000
1000
0001
0001
,
0100
0100
0010
0010
0001
0001
1000
1000
,
0100
0010
0000
0010
1000
0000
0000
0000
0100
0010
0000
0010
0001
0000
0000
0000
,
1000
0100
1000
0000
0010
0000
0100
0000
0001
0010
0001
0000
1000
0100
1000
0100
,
0010
0010
0001
0001
1000
1000
0100
0100
,
0010
0010
1000
1000
0001
0001
0100
0100
,
0010
0010
0001
0001
0100
0100
0010
0010
,
1000
0000
0010
0000
0100
0000
0001
0000
1000
0001
1000
0000
0001
1000
0001
1000
,
0100
0100
0010
0010
0001
0001
1000
1000
,
0100
0100
0010
0010
1000
1000
0001
0001
,
0100
0010
0000
0010
0001
0000
0000
0000
0100
0010
0000
0010
1000
0000
0000
0000
,
0001
0100
0001
0000
0010
0000
0100
0000
1000
0010
1000
0000
0001
0100
0001
0100
,
0010
0000
0010
0000
1000
0000
1000
0002
0000
0000
0000
0003
0000
0000
0000
0000
,
1000
0000
1000
0000
0001
0000
0001
0020
0000
0000
0030
0000
0000
0000
0000
0000
,
1100
0000
0000
0000
0000
0000
0000
0000
0000
0110
0000
0000
0000
0000
0000
0000
0000
0000
0011
0000
0000
0000
0000
0000
0000
0000
0000
1001
0000
0000
0000
0000
0000
0000
0000
0000
1000
0000
0100
0000
1000
0000
0001
0000
0100
0000
0001
0000
,
2000
0000
0000
3000
,
2010
0000
3100
0010
0002
0000
0103
0010
,
2000
0000
0100
0000
3100
0000
0020
0000
0001
0000
0031
0000
0100
0010
0100
0010
,
1000
0000
0100
0000
0010
0000
0001
0000
1000
0000
0010
0000
0100
0010
0100
0010
,
0100
0000
0100
0000
0001
0000
0001
0000
1000
0001
1000
0000
0001
1000
0001
0000
,
1001
0000
1000
0100
0020
0001
0031
1000
,
1001
0000
0000
0000
0001
0000
0100
0000
0010
1000
0010
1000
0001
1000
0100
1000
,
0100
0000
0010
0001
0010
0000
0100
0000
0010
0001
0010
0100
0010
0000
0002
0000
,
2000
0000
0000
0000
,
0000
0000
3003
1001
,
1100
0000
0021
0000
0130
1000
0010
0100
,
0000
0201
0000
0301
0100
1000
0100
0001
,
0020
0000
0130
0020
0000
0130
1000
0010
,
0200
0000
0301
0200
0000
1300
0100
0001
,
0020
0000
0130
1000
0010
0100
0001
1000
,
0100
0000
0110
0100
2000
0000
3010
0100
,
0002
0000
0013
0100
1000
0001
0100
0010
,
1000
0000
0000
0000
1001
0000
1000
0100
1000
0000
0001
0100
0001
0000
1000
0100
,
1000
0000
2001
0000
3001
0100
1000
0001
,
0000
1002
0000
1003
0100
0001
1000
0100
,
0020
0000
0130
2000
0000
3001
0100
1000
,
0002
0000
0013
2000
0000
3001
0010
0100
,
2000
0000
3100
0001
0100
1000
0010
0001
,
0010
0000
0110
0100
0001
0000
0010
0100
,
1100
0000
0000
0000
1000
0000
0100
0010
0100
0000
1000
0100
1000
0000
0001
1000
,
0001
0010
0001
0010
0100
0010
0100
0010
0100
1000
0100
1000
0010
1000
0010
1000
,
0010
0000
0000
0110
0000
0000
0101
0000
,
0000
1001
0000
0000
1100
0000
0000
0000
,
0010
0001
0010
0001
0010
0000
0001
1000
0001
1000
0001
0000
1000
0010
1000
0010
,
1000
0000
0010
0100
0010
0100
0010
0000
1000
0001
1000
0001
0100
0010
0100
0010
,
2000
0000
0000
0000
,
3000
0000
0000
0000
;

//---------------dance-single - Copied from xRGTMx----------------
#NOTES:
     dance-single:
     Copied from xRGTMx:
     Medium:
     9:
     0.710,0.702,0.416,0.571,0.037:
1100
0000
0021
0000
0130
1000
0010
0100
,
0000
0201
0000
0301
0100
1000
0100
0001
,
0020
0000
0130
0020
0000
0130
1000
0010
,
0200
0000
0301
0200
0000
1300
0100
0001
,
0020
0000
0130
1000
0010
0100
0001
1000
,
0100
0000
0110
0100
2000
0000
3010
0100
,
0002
0000
0013
0100
1000
0001
0100
0010
,
1000
0000
0021
0000
0130
1000
0010
0100
,
0001
0000
2001
0000
3001
0100
1000
0001
,
0000
1002
0000
1003
0100
0001
1000
0100
,
0020
0000
0130
2000
0000
3001
0100
1000
,
0002
0000
0013
2000
0000
3001
0010
0100
,
2000
0000
3100
0001
0100
1000
0010
0001
,
0010
0000
0110
0100
0001
0000
0010
0100
,
1100
0000
1000
0001
1000
0010
0100
0001
,
0010
0100
0001
0100
1000
0010
1000
0001
,
1000
0000
1001
0000
1100
0000
0010
0001
,
0000
0011
0000
1100
0000
1000
0002
0000
,
0103
0000
0110
0000
1001
0000
1000
0001
,
0000
0011
0000
0110
0100
1000
0001
0100
,
0010
0000
1010
0000
0011
0000
0001
1000
,
0000
0110
0000
0011
0000
0001
2000
0000
,
3001
0100
1000
0001
0010
1000
0001
0010
,
1000
0001
0100
1000
0001
0100
1000
0100
,
0001
0000
0011
0000
1100
0000
0020
0001
,
0000
1000
0000
0031
0010
0100
1000
0001
,
0100
0000
0110
0000
0010
1000
0100
0010
,
0002
0000
0000
1000
0000
0000
1003
0000
0001
0000
0010
0000
0100
0000
1000
0000
,
0010
0000
1010
0000
0101
0000
0001
0010
,
0100
0000
0110
0000
1001
0000
0001
1000
,
0001
0010
0100
1000
0010
0100
1000
0100
,
0001
1000
0100
0010
0001
0010
0100
1000
,
0020
0000
1000
0000
0130
0010
1000
0100
,
0020
0000
0001
0000
0130
0010
0001
0100
,
0020
0000
0100
0000
1030
0010
0100
0001
,
1000
0001
0110
1001
,
2000
0000
0001
0000
3100
0010
0001
1000
,
0002
0000
1000
0000
0103
0010
1000
0001
,
2000
0000
3002
0000
2003
3002
2003
3002
,
0103
0010
0100
0010
1000
0100
0010
0100
,
0020
0000
0001
0000
0130
0010
0001
0100
,
0020
0000
1000
0000
0130
0010
1000
0100
,
0020
0000
0100
0000
0031
0010
0100
1000
,
0001
1000
0110
1001
,
0002
0000
1000
0000
0103
0010
1000
0001
,
2000
0000
0001
0000
3100
0010
0001
1000
,
0002
0000
2003
0000
,
3010
1000
0001
0010
0100
1000
0001
0100
,
0010
0000
0010
0000
1000
0000
1000
0002
0000
0000
0000
0003
0000
0000
0000
0000
,
1000
0000
1000
0000
0001
0000
0001
0020
0000
0000
0030
0000
0000
0000
0000
0000
,
1100
0000
0000
0000
0000
0000
0000
0000
0000
0110
0000
0000
0000
0000
0000
0000
0000
0000
0011
0000
0000
0000
0000
0000
0000
0000
0000
1001
0000
0000
0000
0000
0000
0000
0000
0000
1000
0000
0100
0000
1000
0000
0001
0000
0100
0000
0001
0000
,
2000
0000
0000
3000
,
2010
0000
3100
0010
0002
0000
0103
0010
,
2000
0100
3100
0020
0001
0031
0100
0010
,
1000
0100
0010
0001
1000
0010
0100
1000
,
0100
0100
0001
0001
1000
0100
0001
0100
,
1000
0000
0001
0100
0010
1000
0010
0100
,
0001
0000
0001
0100
0010
1000
0100
0001
,
0100
1000
0010
0100
0010
1000
0100
2000
,
0002
0000
0000
0000
,
0000
0000
3003
1001
,
1100
0000
0021
0000
0130
1000
0010
0100
,
0000
0201
0000
0301
0100
1000
0100
0001
,
0020
0000
0130
0020
0000
0130
1000
0010
,
0200
0000
0301
0200
0000
1300
0100
0001
,
0020
0000
0130
1000
0010
0100
0001
1000
,
0100
0000
0110
0100
2000
0000
3010
0100
,
0002
0000
0013
0100
1000
0001
0100
0010
,
1000
0000
0021
0000
0130
1000
0010
0100
,
0001
0000
2001
0000
3001
0100
1000
0001
,
0000
1002
0000
1003
0100
0001
1000
0100
,
0020
0000
0130
2000
0000
3001
0100
1000
,
0002
0000
0013
2000
0000
3001
0010
0100
,
2000
0000
3100
0001
0100
1000
0010
0001
,
0010
0000
0110
0100
0001
0000
0010
0100
,
1100
0000
1000
0100
0010
1000
0001
0100
,
1000
0010
0100
1000
0001
0010
1000
0001
,
1000
0000
0000
0101
0000
0000
0110
0000
,
0000
1010
0000
0000
1001
0000
0000
0000
,
2000
0100
3100
0020
0001
0031
2000
0010
,
3010
0200
0001
0301
1000
0100
0010
0001
,
2000
0000
0000
0000
,
3000
0000
0000
0000
;

//---------------dance-single - xRGTMx----------------
#NOTES:
     dance-single:
     xRGTMx:
     Easy:
     7:
     0.456,0.502,0.114,0.277,0.016:
2000
0000
3100
0000
0010
0000
0100
1000
,
0000
0001
0000
1000
0000
0010
0100
0000
,
0010
0000
0000
0100
0000
0001
1000
0000
,
0100
0000
0000
0010
0000
0001
1000
0000
,
0002
1003
2000
3001
,
0200
0320
2030
3001
,
0010
0100
0010
0100
,
1000
0000
0001
0000
1000
0100
1000
0000
,
0002
0000
0103
0000
0010
0000
0100
0001
,
0000
1000
0000
0001
0000
0010
0100
0000
,
0010
0000
0000
0100
0000
1000
0001
0000
,
0100
0000
0000
0010
0000
1000
0001
0000
,
2000
3001
0002
1003
,
0200
0320
0032
1003
,
0010
0100
0010
0100
,
0002
1000
2003
0001
,
3001
0000
1000
0000
0001
0000
0100
0010
,
0000
0110
0000
0100
0000
0100
0010
0000
,
1000
0000
0001
0000
1000
0000
0100
0010
,
0000
0110
0000
0100
0000
0100
0010
0000
,
0001
0000
1000
0000
0001
0000
0010
0100
,
0000
0110
0000
0010
0000
0010
0100
0000
,
1000
0001
1000
0100
,
0011
0000
0000
0110
0000
0000
1001
0000
,
1000
0000
0001
0000
1000
0000
0100
0010
,
0000
0110
0000
0100
0000
0100
0010
0000
,
0001
0000
1000
0000
0001
1000
0001
1000
,
0001
0000
0000
0110
0000
0000
1001
0000
,
2000
0100
3100
0010
,
0002
0100
0103
0010
,
2000
0000
3002
0000
,
0203
0010
0010
0010
,
0310
1000
0100
0010
,
0001
0010
0100
1000
,
0001
0100
0010
1000
,
0100
0000
0010
0000
0001
1000
0001
0000
,
1000
0100
0010
0001
,
1000
0010
0100
0001
,
0010
0100
0010
0000
0100
0010
0100
0000
,
0010
0001
0100
0000
0010
1000
0100
0000
,
0010
0001
0100
0010
,
1000
0010
0100
0001
,
1000
0100
0010
0001
,
0100
0000
0010
0000
1000
0001
1000
0000
,
0001
0100
0010
1000
,
0001
0010
0100
1000
,
0010
0100
0010
0000
0100
0010
0100
0000
,
0010
1000
0100
0000
0010
0001
0100
0000
,
0010
0000
0000
0000
1000
0000
0000
0001
0000
0000
0000
0000
0000
0000
0000
0000
,
0010
0000
0000
0000
0001
0000
0000
1000
0000
0000
0000
0000
0000
0000
0000
0000
,
1000
0000
0000
1000
0000
0000
0001
0000
0000
0001
0000
0000
0100
0000
0010
0000
,
2000
0000
0000
0000
,
3001
0000
0001
0000
,
0010
0000
0100
0010
0000
0100
1000
0000
,
0001
0000
1000
0000
0010
0100
0010
0000
,
0100
0000
0100
0000
0001
0100
0001
0100
,
0001
0000
0010
0000
0100
1000
0100
0000
,
1000
0000
0010
0000
0100
0001
0100
0000
,
0001
0000
1000
0100
1000
0000
1000
0100
,
2000
0000
0000
0000
,
0000
0000
0000
3001
,
2000
0000
3100
0000
0010
0000
0100
1000
,
0000
0001
0000
1000
0000
0010
0100
0000
,
0010
0000
0000
0100
0000
0001
1000
0000
,
0100
0000
0000
0010
0000
0001
1000
0000
,
0002
1003
2000
3001
,
0200
0320
2030
3001
,
0010
0100
0010
0100
,
1000
0000
0001
0000
1000
0100
1000
0000
,
0002
0000
0103
0000
0010
0000
0100
0001
,
0000
1000
0000
0001
0000
0010
0100
0000
,
0010
0000
0000
0100
0000
1000
0001
0000
,
0100
0000
0000
0010
0000
1000
0001
0000
,
2000
3001
0002
1003
,
0200
0320
0032
1003
,
1010
0010
0110
0100
,
0101
0000
0001
0010
0100
1000
0010
0100
,
0001
0000
0000
1000
0000
0000
0010
0000
,
0000
0100
0000
0000
1001
0000
0000
0000
,
1001
0000
1000
0001
0000
0100
0010
0000
,
1000
0001
0000
0010
0100
0000
1000
0001
,
2000
0000
0000
0000
,
3000
0000
0000
0000
;

//---------------dance-single - xRGTMx----------------
#NOTES:
     dance-single:
     xRGTMx:
     Beginner:
     3:
     0.254,0.231,0.041,0.008,0.016:
1000
0000
1000
0000
,
0010
0000
0010
0000
,
0100
0000
0100
0000
,
0001
0001
0001
0000
,
1000
0000
0100
0000
,
0010
0000
0001
0000
,
1000
1000
1000
0000
,
0001
0001
0001
0000
,
1000
0000
1000
0000
,
0100
0000
0100
0000
,
0001
0000
0001
0000
,
0010
0000
0010
0000
,
1000
1000
1000
0000
,
0001
0001
0001
0000
,
0100
0000
0010
0000
,
0110
0000
1001
0000
,
1000
1000
1000
1000
,
0001
0000
0001
0000
,
0100
0100
0100
0100
,
0010
0000
0010
0000
,
1000
1000
1000
1000
,
0100
0000
0100
0000
,
0010
0010
0010
0010
,
0001
0000
0001
0000
,
1000
1000
0010
0000
,
0100
0000
0100
0000
,
0001
0001
0010
0000
,
0100
0000
0100
0000
,
1000
1000
0001
0000
,
0001
0001
1000
0000
,
0010
0000
0010
0000
,
0100
0000
0100
0000
,
0001
0001
0001
0000
,
0010
0010
0010
0000
,
0100
0100
0100
0000
,
1000
1000
1000
0000
,
0001
0001
0001
0000
,
0100
0100
0100
0000
,
0010
0010
0010
0000
,
1000
1000
1000
0000
,
0001
0001
0001
0000
,
0010
0010
0010
0000
,
0100
0100
0100
0000
,
1000
1000
1000
0000
,
0001
0001
0001
0000
,
1000
1000
1000
0000
,
0010
0000
0010
0000
,
0100
0000
0100
0000
,
0001
0000
0000
0000
0001
0000
0000
0001
0000
0000
0000
0000
0000
0000
0000
0000
,
1000
0000
0000
0000
1000
0000
0000
1000
0000
0000
0000
0000
0000
0000
0000
0000
,
0100
0000
0000
0100
0000
0000
0100
0000
0000
0100
0000
0000
0100
0000
0000
0000
,
0010
0000
0000
0000
,
0001
0000
0000
0000
,
1000
0000
1000
0000
,
0010
0010
0010
0000
,
0100
0100
0100
0000
,
0001
0000
1000
0000
,
0001
0001
0001
0000
,
0010
0010
0010
0010
,
0002
0000
0000
0000
,
0003
0000
0000
0000
,
1000
0000
1000
0000
,
0010
0010
0010
0000
,
0100
0000
0100
0000
,
0001
0001
0001
0000
,
1000
1000
0100
0000
,
0010
0000
0001
0000
,
1000
1000
0001
0000
,
0001
0001
1000
0000
,
1000
1000
1000
0000
,
0100
0100
0100
0000
,
0001
0001
0001
0000
,
0010
0010
0010
0000
,
1000
1000
0100
0000
,
0001
0001
0010
0000
,
1000
0000
0100
0000
,
0110
0000
1001
0000
,
0001
0000
0000
0001
0000
0000
0001
0000
,
0000
0001
0000
0000
0001
0000
0000
0000
,
1000
0000
0000
1000
0000
0000
1000
0000
,
0000
1000
0000
0000
1000
0000
0000
0000
,
1001
0000
0000
0000
;
