#TITLE:Late;
#SUBTITLE:(Sparky & Sytronik Remix);
#ARTIST:Stevie B vs. Graham C;
#TITLETRANSLIT:;
#SUBTITLETRANSLIT:;
#ARTISTTRANSLIT:;
#CREDIT:;
#BANNER:latesandsr.png;
#BACKGROUND:latesandsr-bg.png;
#LYRICSPATH:;
#CDTITLE:;
#MUSIC:latesandsr.mp3;
#OFFSET:-5.039;
#SAMPLESTART:43.640;
#SAMPLELENGTH:12.000;
#SELECTABLE:YES;
#BPMS:0.000=170.000;
#STOPS:;
#BGCHANGES:;

//---------------dance-single - ----------------
#NOTES:
     dance-single:
     :
     Hard:
     9:
     0.637,0.584,0.201,0.430,0.014:
0000
1000
1000
0100
,
0100
0000
0010
0000
0010
0000
0001
0001
,
1000
0100
0010
0001
0010
0100
0010
0000
,
0220
0000
0000
0330
,
1001
1000
0010
0100
0010
1000
0010
0100
,
0001
0100
0010
0100
0001
0100
0001
0100
,
0010
1000
0010
1000
0010
0100
0001
0100
,
0001
0010
0100
0010
0100
1000
0001
1000
,
0001
0010
0100
1000
0100
0010
0001
0010
,
0100
0010
0001
0010
0100
1000
0100
0010
,
0001
0100
0001
0100
0010
1000
0010
1000
,
0100
0010
0100
0010
0001
1000
0001
0010
,
0011
0000
0001
0010
0001
0010
0100
1000
,
0100
1000
0100
0001
0100
1000
0100
0010
,
0100
1000
0010
0001
0010
0100
0001
0100
,
0010
1000
0010
0001
0010
0100
0001
0100
,
0001
1000
0001
0010
0100
0010
0001
0100
,
1000
0100
0010
0100
0001
1000
0100
0010
,
0100
1000
0100
1000
0100
1000
0100
1000
,
0200
0000
0000
0000
0000
0000
0000
1300
,
1001
0001
0100
0001
,
0100
0001
0010
0100
,
0010
0100
0010
0100
,
1000
0100
0010
0001
,
1010
0001
0100
0001
,
1100
0100
1000
0001
,
1001
0100
0110
0001
,
1001
1100
0011
0001
,
1001
0000
0001
0000
1000
0100
1000
0100
,
0000
0100
0000
0010
0001
0010
0001
0010
,
0002
0000
0203
0000
0310
1000
0010
1000
,
0000
1000
0000
1000
0010
0100
0001
0100
,
0020
0000
2030
0000
3100
0010
0001
0010
,
0000
0000
0010
0000
0000
0000
0010
0000
0100
0000
1000
0000
0010
0000
0100
0010
,
0100
0000
0100
0000
1000
0100
1000
0100
,
0000
0100
0000
0001
0010
0100
1000
0100
,
0110
0000
0001
0000
1000
0001
1000
0100
,
0000
0000
0100
0000
0000
0000
0100
0000
0010
0000
0001
0000
0010
0000
0100
0010
,
0100
0000
1000
0000
0100
0001
0100
1000
,
0000
1000
0000
1000
0010
0001
0010
1000
,
0100
0000
0100
0000
0100
0010
0001
0010
,
0000
0000
0100
0000
0000
0000
1000
0000
0010
0000
0100
0000
0001
0000
0100
0010
,
0200
0000
0302
0000
1003
0100
1000
0100
,
2200
0000
0000
3300
,
2001
3200
0320
0032
,
0023
0000
0230
0000
2300
0000
3100
1000
,
0000
0000
0100
0100
0010
0001
0001
0000
,
0200
0000
0320
0000
2030
0000
3100
0010
,
0000
0201
0301
2001
,
3001
0000
1002
0000
1003
0000
0100
0010
,
0000
0000
0001
0001
0010
0001
0001
1000
,
0100
0000
0010
0000
0010
0001
1000
0100
,
1100
0002
0203
0302
,
0203
0000
0320
0000
2030
0000
3001
1000
,
0000
0000
0001
0001
0100
0001
0001
0100
,
0002
0000
0203
0000
0320
0000
1030
1000
,
0000
0200
0320
0032
,
0203
0000
2300
0000
3200
0000
0301
0001
,
0000
0000
0001
1000
0001
1000
0100
0010
,
0200
0320
0032
1003
,
0110
0001
1000
0001
1000
0100
1000
0100
,
1000
0010
1000
0010
1000
0001
1000
0001
,
0010
0100
0010
0100
1000
0010
1000
0010
,
0100
0010
0100
0010
1000
0010
1000
0010
,
0100
0001
0010
0100
1000
0100
0010
0001
,
0100
0001
1000
0010
1000
0100
0010
0001
,
0100
0010
1000
0001
0010
0100
1000
0010
,
0200
0302
2003
3001
,
1001
0000
0000
0000
;

//---------------dance-single - Copied from----------------
#NOTES:
     dance-single:
     Copied from:
     Challenge:
     11:
     0.888,1.000,0.363,0.286,0.396: // measure 1
0000
0000
1000
0100
1000
0100
0010
0001
,  // measure 2
0010
0001
0010
0100
1000
0100
0010
0001
,  // measure 3
0010
0000
0001
0000
0001
0010
0001
0010
0100
1000
0100
1000
0100
0010
0100
0010
,  // measure 4
M002
M000
M000
M000
M000
M000
M003
0000
,  // measure 5
1001
1000
001M
0100
0010
1000
1010
0100
,  // measure 6
0001
0100
0101
0001
0010
0001
0011
0100
,  // measure 7
1000
0100
1100
1000
0010
0100
0101
0100
,  // measure 8
0001
0010
0011
0010
0100
1000
0001
1000
,  // measure 9
0001
0010
010M
1000
0100
0010
M001
0010
,  // measure 10
0100
0010
M001
0010
0100
1000
010M
0010
,  // measure 11
0001
0100
00M1
0100
0010
1000
001M
1000
,  // measure 12
0100
0010
010M
0010
0001
1000
0M01
0010
,  // measure 13
0011
0010
1000
0010
0001
0100
1000
0100
,  // measure 14
0001
1000
0100
0001
0100
1000
0100
0010
,  // measure 15
0100
1000
0010
0001
0010
0100
0001
0100
,  // measure 16
0010
1000
0010
0001
0010
0100
0001
0100
,  // measure 17
0010
0100
1000
0100
0001
0010
0001
0100
,  // measure 18
1000
0100
0010
0100
0001
1000
0100
0010
,  // measure 19
0110
0010
0001
0010
0001
0010
0001
1000
,  // measure 20
0100
1000
0010
0100
0001
0100
0010
1000
0010
0100
0001
0100
0010
0100
0001
1000
,  // measure 21
1002
0010
0010
0013
,  // measure 22
2100
0001
0010
3001
,  // measure 23
0012
0100
1000
0103
,  // measure 24
0012
1000
0010
1003
,  // measure 25
1010
0010
1000
0010
1000
0001
0100
0001
,  // measure 26
0101
0010
1000
0010
1000
0100
0010
0001
,  // measure 27
1000
0100
1000
0100
0010
0001
0010
0001
1000
0010
1000
0010
0100
0001
0100
0001
,  // measure 28
1000
0001
1000
0001
0100
0010
0200
0310
2000
3000
0200
0300
0000
0000
0010
0000
,  // measure 29
1001
1000
0001
0100
1000
0100
1000
0100
,  // measure 30
0001
0010
0100
M010
M001
M010
0001
M010
,  // measure 31
0002
M100
0203
0010
0310
1000
0010
1000
,  // measure 32
0001
1000
0001
1000
0010
0100
0001
0200
,  // measure 33
0310
2000
3001
2000
3200
0320
0032
0013
,  // measure 34
0002
0000
0013
0000
0001
0000
0010
0000
0100
0000
1000
0000
0010
0000
0100
0010
,  // measure 35
0100
2000
3100
0020
0032
0203
0320
1030
,  // measure 36
0002
0103
0010
1000
0010
0100
0001
0100
,  // measure 37
0101
0100
M0M1
0001
1000
0001
10M0
0100
,  // measure 38
0010
0000
0100
0000
001M
0000
0100
0000
0010
0000
0001
0000
0010
0000
0100
0010
,  // measure 39
0100
1000
0100
0001
0100
0001
0100
1000
,  // measure 40
0001
1000
0001
1000
0010
0001
0010
1000
,  // measure 41
0100
1000
0100
1000
0100
0010
0001
0010
,  // measure 42
0000
0000
0100
0000
0000
0000
1000
0000
0010
0000
0100
0000
0001
0000
0100
0010
,  // measure 43
0200
0000
0302
0000
1003
0100
1000
0100
,  // measure 44
1000
0010
0100
0010
1000
0010
0100
0010
0100
0010
1000
0001
0100
0010
1000
0100
,  // measure 45
1000
0010
1010
0100
0001
0100
0101
0001
,  // measure 46
0010
0100
0110
0100
1000
1000
0100
1100
,  // measure 47
0000
0000
0010
0001
0011
0010
0001
1001
,  // measure 48
1000
0010
0100
0001
0100
0001
0100
0101
,  // measure 49
0000
0000
0101
0001
1000
0001
1001
0001
,  // measure 50
1000
0001
1001
0100
1000
0100
0100
0011
,  // measure 51
0000
0000
0011
0001
0011
0010
0110
0100
,  // measure 52
1000
0010
0100
0001
0100
1000
1000
0100
,  // measure 53
11MM
1000
00M1
0001
M100
0100
00M1
0001
,  // measure 54
M100
0100
001M
0010
1M00
1000
0001
1010
,  // measure 55
0000
0000
0001
0001
0100
0001
0001
0100
,  // measure 56
0001
0001
0100
0100
0010
0010
1000
1001
,  // measure 57
0000
0000
0000
0000
1000
0001
0010
0100
1000
0001
0010
0100
1000
0100
0010
0100
,  // measure 58
1000
0001
0010
0100
0010
0001
0010
0100
0010
0100
1000
0100
0010
0100
0010
0001
,  // measure 59
0100
0001
0100
0010
1000
0010
1000
0001
0100
0001
0100
0010
1000
0010
1000
0001
,  // measure 60
2000
0000
3200
0000
0320
0000
0130
0010
,  // measure 61
0110
0001
1000
0001
1000
0100
1000
0100
,  // measure 62
1000
0010
1000
0010
1000
0001
1000
0001
,  // measure 63
0010
0100
0010
0100
1000
0010
1000
0010
,  // measure 64
0100
0010
0100
0010
1000
0010
1000
0010
,  // measure 65
1000
0010
1000
0010
0100
0001
0100
0001
1000
0010
1000
0010
0100
0001
0100
0001
,  // measure 66
0100
0010
0100
0010
0100
0001
0100
0001
1000
0010
0100
0010
1000
0010
0100
0001
,  // measure 67
0100
0010
0100
0001
0100
0010
1000
0001
0010
0001
0010
0100
1000
0100
0010
0100
,  // measure 68
2000
0000
3020
0000
1030
0100
0011
0011
,  // measure 69
1001
0000
0000
0000
;

//---------------dance-single - ----------------
#NOTES:
     dance-single:
     :
     Easy:
     2:
     0.251,0.422,0.191,0.134,0.000:
0000
1000
0000
1000
,
0000
0100
0000
0010
,
0220
0000
0000
0330
,
2002
0000
0000
3003
,
1001
0000
1000
0000
,
0100
0000
0010
0000
,
0001
0001
0001
0000
,
1000
1000
1000
0000
,
1001
0000
0100
0000
,
0010
0000
0100
0000
,
0010
0010
0010
0000
,
0100
0000
0100
0000
,
1001
0000
0100
0000
,
0010
0000
0001
0000
,
1000
0000
0100
0000
,
0010
0000
0001
0000
,
1000
0100
1000
0000
,
0001
0100
0001
0000
,
2000
0000
0000
3000
,
0002
0000
0000
0003
,
1001
0000
0001
0000
,
1000
0000
0100
0000
,
0010
0000
0001
0000
,
0100
0000
0010
0000
,
1001
0000
0100
0000
,
1001
0000
0000
0000
,
0110
0000
1001
0000
,
0001
0001
1000
1000
,
1001
0000
0100
0000
,
0010
0000
0001
0000
,
1000
0000
0100
0000
,
0010
0000
0001
0000
,
1001
0000
0100
0000
,
0010
0000
0001
0000
,
0100
0000
1000
0000
,
0100
0000
0001
0000
,
1001
0000
0100
0000
,
0010
0000
0100
0000
,
0010
0000
0001
0000
,
0100
0000
1000
0000
,
1001
0000
0100
0000
,
0010
0000
0100
0000
,
0010
0000
0100
0000
,
2002
0000
0000
3003
,
1001
0000
1000
0000
,
0100
0000
0010
0000
,
0001
0000
0100
0000
,
0010
0000
1000
0000
,
0001
0000
0100
0001
,
0100
0000
0010
0000
,
1000
0000
0001
0000
,
0100
0001
0100
0000
,
1001
0000
0100
0000
,
0010
0000
0100
0010
,
0100
0000
0001
0000
,
1000
0000
0001
0100
,
0001
0000
1000
0000
,
0001
0000
0100
0000
,
1001
0000
0100
1000
,
2000
3200
0320
0031
,
1001
0000
1000
0000
,
0100
0000
0010
0000
,
0001
0000
1000
0000
,
0001
0000
0100
0000
,
0010
0010
0010
0000
,
0100
0100
0100
0000
,
1000
0001
1000
0000
,
0002
2003
3020
1030
,
1001
0000
0000
0000
;

//---------------dance-single - Copied from----------------
#NOTES:
     dance-single:
     Copied from:
     Medium:
     5:
     0.449,0.552,0.162,0.449,0.005:
0000
1000
1000
0100
,
0100
0000
0010
0000
0010
0000
0001
1000
,
2002
0000
0000
3003
,
0220
0000
0000
0330
,
1001
1000
0100
0010
,
0100
0010
0100
0010
,
0001
0100
0001
0100
,
0010
1000
0010
1000
,
1001
0100
0010
0100
,
0010
0001
0100
0001
,
0100
0010
1000
0010
,
1000
0000
0100
0000
0010
0001
0010
0000
,
0011
0001
1000
0001
,
0100
0010
0100
0001
,
1000
0100
0010
0001
,
1000
0001
1000
0100
,
1000
0100
1000
0000
0001
0000
1000
0000
,
0001
1000
0100
0020
,
0001
0001
0001
0031
,
0200
0000
0000
0000
0000
0000
0000
1300
,
1001
0001
0100
0001
,
0100
0001
0010
0100
,
0010
0100
0010
0100
,
1000
0100
0010
0001
,
1010
0001
0100
0001
,
1100
0100
1000
0001
,
1001
0100
0110
0001
,
1001
0000
0000
1000
0001
2000
0000
0002
,
0000
0000
0000
0000
,
0000
3003
0000
1000
0010
0100
0000
0001
,
0000
0200
0000
0000
0000
0000
0000
0000
,
0000
0000
0300
0000
0000
0000
0001
0000
1000
0000
0000
0010
0000
0000
1000
0000
,
0010
1000
0001
0100
,
0001
1000
0100
0010
,
0100
0000
0010
0000
0001
1000
0001
1000
,
0000
0100
0010
0001
,
1001
0000
0100
0000
0010
0100
0010
0100
,
0000
0001
1000
0001
,
0100
0000
0001
0000
1000
0100
1000
0100
,
0000
0001
1000
0001
,
1001
0100
0010
0100
,
0010
0100
0010
0100
,
0010
0002
2003
3100
,
2200
0000
0000
3300
,
2001
3200
0320
0032
,
0023
0000
0230
0000
2300
0000
3100
1000
,
0000
0000
0100
0000
0010
0001
0010
0000
,
0200
0000
2300
0000
3020
0000
0130
0001
,
0000
0200
0301
2000
,
3001
0000
0002
0000
1003
0000
0100
0010
,
0000
0000
0001
0000
0010
0001
0010
0000
,
0100
0000
0010
0000
0010
0001
1000
0000
,
1100
0002
0203
0302
,
0203
0000
0320
0000
2030
0000
3001
1000
,
0000
0000
0001
0000
0100
0001
0100
0000
,
0002
0000
0203
0000
0320
0000
1030
1000
,
0000
0200
0320
0032
,
0203
0000
0302
0000
0203
0000
0301
0100
,
0000
0001
1000
0100
,
0200
0320
0032
1003
,
0000
0001
0000
0001
0000
0100
0000
0100
,
0000
0010
0000
0010
0000
1000
0000
1000
,
0000
0001
0000
0001
0000
0100
0000
0100
,
0000
0010
0000
0010
0000
1000
0000
0001
,
1000
0001
1000
0100
,
0010
0100
0010
0001
,
1000
0001
1000
0001
,
0200
0302
2003
3001
,
1001
0000
0000
0000
;

//---------------dance-single - ----------------
#NOTES:
     dance-single:
     :
     Beginner:
     1:
     0.115,0.162,0.115,0.000,0.000:
0000
0000
0000
0000
,
0000
0000
0000
0000
,
0000
0000
0000
0000
,
1001
0000
0000
0000
,
0110
0000
0000
0000
,
0100
0000
0000
0000
,
0010
0000
0000
0000
,
1000
0000
0000
0000
,
0001
0000
0000
0000
,
1000
0000
0000
0000
,
0100
0000
0000
0000
,
0010
0000
0000
0000
,
1001
0000
0000
0000
,
0100
0000
0000
0000
,
0010
0000
0000
0000
,
0001
0000
0000
0000
,
1000
0000
0000
0000
,
0001
0000
0000
0000
,
1000
0000
0000
0000
,
1001
0000
0000
0000
,
0110
0000
0000
0000
,
0100
0000
0000
0000
,
0010
0000
0000
0000
,
0100
0000
0000
0000
,
1001
0000
0000
0000
,
0100
0000
0000
0000
,
0010
0000
0010
0000
,
0010
0000
0000
0000
,
1001
0000
0000
0000
,
0100
0000
0000
0000
,
0010
0000
0000
0000
,
0001
0000
0000
0000
0000
0000
0000
1000
,
0000
0000
0000
0000
,
0100
0000
0000
0000
,
0010
0000
0000
0000
,
0001
0000
0000
0000
,
0110
0000
0000
0000
,
0100
0000
0000
0000
,
0010
0000
0000
0000
,
0100
0000
0000
0000
,
0001
0000
0000
0000
,
1000
0000
0000
0000
,
0001
0000
0000
0000
,
1000
0000
0000
0000
,
1001
0000
0001
0000
,
1000
0000
0001
0000
,
0000
0000
0100
0000
,
0010
0000
1000
0000
,
0000
0000
0001
0000
,
0100
0000
0010
0000
,
0000
0000
1000
0000
,
0001
0000
1000
0000
,
0110
0000
1000
0000
,
0001
0000
1000
0000
,
0000
0000
0100
0000
,
0010
0000
0001
0000
,
1000
0000
0000
0000
,
0001
0000
0000
0000
,
0100
0000
0000
0000
,
0010
0000
0000
0000
,
1001
0000
0000
0000
,
0000
0000
0000
0000
,
0000
0000
0000
0000
,
0000
0000
0000
0000
,
1000
0000
0000
0000
,
0001
0000
0000
0000
,
0100
0000
0000
0000
,
0010
0000
0000
0000
,
1001
0000
0000
0000
;

//---------------dance-single - Copied from Copied from----------------
#NOTES:
     dance-single:
     Copied from Copied from:
     Edit:
     13:
     0.917,1.000,0.286,0.134,0.563: // measure 1
0000
0000
1000
0100
1000
0100
0010
0001
,  // measure 2
0010
0001
0010
0100
0010
1000
0001
0100
,  // measure 3
0001
0000
0010
0000
0001
0010
0001
0010
0100
1000
0100
1000
0100
0010
0100
0010
,  // measure 4
0001
1000
0001
1000
0001
1000
0001
1000
0001
1000
0001
1000
0001
1000
0001
1000
0001
1000
0001
0000
0000
0000
0000
0000
,  // measure 5
1001
1000
001M
0100
0010
1000
1010
0100
,  // measure 6
0001
0100
0101
0001
0010
0001
0011
0100
,  // measure 7
1000
0100
1100
1000
0010
0100
0101
0100
,  // measure 8
0001
0010
0011
0010
0100
1000
0001
1000
,  // measure 9
0001
0010
0100
1000
0100
0010
0001
0010
,  // measure 10
0100
0010
0001
0010
0100
1000
0100
0010
,  // measure 11
0001
0100
0001
0100
0010
1000
0010
1000
,  // measure 12
0100
0010
0100
0010
0001
1000
0001
0010
,  // measure 13
0011
0010
0001
0010
0001
0010
0100
1000
,  // measure 14
0100
1000
0100
0001
0100
1000
0100
0010
,  // measure 15
0100
1000
0010
0001
0010
0100
0001
0100
,  // measure 16
0010
1000
0010
0001
0010
0100
0001
0100
,  // measure 17
0001
1000
0001
0010
0100
0010
0001
0100
,  // measure 18
1000
0100
0010
0100
0001
1000
0100
0010
,  // measure 19
0100
1000
0100
1000
0100
1000
0100
1000
,  // measure 20
0100
1000
0010
0100
0001
0100
0010
1000
0010
0100
0001
0100
0010
0100
0001
1000
,  // measure 21
2002
0010
0010
3013
,  // measure 22
2200
0001
0010
3301
,  // measure 23
0022
0100
1000
0133
,  // measure 24
0202
1000
0010
1303
,  // measure 25
1010
0010
1000
0010
1000
0001
0100
0001
,  // measure 26
0101
0010
1000
0010
1000
0100
0010
0001
,  // measure 27
1000
0100
1000
0100
0010
0001
0010
0001
1000
0010
1000
0010
0100
0001
0100
0001
,  // measure 28
1000
0000
0001
0000
1000
0000
0001
0000
0100
0000
0010
0000
0100
0000
0010
0000
1000
0010
1000
0010
1000
0000
0000
0000
0000
0000
0000
0000
0000
0000
0000
0000
,  // measure 29
1001
1000
0001
0100
1000
0100
1000
0100
,  // measure 30
0001
0010
0100
0010
0001
0010
0001
0010
,  // measure 31
0002
0100
0203
0010
0310
1000
0010
1000
,  // measure 32
0001
1000
0001
1000
0010
0100
0001
0100
,  // measure 33
0020
1000
2030
0100
3100
0010
0001
0010
,  // measure 34
0001
0000
0010
0000
0001
0000
0010
0000
0100
0000
1000
0000
0010
0000
0100
0010
,  // measure 35
0100
1000
0100
0010
0001
0100
1000
0100
,  // measure 36
0001
0100
0010
1000
0010
0100
0001
0100
,  // measure 37
0101
0100
0001
0001
1000
0001
1000
0100
,  // measure 38
0010
0000
0100
0000
0010
0000
0100
0000
0010
0000
0001
0000
0010
0000
0100
0010
,  // measure 39
0100
1000
0100
0001
0100
0001
0100
1000
,  // measure 40
0001
1000
0001
1000
0010
0001
0010
1000
,  // measure 41
0100
1000
0100
1000
0100
0010
0001
0010
,  // measure 42
0000
0000
0100
0000
0000
0000
1000
0000
0010
0000
0100
0000
0001
0000
0100
0010
,  // measure 43
0200
0000
0302
0000
1003
0100
1000
0100
,  // measure 44
1000
0010
0100
0010
1000
0010
0100
0010
0100
0010
1000
0001
0100
0010
1000
0100
,  // measure 45
1100
1000
0100
0100
0010
0010
0001
0001
,  // measure 46
0010
0010
0100
0100
1000
1000
0100
1100
,  // measure 47
0000
0000
0100
0100
0010
0001
0001
0100
,  // measure 48
0010
1000
0010
0100
0001
0010
0001
0101
,  // measure 49
0000
0000
0101
0001
1000
0001
1001
0001
,  // measure 50
1000
0001
1001
0100
1000
0100
0100
0011
,  // measure 51
0000
0000
0001
0001
0010
0001
0001
1000
,  // measure 52
0100
0010
0001
0100
0010
1000
1000
0100
,  // measure 53
1100
1000
0001
0001
0100
0100
0001
0001
,  // measure 54
0100
0100
0010
0010
1000
1000
0001
1010
,  // measure 55
0000
0000
0001
0001
0100
0001
0001
0100
,  // measure 56
0001
0001
0100
0100
0010
0010
1000
1001
,  // measure 57
0000
0000
0000
0000
1000
0001
0010
0100
1000
0001
0010
0100
1000
0100
0010
0100
,  // measure 58
1000
0001
0010
0100
0010
0001
0010
0100
0010
0100
1000
0100
0010
0100
0010
0001
,  // measure 59
0100
0001
0100
0010
1000
0010
1000
0001
0100
0001
0100
0010
1000
0010
1000
0001
,  // measure 60
1000
0010
1000
0010
1000
0010
1000
0001
1000
0001
1000
0001
0100
0001
0100
0001
0100
0001
1000
0000
0000
0100
0000
0000
,  // measure 61
0110
0001
1000
0001
1000
0100
1000
0100
,  // measure 62
1000
0010
1000
0010
1000
0001
1000
0001
,  // measure 63
0010
0100
0010
0100
1000
0010
1000
0010
,  // measure 64
0100
0010
0100
0010
1000
0010
1000
0010
,  // measure 65
1000
0010
1000
0010
0100
0001
0100
0001
1000
0010
1000
0010
0100
0001
0100
0001
,  // measure 66
0100
0010
0100
0010
0100
0001
0100
0001
1000
0010
0100
0010
1000
0010
0100
0001
,  // measure 67
0100
0010
0100
0001
0100
0010
1000
0001
0010
0001
0010
0100
1000
0100
0010
0100
,  // measure 68
1000
0001
1000
0001
1000
0001
1000
0010
1000
0010
1000
0010
1000
0000
0000
0100
0000
0000
0011
0000
0000
0011
0000
0000
,  // measure 69
1001
0000
0000
0000
;
