#TITLE:キミがいる;
#SUBTITLE:;
#ARTIST:いきものがかり;
#TITLETRANSLIT:Kimi ga Iru;
#SUBTITLETRANSLIT:;
#ARTISTTRANSLIT:Ikimono-gakari;
#CREDIT:348;
#BANNER:Kimi ga Iru Banner.png;
#BACKGROUND:Kimi ga Iru Background.png;
#LYRICSPATH:Kimi ga Iru.lrc;
#CDTITLE:;
#MUSIC:Kimi ga Iru.mp3;
#OFFSET:-0.023;
#SAMPLESTART:75.577;
#SAMPLELENGTH:15.000;
#SELECTABLE:YES;
#BPMS:0.000=208.032;
#STOPS:;
#BGCHANGES:;

//---------------dance-single - ----------------
#NOTES:
     dance-single:
     :
     Beginner:
     2:
     0.100,0.200,0.015,0.000,0.000: // measure 1
0000
0000
0000
0000
,  // measure 2
0000
0000
0000
0000
,  // measure 3
0000
0000
0000
0000
,  // measure 4
0000
0000
0000
0000
,  // measure 5
0000
0000
0000
0000
,  // measure 6
0000
0000
0000
0000
,  // measure 7
0000
0000
0000
0000
,  // measure 8
0000
0000
0000
0000
,  // measure 9
1000
0000
0000
0000
,  // measure 10
0000
0000
0000
0000
,  // measure 11
0001
0000
0001
0000
,  // measure 12
0001
0000
0000
0000
,  // measure 13
0100
0000
0000
0000
,  // measure 14
0000
0000
0000
0000
,  // measure 15
0010
0000
0000
0000
,  // measure 16
0000
0000
0000
0000
,  // measure 17
1000
0000
0000
0000
,  // measure 18
0000
0000
0000
0000
,  // measure 19
0100
0000
0000
0000
,  // measure 20
0000
0000
0000
0000
,  // measure 21
0010
0000
0000
0000
,  // measure 22
0000
0000
0000
0000
,  // measure 23
0001
0000
0000
0000
,  // measure 24
0000
0000
0000
0000
,  // measure 25
1000
0000
1000
0000
,  // measure 26
0000
0000
0000
0000
,  // measure 27
0010
0000
0010
0000
,  // measure 28
0000
0000
0000
0000
,  // measure 29
0100
0000
0100
0000
,  // measure 30
0000
0000
0000
0000
,  // measure 31
0001
0000
0000
0000
,  // measure 32
0001
0000
0000
0000
,  // measure 33
1000
0000
0000
0000
,  // measure 34
0000
0000
0001
0000
,  // measure 35
0001
0000
0000
0000
,  // measure 36
0000
0000
0000
0000
,  // measure 37
0100
0000
0000
0000
,  // measure 38
0000
0000
0010
0000
,  // measure 39
0010
0000
0000
0000
,  // measure 40
0000
0000
0000
0000
,  // measure 41
1000
0000
0000
0000
,  // measure 42
0000
0000
0000
0000
,  // measure 43
0001
0000
0000
0000
,  // measure 44
0000
0000
0000
0000
,  // measure 45
1000
0000
0010
0000
,  // measure 46
0100
0000
0001
0000
,  // measure 47
1000
0000
0000
0000
,  // measure 48
0000
0000
0000
0000
,  // measure 49
0001
0000
0000
0000
,  // measure 50
0001
0000
0000
0000
,  // measure 51
0010
0000
0000
0000
,  // measure 52
0010
0000
0000
0000
,  // measure 53
0100
0000
0000
0000
,  // measure 54
0100
0000
0000
0000
,  // measure 55
1000
0000
0000
0000
,  // measure 56
0000
0000
0000
0000
,  // measure 57
1000
0000
0000
0000
,  // measure 58
1000
0000
0000
0000
,  // measure 59
0010
0000
0000
0000
,  // measure 60
0010
0000
0000
0000
,  // measure 61
0100
0000
0000
0000
,  // measure 62
0001
0000
0000
0000
,  // measure 63
0100
0000
0000
0000
,  // measure 64
0010
0000
0000
0000
,  // measure 65
0000
0000
0000
0000
,  // measure 66
0000
0000
0000
0000
,  // measure 67
1000
0000
0000
0000
,  // measure 68
0001
0000
0001
0000
,  // measure 69
0001
0000
0000
0000
,  // measure 70
0100
0000
0100
0000
,  // measure 71
0100
0000
0000
0000
,  // measure 72
0010
0000
0010
0000
,  // measure 73
0010
0000
0000
0000
,  // measure 74
1000
0000
1000
0000
,  // measure 75
0001
0000
0000
0000
,  // measure 76
1000
0000
0001
0000
,  // measure 77
1000
0000
0000
0000
,  // measure 78
0010
0000
0100
0000
,  // measure 79
0010
0000
0000
0000
,  // measure 80
0010
0000
0000
0000
,  // measure 81
0100
0000
0000
0000
,  // measure 82
0100
0000
0000
0000
,  // measure 83
0001
0000
0000
0000
,  // measure 84
0000
0000
0000
0000
,  // measure 85
1000
0000
0000
0000
,  // measure 86
0000
0000
0000
0000
,  // measure 87
0010
0000
0000
0000
,  // measure 88
0000
0000
0000
0000
,  // measure 89
0100
0000
0000
0000
,  // measure 90
0000
0000
0000
0000
,  // measure 91
0001
0000
0000
0000
,  // measure 92
0001
0000
0000
0000
,  // measure 93
1000
0000
0000
0000
,  // measure 94
1000
0000
0000
0000
,  // measure 95
0001
0000
1000
0000
,  // measure 96
0010
0000
0100
0000
,  // measure 97
0010
0000
0000
0000
,  // measure 98
0100
0000
0000
0000
,  // measure 99
1001
0000
0000
0000
,  // measure 100
0000
0000
0000
0000
,  // measure 101
1000
0000
0000
0000
,  // measure 102
0000
0000
0000
0000
,  // measure 103
0010
0000
0100
0000
,  // measure 104
0010
0000
0000
0000
,  // measure 105
1000
0000
0000
0000
,  // measure 106
0001
0000
0000
0000
,  // measure 107
0100
0000
0000
0000
,  // measure 108
0010
0000
0000
0000
,  // measure 109
1000
0000
0000
0000
,  // measure 110
0001
0000
0000
0110
;

//---------------dance-single - ----------------
#NOTES:
     dance-single:
     :
     Easy:
     5:
     0.285,0.365,0.189,0.226,0.000: // measure 1
0000
0000
0000
0000
,  // measure 2
0000
0000
0000
0000
,  // measure 3
0000
0000
0000
0000
,  // measure 4
0000
0000
0000
0000
,  // measure 5
0000
0000
0000
0000
,  // measure 6
0000
0000
0000
0000
,  // measure 7
0000
0000
0000
0000
,  // measure 8
0000
0000
0000
0000
,  // measure 9
1000
0000
0001
0000
,  // measure 10
1000
0000
0100
0000
,  // measure 11
0010
0000
0001
0000
,  // measure 12
1000
0000
0001
0000
,  // measure 13
1000
1000
1000
0000
,  // measure 14
0001
0001
0001
0000
,  // measure 15
0100
0010
0100
0000
,  // measure 16
0220
0000
0000
0330
,  // measure 17
1000
0000
0100
0000
,  // measure 18
0001
0000
0100
0000
,  // measure 19
1000
0000
0001
0000
,  // measure 20
1000
0001
1000
0000
,  // measure 21
0001
0000
0010
0000
,  // measure 22
0100
0000
1000
0000
,  // measure 23
0001
0000
1000
0000
,  // measure 24
0010
0100
0010
0000
,  // measure 25
1000
0000
0001
0000
,  // measure 26
0000
1000
0001
0000
,  // measure 27
0100
0000
0010
0000
,  // measure 28
0000
0100
0010
0000
,  // measure 29
2000
0000
0000
3000
,  // measure 30
0002
0000
0000
0003
,  // measure 31
0200
0300
0020
0030
,  // measure 32
2000
3000
0002
0003
,  // measure 33
1000
0000
1000
0000
,  // measure 34
0001
0000
0001
0000
,  // measure 35
1001
0000
0000
0000
,  // measure 36
1100
0000
0000
0000
,  // measure 37
0010
0000
0100
0000
,  // measure 38
0010
0000
0100
0000
,  // measure 39
0110
0000
0000
0000
,  // measure 40
0101
0000
0000
0000
,  // measure 41
1000
0000
0100
0000
,  // measure 42
1000
0000
0000
0000
,  // measure 43
0001
0000
0010
0000
,  // measure 44
0001
0000
0000
0000
,  // measure 45
1000
0001
1000
0000
,  // measure 46
0010
0100
0010
0000
,  // measure 47
2000
0000
3001
0000
,  // measure 48
0001
0010
0001
0000
,  // measure 49
0002
0000
0013
0000
,  // measure 50
0010
0000
0011
0000
,  // measure 51
2000
0000
3100
0000
,  // measure 52
0100
0000
1100
0000
,  // measure 53
0002
0000
0103
0000
,  // measure 54
0020
0000
1030
0000
,  // measure 55
1001
0000
0000
0000
,  // measure 56
0110
0000
0000
0000
,  // measure 57
2000
0000
3010
0000
,  // measure 58
1000
0000
1010
0000
,  // measure 59
0002
0000
0103
0000
,  // measure 60
0001
0000
0101
0000
,  // measure 61
1000
0100
0010
0000
,  // measure 62
0001
0010
0100
0000
,  // measure 63
1000
0001
1000
0000
,  // measure 64
0010
0100
0010
0000
,  // measure 65
1000
0100
0010
0002
,  // measure 66
0000
0000
0000
1003
,  // measure 67
0200
0000
0300
0000
,  // measure 68
1000
0100
1000
0100
,  // measure 69
0020
0000
0030
0000
,  // measure 70
0001
0010
0001
0010
,  // measure 71
0002
0000
0003
0000
,  // measure 72
1000
0001
1000
0001
,  // measure 73
2000
0000
3001
0000
,  // measure 74
0110
0000
1001
0000
,  // measure 75
0002
0000
0003
0000
,  // measure 76
1000
0010
1000
0010
,  // measure 77
2000
0000
3000
0000
,  // measure 78
0001
0100
0001
0100
,  // measure 79
0020
0000
0130
0000
,  // measure 80
2000
0000
3001
0000
,  // measure 81
1000
0000
1100
0000
,  // measure 82
0001
0000
0011
0000
,  // measure 83
1000
0000
0000
0000
,  // measure 84
1001
0000
0001
0010
,  // measure 85
0000
0010
0001
0000
,  // measure 86
1100
0000
0010
1000
,  // measure 87
0000
0001
0100
0000
,  // measure 88
0011
0000
1000
0001
,  // measure 89
0000
0100
0010
0000
,  // measure 90
0110
0000
1001
0000
,  // measure 91
0002
0000
0003
0000
,  // measure 92
2000
0000
3010
0100
,  // measure 93
0000
0001
1000
0000
,  // measure 94
0101
0000
1010
0000
,  // measure 95
2000
0000
3010
0000
,  // measure 96
0002
0000
0103
0000
,  // measure 97
1000
0000
0100
0000
,  // measure 98
0010
0000
0001
0000
,  // measure 99
1001
0000
0000
0000
,  // measure 100
0000
0000
0000
0000
,  // measure 101
2000
0000
0000
3000
,  // measure 102
0001
0010
1000
0010
,  // measure 103
0001
0000
1010
0000
,  // measure 104
0101
0000
1001
0000
,  // measure 105
1000
0001
0100
0000
,  // measure 106
0100
0001
1000
0000
,  // measure 107
0001
0010
0001
0010
,  // measure 108
0002
0000
0000
0003
,  // measure 109
1000
0100
1000
0000
,  // measure 110
0001
0010
0001
0200
,  // measure 111
0000
0000
0000
0000
,  // measure 112
0000
0000
0300
0000
;

//---------------dance-single - ----------------
#NOTES:
     dance-single:
     :
     Medium:
     7:
     0.413,0.487,0.291,0.255,0.000: // measure 1
0000
0000
0000
0000
,  // measure 2
0000
0000
0000
0000
,  // measure 3
0000
0000
0000
0000
,  // measure 4
0000
0000
0000
0000
,  // measure 5
0000
0000
0000
0000
,  // measure 6
0000
0000
0000
0000
,  // measure 7
0000
0000
0000
0000
,  // measure 8
0000
0000
0000
0000
,  // measure 9
1000
0000
0001
0000
,  // measure 10
1000
0100
0001
0100
,  // measure 11
1000
0000
0011
0000
,  // measure 12
1100
0000
1001
0000
,  // measure 13
0001
0000
0010
0000
0001
0000
0000
1000
,  // measure 14
0000
0100
0000
1000
0001
0000
1001
0000
,  // measure 15
0001
0000
0010
0000
0100
0000
1000
0002
,  // measure 16
0000
0000
0000
1003
,  // measure 17
0001
0010
1000
0000
,  // measure 18
1000
0010
0001
0000
,  // measure 19
1000
0100
0010
0001
,  // measure 20
0100
0010
1000
0000
,  // measure 21
0001
0010
0001
0010
,  // measure 22
0100
1000
0100
1000
,  // measure 23
0001
1000
0002
0000
,  // measure 24
1003
0000
0110
0000
,  // measure 25
0001
1000
0200
0000
,  // measure 26
0310
0001
2000
0000
,  // measure 27
3001
1000
0100
0010
,  // measure 28
0100
1000
0001
0000
,  // measure 29
1100
0000
0101
0000
,  // measure 30
1010
0000
0011
0000
,  // measure 31
2000
0000
3002
0000
,  // measure 32
2003
3100
0020
0031
,  // measure 33
1000
0100
1000
0000
,  // measure 34
0001
0100
0001
0000
,  // measure 35
1000
0010
0001
0020
,  // measure 36
0000
1030
0001
1000
,  // measure 37
0001
1000
0010
1000
,  // measure 38
0001
0100
0001
1000
,  // measure 39
0010
0100
0010
0000
,  // measure 40
1000
0001
1000
0000
,  // measure 41
0001
0000
0010
0000
0100
1000
0000
0000
,  // measure 42
0001
1000
0100
0000
,  // measure 43
1000
0000
0100
0000
0010
0001
0000
0000
,  // measure 44
0010
0001
1000
0000
,  // measure 45
0001
2000
0100
3001
,  // measure 46
1000
0002
0010
1003
,  // measure 47
1001
0000
0110
0000
,  // measure 48
0110
0000
1001
0000
,  // measure 49
0102
0000
0013
0000
,  // measure 50
2010
0000
3100
0000
,  // measure 51
1001
0000
0010
0000
,  // measure 52
1001
0000
0100
0000
,  // measure 53
0001
0000
0000
1000
0100
0000
0000
0000
,  // measure 54
1000
0000
0000
0001
0010
0000
0000
0000
,  // measure 55
1001
0000
0100
0001
,  // measure 56
1000
0010
1000
0000
,  // measure 57
1200
0000
0310
0000
,  // measure 58
0021
0000
0130
0000
,  // measure 59
0110
0000
1000
0000
,  // measure 60
0110
0000
0001
0000
,  // measure 61
1000
0100
1000
0010
,  // measure 62
0100
0001
0010
0001
,  // measure 63
0200
0000
0000
0320
0000
0000
0130
0000
,  // measure 64
0001
1000
0100
0010
,  // measure 65
0001
0000
0010
0000
0001
1000
0000
2002
,  // measure 66
0000
0000
3003
1000
,  // measure 67
0002
0000
0013
0001
,  // measure 68
1000
0000
0100
0000
0010
0001
0020
0000
,  // measure 69
0000
0031
1000
0100
,  // measure 70
1000
0000
0001
0000
0100
0010
0200
0000
,  // measure 71
0000
0301
1000
0001
,  // measure 72
1000
0001
1100
0000
,  // measure 73
0011
0000
1000
0001
,  // measure 74
2000
0001
3001
0001
,  // measure 75
1100
0000
0010
0001
,  // measure 76
1000
0010
1000
0101
,  // measure 77
0000
1000
0001
0100
,  // measure 78
0010
0100
0001
1000
,  // measure 79
0001
0000
0010
0002
0000
0000
1003
0000
,  // measure 80
1000
0000
0100
2000
0000
0000
3001
0000
,  // measure 81
0001
0010
0100
1000
,  // measure 82
0100
0010
1001
0000
,  // measure 83
0110
0000
0001
1000
,  // measure 84
0001
0010
0100
0011
,  // measure 85
0000
1000
0100
1000
,  // measure 86
0001
0100
0010
1010
,  // measure 87
0000
0001
1000
0100
,  // measure 88
1000
0010
0101
0000
,  // measure 89
1010
0000
0001
1000
,  // measure 90
0001
1000
0001
0000
0100
0000
0010
0000
,  // measure 91
2000
0000
3001
0010
,  // measure 92
0001
0000
0100
0000
0010
1000
0020
0000
,  // measure 93
0000
1030
0001
0100
,  // measure 94
0010
1000
0001
1000
,  // measure 95
0001
0000
1000
0200
0000
0000
1300
0000
,  // measure 96
1000
0000
0001
0020
0000
0000
0031
0000
,  // measure 97
0001
1000
0010
0100
,  // measure 98
1001
0000
0110
0000
,  // measure 99
0220
0000
0000
0000
,  // measure 100
0000
0000
0330
0000
,  // measure 101
2000
0000
3002
0000
,  // measure 102
1003
0010
0001
0010
,  // measure 103
1000
0000
0101
0000
,  // measure 104
1010
0000
0110
0000
,  // measure 105
1000
0000
0100
0000
0010
0000
0000
0001
,  // measure 106
0000
0010
0000
0100
1000
0000
0110
0000
,  // measure 107
0001
0000
1000
0000
0010
0000
0100
0020
,  // measure 108
0000
0000
0000
0030
,  // measure 109
1000
0000
0001
0000
1000
0000
0000
0010
,  // measure 110
0000
0100
0000
0010
0100
0000
0002
0000
,  // measure 111
0000
0000
0000
0000
,  // measure 112
0000
0000
0003
0000
;

//---------------dance-single - ----------------
#NOTES:
     dance-single:
     :
     Hard:
     8:
     0.504,0.527,0.298,0.306,0.000: // measure 1
0000
0000
0000
0000
,  // measure 2
0000
0000
0000
0000
,  // measure 3
0000
0000
0000
0000
,  // measure 4
0000
0000
0000
0000
,  // measure 5
0000
0000
0000
0000
,  // measure 6
0000
0000
0000
0000
,  // measure 7
0000
0000
0000
0000
,  // measure 8
0000
0000
0000
0000
,  // measure 9
1000
0000
0100
0000
0010
0001
0010
0000
,  // measure 10
0001
0100
2000
3010
,  // measure 11
0011
0000
1010
0000
,  // measure 12
1100
0000
0101
0000
,  // measure 13
1000
0000
0101
0000
1000
0000
0001
0100
,  // measure 14
0000
0011
0000
0100
0001
0000
1001
0000
,  // measure 15
0010
0000
0110
0000
1000
0001
0000
2002
,  // measure 16
0000
0000
3003
0110
,  // measure 17
1000
0000
0100
0000
0010
0001
0010
0000
,  // measure 18
0001
0000
1000
0100
1000
0000
0001
0000
,  // measure 19
1000
0000
0001
0000
1000
0001
0100
0000
,  // measure 20
0010
0100
1001
0000
,  // measure 21
1000
0002
0100
1003
,  // measure 22
0001
2000
0100
3001
,  // measure 23
1000
0000
0001
0000
0100
0001
1000
0000
,  // measure 24
0001
1000
0010
0000
1000
0000
0001
0000
,  // measure 25
2000
3100
0000
0100
,  // measure 26
0020
0031
0000
1000
,  // measure 27
0001
0011
0000
0001
,  // measure 28
1000
1100
0000
0001
,  // measure 29
1001
0000
0000
1000
0100
0000
0000
0100
,  // measure 30
0001
0000
0000
0001
0100
0000
0100
0000
,  // measure 31
1000
0000
0001
0000
1000
0100
0010
0000
,  // measure 32
0001
0010
0100
0000
1000
0000
0001
0000
,  // measure 33
1000
0000
0001
0010
1000
0000
0010
0000
,  // measure 34
0001
0000
1000
0000
0010
0100
0010
0000
,  // measure 35
0200
0001
0310
0000
,  // measure 36
0020
1000
0130
0000
,  // measure 37
1000
0000
0100
0000
0010
0001
1000
0000
,  // measure 38
0001
1000
0100
0000
0010
0000
0001
0000
,  // measure 39
1000
0000
0001
0000
1100
0000
0000
0010
,  // measure 40
0001
0000
1000
0000
0011
0000
0000
1000
,  // measure 41
0100
0000
1000
0000
0001
0010
0001
0000
,  // measure 42
2000
0010
3001
0000
,  // measure 43
0010
0000
1000
0000
0001
0100
0001
0000
,  // measure 44
0020
0001
0130
0000
,  // measure 45
2000
0100
3010
1010
,  // measure 46
0002
0010
0103
0202
,  // measure 47
0000
0000
0303
0000
1000
0010
0100
0000
,  // measure 48
0001
0100
0010
0000
1000
0000
0000
0001
,  // measure 49
0010
0000
0000
0010
0100
0000
0000
0100
,  // measure 50
1000
0000
0000
1000
0100
0000
0000
0100
,  // measure 51
0010
0000
0000
0010
0001
0000
0000
0001
,  // measure 52
0100
0000
0000
0100
1000
0000
0000
1000
,  // measure 53
0100
0000
0000
0100
0001
0000
0000
0001
,  // measure 54
1000
0000
0000
1000
0010
0000
0000
0010
,  // measure 55
0100
0000
0001
0101
,  // measure 56
1000
0000
1010
0000
1001
0000
0000
1000
,  // measure 57
0100
0000
0000
0100
0001
0000
0000
0001
,  // measure 58
0100
0000
0000
0100
1000
0000
0000
1000
,  // measure 59
0010
0000
0000
0010
0100
0000
0000
0100
,  // measure 60
0001
0000
0000
0001
1000
0000
0000
0010
,  // measure 61
0100
0002
0103
1010
,  // measure 62
0010
2000
3010
0101
,  // measure 63
1000
0000
0001
0000
1000
0100
0001
0000
,  // measure 64
0100
0000
1000
0000
0001
1000
0001
0000
,  // measure 65
0100
0000
1001
0000
0010
1000
0000
0220
,  // measure 66
0000
0000
0330
1000
,  // measure 67
0002
0000
1000
0103
,  // measure 68
1000
0010
0100
0000
0001
0000
1000
0000
,  // measure 69
0020
0000
1000
0130
,  // measure 70
1000
0000
0001
0000
1000
0001
0010
0000
,  // measure 71
0001
0000
1000
0000
0001
0010
0001
0000
,  // measure 72
1000
0100
0001
0010
,  // measure 73
2000
0000
0001
3001
,  // measure 74
0001
0100
0001
0000
1000
0010
1000
0000
,  // measure 75
0200
0000
0010
0301
,  // measure 76
0010
0001
0010
0000
0001
0000
1000
0000
,  // measure 77
2000
0000
0010
3001
,  // measure 78
0001
0100
0010
1000
,  // measure 79
0001
0000
1000
0100
0000
0010
0001
0000
,  // measure 80
1000
0000
0010
0100
0000
0001
0010
0000
,  // measure 81
0001
0000
0100
0000
0001
1000
0001
0000
,  // measure 82
0010
0001
0220
0330
,  // measure 83
0002
0010
0103
0000
,  // measure 84
2000
0100
3010
0000
,  // measure 85
0001
0100
0010
1000
,  // measure 86
0001
0010
0100
0000
0010
0000
0001
0000
,  // measure 87
1010
0000
0001
0010
,  // measure 88
0101
0000
1000
0001
,  // measure 89
0110
0000
1001
0000
,  // measure 90
1000
0001
0100
0010
,  // measure 91
0200
0010
0301
0000
,  // measure 92
0020
0100
1030
0000
,  // measure 93
1000
0100
1000
0001
,  // measure 94
0010
0001
0010
0000
0100
0000
1000
0000
,  // measure 95
0001
0000
1000
0100
0000
0100
1000
0000
,  // measure 96
0010
0000
0100
0001
0000
0001
0100
0000
,  // measure 97
0001
0000
1000
0000
0010
1000
0001
0000
,  // measure 98
1100
0000
0101
0000
,  // measure 99
2002
0000
0000
3003
,  // measure 100
0200
0310
2000
3001
,  // measure 101
1000
0100
0001
0100
,  // measure 102
1000
0100
0001
0000
0001
0100
1000
0000
,  // measure 103
0002
0013
0200
1300
,  // measure 104
2000
3100
0020
0031
,  // measure 105
1000
0000
0110
0000
0001
0000
1000
0100
,  // measure 106
0000
1001
0000
0010
0001
0000
0110
0000
,  // measure 107
0100
0000
0010
0000
1000
0001
0000
2002
,  // measure 108
0000
0000
0000
3003
,  // measure 109
1000
0000
1100
0000
1010
0000
0000
0001
,  // measure 110
0000
0011
0000
0100
0001
0000
0202
0000
,  // measure 111
0000
0000
0000
0000
,  // measure 112
0000
0000
0303
0000
;

//---------------dance-single - ----------------
#NOTES:
     dance-single:
     :
     Edit:
     9:
     0.667,0.690,0.597,0.451,0.000: // measure 1
0000
0000
0000
0000
,  // measure 2
0000
0000
0000
0000
,  // measure 3
0000
0000
0000
0000
,  // measure 4
0000
0000
0000
0000
,  // measure 5
0000
0000
0000
0000
,  // measure 6
0000
0000
0000
0000
,  // measure 7
0000
0000
0000
0000
,  // measure 8
0000
0000
0000
0000
,  // measure 9
1000
0000
0001
0000
1000
0100
0010
0000
,  // measure 10
0001
0010
0100
0000
1000
0001
1000
0000
,  // measure 11
0012
0103
0201
0310
,  // measure 12
0120
1030
2010
3100
,  // measure 13
0001
0010
0100
0000
1000
0100
0010
0001
,  // measure 14
0000
0100
0001
1000
0010
0000
1001
0000
,  // measure 15
1010
0000
0101
0000
1000
0100
0001
0200
,  // measure 16
0000
1000
1000
1300
,  // measure 17
1000
0000
0100
0000
0001
0100
1000
0000
,  // measure 18
0001
0000
0010
0000
1000
0010
0001
0000
,  // measure 19
1000
0000
0001
0000
1000
0100
0001
0000
,  // measure 20
0001
0100
1000
0000
0001
0010
0001
0000
,  // measure 21
1000
0000
0001
0000
0100
0001
0100
0010
,  // measure 22
0000
1000
0002
0000
1003
0000
0110
0000
,  // measure 23
0002
0100
1003
1010
,  // measure 24
0001
0100
0001
0000
1000
0010
1000
0000
,  // measure 25
0002
0000
1003
0000
0001
0010
0100
0000
,  // measure 26
0010
0001
0101
1100
,  // measure 27
0020
0000
0130
0000
0010
1000
0001
0000
,  // measure 28
1000
0100
0011
1010
,  // measure 29
0001
0010
1000
0000
0001
0100
1000
0000
,  // measure 30
0010
1000
0010
0000
0100
0001
0100
0000
,  // measure 31
0001
0010
1000
0010
0001
1000
0010
0100
,  // measure 32
0020
0130
0110
1001
,  // measure 33
0100
0000
0001
0000
1000
0100
0001
0000
,  // measure 34
0200
1300
0002
0013
,  // measure 35
1000
0000
1001
0000
0001
0010
0100
0000
,  // measure 36
0100
0010
0001
0000
0001
1000
0100
0000
,  // measure 37
2000
0000
3001
0000
0001
0010
0100
0010
,  // measure 38
0000
0010
0100
0000
1000
0000
0101
0000
,  // measure 39
2000
0001
3010
1100
,  // measure 40
0010
1000
0001
0000
1000
0001
0100
0000
,  // measure 41
0001
0000
1000
0000
0001
0010
1000
0010
,  // measure 42
0001
1000
0002
0103
,  // measure 43
0001
0000
1000
0000
0010
1000
0001
1000
,  // measure 44
0010
2000
3001
0110
,  // measure 45
1000
0011
1000
0101
,  // measure 46
0001
1010
0001
1100
,  // measure 47
0001
1000
0010
0000
0010
1000
0001
0000
,  // measure 48
1000
0100
0001
0100
1000
0000
0000
0001
,  // measure 49
0011
0000
0000
1000
1100
0000
0000
0010
,  // measure 50
1010
0000
0000
0100
0101
0000
0000
1000
,  // measure 51
1001
0000
0000
0010
0110
0000
0000
0100
,  // measure 52
0110
0000
0000
0001
1001
0000
0000
2000
,  // measure 53
0100
0000
0000
3002
0010
0000
0000
0203
,  // measure 54
0001
0000
0000
0320
1000
0000
0000
2030
,  // measure 55
0002
3003
0110
0000
,  // measure 56
1001
0000
0110
0000
1001
0000
0000
0020
,  // measure 57
0001
0000
0000
0032
0100
0000
0000
2003
,  // measure 58
0010
0000
0000
3020
1000
0000
0000
1030
,  // measure 59
1010
0000
0000
0001
0101
0000
0000
0010
,  // measure 60
0011
0000
0000
0100
1100
0000
0000
0001
,  // measure 61
1000
0110
0001
0110
,  // measure 62
0100
1001
0010
1001
,  // measure 63
0110
0000
0000
1001
0000
0000
0110
0000
,  // measure 64
0101
1010
1100
0011
,  // measure 65
1000
0001
1000
0000
0001
0010
0200
2000
,  // measure 66
0000
0000
3300
1001
,  // measure 67
0010
0000
1000
0000
0001
0010
1000
0000
,  // measure 68
0010
0000
0001
0000
1000
0100
0010
0100
,  // measure 69
1000
0001
0100
0010
,  // measure 70
1000
0001
0100
0001
1000
0000
0010
0000
,  // measure 71
1000
0100
0001
0000
1000
0100
0001
0000
,  // measure 72
1000
0100
0001
0100
2000
0000
3002
0000
,  // measure 73
0203
0000
0320
0000
1030
0100
1000
0000
,  // measure 74
0001
0010
0001
0100
0001
1000
0001
0100
,  // measure 75
0001
0000
0100
0000
0010
1000
0010
0000
,  // measure 76
1000
0000
0001
0000
0010
0001
1000
0001
,  // measure 77
0010
0000
0001
0000
0100
0010
1000
0010
,  // measure 78
0100
0002
1003
0110
,  // measure 79
0001
0000
1000
0200
0000
0310
0001
1000
,  // measure 80
0020
0000
1030
0002
0000
0103
0010
1000
,  // measure 81
0001
1100
0011
1001
,  // measure 82
0101
1010
0110
1001
,  // measure 83
0002
0000
2003
0000
3010
0100
0001
0000
,  // measure 84
0200
0000
0320
0000
1030
0100
0001
0000
,  // measure 85
0200
0000
1300
0000
0001
0010
0100
0010
,  // measure 86
0002
0000
0013
0000
0001
0100
0010
0100
,  // measure 87
0001
0000
2000
0000
3010
0100
0010
0000
,  // measure 88
1000
0000
0020
0000
1030
0100
1000
0000
,  // measure 89
0001
0010
1000
0000
0001
0010
1000
0000
,  // measure 90
0001
0010
1000
0010
0001
1000
0100
0010
,  // measure 91
0001
1100
0101
1001
,  // measure 92
1000
0001
0010
0000
0010
0001
1000
0000
,  // measure 93
0001
1010
0011
0110
,  // measure 94
1000
0100
0010
0000
0010
0100
1000
0000
,  // measure 95
0001
0000
0001
2000
0000
3100
1000
0001
,  // measure 96
0020
0000
0031
0200
0000
0310
1000
0001
,  // measure 97
1000
0101
1010
1001
,  // measure 98
0220
0330
2002
3003
,  // measure 99
0220
0000
0000
0330
,  // measure 100
0001
0010
0100
1000
0010
0100
0001
1000
,  // measure 101
0001
0000
1000
0000
0010
0100
1000
0000
,  // measure 102
1000
0100
0010
0000
0010
0100
0010
0000
,  // measure 103
2001
3010
1020
0130
,  // measure 104
0210
0301
0102
1003
,  // measure 105
0001
1000
0100
0000
0010
0001
1000
0001
,  // measure 106
0000
1000
0001
1000
0100
0000
0110
0000
,  // measure 107
0011
0000
1100
0000
0001
0010
1000
0020
,  // measure 108
0000
0000
0000
0031
,  // measure 109
2000
0000
3001
0000
0110
0000
0000
1001
,  // measure 110
0000
0110
0000
0020
0130
0000
2002
0000
,  // measure 111
0000
0000
0000
0000
,  // measure 112
0000
0000
3003
0000
;

//---------------dance-single - ----------------
#NOTES:
     dance-single:
     :
     Challenge:
     9:
     0.660,0.690,0.604,0.451,0.000: // measure 1
0000
0000
0000
0000
,  // measure 2
0000
0000
0000
0000
,  // measure 3
0000
0000
0000
0000
,  // measure 4
0000
0000
0000
0000
,  // measure 5
0000
0000
0000
0000
,  // measure 6
0000
0000
0000
0000
,  // measure 7
0000
0000
0000
0000
,  // measure 8
0000
0000
0000
0000
,  // measure 9
1000
0000
0001
0000
1000
0100
0010
0000
,  // measure 10
0001
0010
0100
0000
1000
0001
1000
0000
,  // measure 11
0012
0103
0201
0310
,  // measure 12
0120
1030
2010
3100
,  // measure 13
0001
0010
0100
0000
1000
0100
0010
0001
,  // measure 14
0000
0100
0001
1000
0010
0000
1001
0000
,  // measure 15
1010
0000
0101
0000
1000
0100
0001
0200
,  // measure 16
0000
1000
1000
1300
,  // measure 17
1000
0000
0100
0000
0001
0100
1000
0000
,  // measure 18
0001
0000
0010
0000
1000
0010
0001
0000
,  // measure 19
1000
0000
0001
0000
1000
0100
0001
0000
,  // measure 20
0001
0100
1000
0000
0001
0010
0001
0000
,  // measure 21
1000
0000
0001
0000
0100
0001
0100
0010
,  // measure 22
0000
1000
0002
0000
1003
0000
0110
0000
,  // measure 23
0002
0100
1003
1010
,  // measure 24
0001
0100
0001
0000
1000
0010
1000
0000
,  // measure 25
0002
0000
1003
0000
0001
0010
0100
0000
,  // measure 26
0010
0001
0101
1100
,  // measure 27
0020
0000
0130
0000
0010
1000
0001
0000
,  // measure 28
1000
0100
0011
1010
,  // measure 29
0001
0010
1000
0000
0001
0100
1000
0000
,  // measure 30
0010
1000
0010
0000
0100
0001
0100
0000
,  // measure 31
0001
0010
1000
0010
0001
1000
0010
0100
,  // measure 32
0020
0130
0110
1001
,  // measure 33
0100
0000
0001
0000
1000
0100
0001
0000
,  // measure 34
0200
1300
0002
0013
,  // measure 35
1000
0000
1001
0000
0001
0010
0100
0000
,  // measure 36
0100
0010
0001
0000
0001
1000
0100
0000
,  // measure 37
2000
0000
3001
0000
0001
0010
0100
0010
,  // measure 38
0000
0010
0100
0000
1000
0000
0101
0000
,  // measure 39
2000
0001
3010
1100
,  // measure 40
0010
1000
0001
0000
1000
0001
0100
0000
,  // measure 41
0001
0000
1000
0000
0001
0010
1000
0010
,  // measure 42
0001
1000
0002
0103
,  // measure 43
0001
0000
1000
0000
0010
1000
0001
1000
,  // measure 44
0010
2000
3001
0110
,  // measure 45
1000
0011
1000
0101
,  // measure 46
0001
1010
0001
1100
,  // measure 47
0001
1000
0010
0000
0010
1000
0001
0000
,  // measure 48
1000
0100
0001
0100
1000
0000
0000
0001
,  // measure 49
0011
0000
0000
1000
1100
0000
0000
0010
,  // measure 50
1010
0000
0000
0100
0101
0000
0000
1000
,  // measure 51
1001
0000
0000
0010
0110
0000
0000
0100
,  // measure 52
0110
0000
0000
0001
1001
0000
0000
2000
,  // measure 53
0100
0000
0000
3002
0010
0000
0000
0203
,  // measure 54
0001
0000
0000
0320
1000
0000
0000
2030
,  // measure 55
0002
3003
0110
0000
,  // measure 56
1001
0000
0110
0000
1001
0000
0000
0020
,  // measure 57
0001
0000
0000
0032
0100
0000
0000
2003
,  // measure 58
0010
0000
0000
3020
1000
0000
0000
1030
,  // measure 59
1010
0000
0000
0001
0101
0000
0000
0010
,  // measure 60
0011
0000
0000
0100
1100
0000
0000
0001
,  // measure 61
1000
0110
0001
0110
,  // measure 62
0100
1001
0010
1001
,  // measure 63
0110
0000
0000
1001
0000
0000
0110
0000
,  // measure 64
0101
1010
1100
0011
,  // measure 65
1000
0001
1000
0000
0001
0010
0200
2000
,  // measure 66
0000
0000
3300
1001
,  // measure 67
0010
0000
1000
0000
0001
0010
1000
0000
,  // measure 68
0010
0000
0001
0000
1000
0100
0010
0100
,  // measure 69
1000
0001
0100
0010
,  // measure 70
1000
0001
0100
0001
1000
0000
0010
0000
,  // measure 71
1000
0100
0001
0000
1000
0100
0001
0000
,  // measure 72
1000
0100
0001
0100
2000
0000
3002
0000
,  // measure 73
0203
0000
0320
0000
1030
0100
1000
0000
,  // measure 74
0001
0010
0001
0100
0001
1000
0001
0100
,  // measure 75
0001
0000
0100
0000
0010
1000
0010
0000
,  // measure 76
1000
0000
0001
0000
0010
0001
1000
0001
,  // measure 77
0010
0000
0001
0000
0100
0010
1000
0010
,  // measure 78
0100
0002
1003
0110
,  // measure 79
0001
0000
1000
0200
0000
0310
0001
1000
,  // measure 80
0020
0000
1030
0002
0000
0103
0010
1000
,  // measure 81
0001
1100
0011
1001
,  // measure 82
0101
1010
0110
1001
,  // measure 83
0002
0000
2003
0000
3010
0100
0001
0000
,  // measure 84
0200
0000
0320
0000
1030
0100
0001
0000
,  // measure 85
0200
0000
1300
0000
0001
0010
0100
0010
,  // measure 86
0002
0000
0013
0000
0001
0100
0010
0100
,  // measure 87
0001
0000
2000
0000
3010
0100
0010
0000
,  // measure 88
1000
0000
0020
0000
1030
0100
1000
0000
,  // measure 89
0001
0010
1000
0000
0001
0010
1000
0000
,  // measure 90
0001
0010
1000
0010
0001
1000
0100
0010
,  // measure 91
0001
1100
0101
1001
,  // measure 92
1000
0001
0010
0000
0010
0001
1000
0000
,  // measure 93
0001
1010
0011
0110
,  // measure 94
1000
0100
0010
0000
0010
0100
1000
0000
,  // measure 95
0001
0000
0001
2000
0000
3100
1000
0001
,  // measure 96
0020
0000
0031
0200
0000
0310
1000
0001
,  // measure 97
1000
0101
1010
1001
,  // measure 98
0220
0330
2002
3003
,  // measure 99
0220
0000
0000
0000
,  // measure 100
0000
0000
0000
0330
,  // measure 101
0110
0000
1000
0000
0010
0100
1000
0000
,  // measure 102
1000
0100
0010
0000
0010
0100
0010
0000
,  // measure 103
2001
3010
1020
0130
,  // measure 104
0210
0301
0102
1003
,  // measure 105
0001
1000
0100
0000
0010
0001
1000
0001
,  // measure 106
0000
1000
0001
1000
0100
0000
0110
0000
,  // measure 107
0011
0000
1100
0000
0001
0010
1000
0020
,  // measure 108
0000
0000
0000
0031
,  // measure 109
2000
0000
3001
0000
0110
0000
0000
1001
,  // measure 110
0000
0110
0000
0020
0130
0000
2002
0000
,  // measure 111
0000
0000
0000
0000
,  // measure 112
0000
0000
3003
0000
;
