#TITLE:I Love You Bibeh;
#SUBTITLE:;
#ARTIST:The Changcuters;
#TITLETRANSLIT:;
#SUBTITLETRANSLIT:;
#ARTISTTRANSLIT:;
#CREDIT:348;
#BANNER:I Love You Bibeh Banner.png;
#BACKGROUND:I Love You Bibeh Background.png;
#LYRICSPATH:I Love You Bibeh.lrc;
#CDTITLE:;
#MUSIC:I Love You Bibeh.mp3;
#OFFSET:-1.614;
#SAMPLESTART:16.852;
#SAMPLELENGTH:15.000;
#SELECTABLE:YES;
#BPMS:0.000=126.000,168.000=68.885,169.000=79.101,170.000=56.174,171.000=64.102,173.000=60.235,176.000=65.417;
#STOPS:;
#BGCHANGES:;

//---------------dance-single - ----------------
#NOTES:
     dance-single:
     :
     Beginner:
     1:
     0.084,0.133,0.030,0.000,0.000: // measure 1
0000
0000
0000
0000
,  // measure 2
0000
0000
0000
0000
,  // measure 3
0000
0000
0000
0000
,  // measure 4
0000
0000
0000
0000
,  // measure 5
1000
0000
0000
0000
,  // measure 6
0001
0000
0000
0000
,  // measure 7
0100
0000
0000
0000
,  // measure 8
0010
0000
0000
0000
,  // measure 9
1000
0000
1000
0000
,  // measure 10
1000
0000
0000
0000
,  // measure 11
0001
0000
0001
0000
,  // measure 12
0001
0000
0000
0000
,  // measure 13
0100
0000
0000
0000
,  // measure 14
0100
0000
0000
0000
,  // measure 15
0010
0000
0000
0000
,  // measure 16
0010
0000
0000
0000
,  // measure 17
0100
0000
0100
0000
,  // measure 18
0100
0000
0000
0000
,  // measure 19
0010
0000
0010
0000
,  // measure 20
0010
0000
0000
0000
,  // measure 21
1000
0000
0000
0000
,  // measure 22
1000
0000
0000
0000
,  // measure 23
0001
0000
0000
0000
,  // measure 24
0001
0000
0000
0000
,  // measure 25
1000
0000
0001
0000
,  // measure 26
1000
0000
0001
0000
,  // measure 27
1001
0000
0000
0000
,  // measure 28
0000
0000
0000
0000
,  // measure 29
0100
0000
0010
0000
,  // measure 30
0100
0000
0010
0000
,  // measure 31
0110
0000
0000
0000
,  // measure 32
1001
0000
0000
0000
,  // measure 33
1000
0000
0100
0000
,  // measure 34
0010
0000
0001
0000
,  // measure 35
1000
0000
0000
0000
,  // measure 36
0001
0000
0000
0000
,  // measure 37
0001
0000
0010
0000
,  // measure 38
0100
0000
1000
0000
,  // measure 39
0001
0000
0000
0100
,  // measure 40
0100
0000
0000
0010
,  // measure 41
0010
0000
0000
1000
,  // measure 42
1000
0000
0000
0010
,  // measure 43
0100
0000
0000
0000
,  // measure 44
0000
0001
0000
0000
,  // measure 45
0000
1000
0000
0000
;

//---------------dance-single - ----------------
#NOTES:
     dance-single:
     :
     Easy:
     2:
     0.147,0.177,0.080,0.130,0.000: // measure 1
0000
0000
0000
0000
,  // measure 2
0000
0000
0000
0000
,  // measure 3
0000
0000
0000
0000
,  // measure 4
0000
0000
0000
0000
,  // measure 5
1000
0000
1000
0000
,  // measure 6
0100
0000
0100
0000
,  // measure 7
0010
0000
0010
0000
,  // measure 8
0001
0000
0001
0000
,  // measure 9
2000
0000
3100
0000
,  // measure 10
0002
0000
0013
0000
,  // measure 11
0200
0000
0301
0000
,  // measure 12
0020
0000
1030
0000
,  // measure 13
1001
0000
0000
0000
,  // measure 14
1000
0001
1000
0000
,  // measure 15
0010
0000
0100
0000
,  // measure 16
0000
0001
0001
0000
,  // measure 17
0002
0000
0103
0000
,  // measure 18
0020
0000
1030
0000
,  // measure 19
2000
0000
3010
0000
,  // measure 20
0200
0000
0301
0000
,  // measure 21
0110
0000
0000
0000
,  // measure 22
0010
0100
0010
0000
,  // measure 23
1000
0000
0001
0000
,  // measure 24
0000
1000
1000
0000
,  // measure 25
1000
0000
0100
0000
,  // measure 26
0100
0000
1000
0000
,  // measure 27
0002
0000
0013
0000
,  // measure 28
0002
0000
1003
0000
,  // measure 29
0001
0000
0010
0000
,  // measure 30
0010
0000
0001
0000
,  // measure 31
1001
0000
0000
1000
,  // measure 32
1001
0000
0000
0000
,  // measure 33
1000
0100
0000
1000
,  // measure 34
0001
0010
0000
0001
,  // measure 35
1000
0000
0001
0000
,  // measure 36
0200
0000
0310
0000
,  // measure 37
0100
0001
0000
0100
,  // measure 38
0010
1000
0000
0010
,  // measure 39
0110
0000
0000
1000
,  // measure 40
1001
0000
0000
0001
,  // measure 41
1001
0000
0000
0100
,  // measure 42
0110
0000
0000
0001
,  // measure 43
2000
0000
0000
0000
,  // measure 44
0000
3002
0000
0000
,  // measure 45
0000
1003
0000
0000
;

//---------------dance-single - ----------------
#NOTES:
     dance-single:
     :
     Medium:
     4:
     0.226,0.243,0.260,0.140,0.000: // measure 1
0000
0000
0000
0000
,  // measure 2
0000
0000
0000
0000
,  // measure 3
0000
0000
0000
0000
,  // measure 4
0000
0000
0000
0000
,  // measure 5
1000
0100
0010
0000
,  // measure 6
0001
0010
0100
0000
,  // measure 7
1000
0001
1000
0000
,  // measure 8
0110
0000
1001
0000
,  // measure 9
0002
0010
0013
0000
,  // measure 10
1000
1100
0011
0000
,  // measure 11
2000
0100
3100
0000
,  // measure 12
0001
1010
0101
0000
,  // measure 13
1001
1001
0000
1000
,  // measure 14
0001
0000
0000
0010
0000
0000
0100
0000
,  // measure 15
0010
0000
0000
0002
0000
0000
0003
0000
,  // measure 16
0100
0010
0100
0010
,  // measure 17
0200
0001
0301
0000
,  // measure 18
0100
0011
0101
0000
,  // measure 19
0020
1000
0130
0000
,  // measure 20
0010
1010
1100
0000
,  // measure 21
0110
0110
0000
0100
,  // measure 22
0010
0000
0000
1000
0000
0000
0001
0000
,  // measure 23
1000
0000
0000
0020
0000
0000
0030
0000
,  // measure 24
1000
0001
1000
0001
,  // measure 25
2000
0100
3010
0000
,  // measure 26
0002
0010
0103
0000
,  // measure 27
1010
0000
1001
0000
,  // measure 28
0101
0000
1001
0000
,  // measure 29
0020
0100
1030
0000
,  // measure 30
0200
0010
0301
0000
,  // measure 31
0110
0000
0000
1001
,  // measure 32
1001
0000
0000
0110
,  // measure 33
0001
0010
1000
0010
,  // measure 34
0001
0100
1000
0100
,  // measure 35
0002
0000
1000
1003
,  // measure 36
0200
0000
0010
0310
,  // measure 37
1000
0100
0001
0100
,  // measure 38
1000
0010
0001
0010
,  // measure 39
1000
0000
0001
0000
0000
0001
0000
0011
,  // measure 40
0000
0000
1000
0000
0000
1000
0000
1100
,  // measure 41
0000
0000
0010
0000
0000
0010
0000
0110
,  // measure 42
0000
0100
0000
0100
,  // measure 43
1001
0000
0200
0000
,  // measure 44
0000
0310
0000
2000
,  // measure 45
0000
3001
0000
0000
;

//---------------dance-single - ----------------
#NOTES:
     dance-single:
     :
     Hard:
     6:
     0.344,0.356,0.320,0.290,0.000: // measure 1
0000
0000
0000
0000
,  // measure 2
0000
0000
0000
0000
,  // measure 3
0000
0000
0000
0000
,  // measure 4
0000
0000
0000
0000
,  // measure 5
1000
0000
0001
0000
0100
0001
1000
0000
,  // measure 6
0001
0000
0010
0000
0100
1000
0100
0000
,  // measure 7
1000
1010
0001
1001
,  // measure 8
0110
0000
0110
0000
1000
0100
0010
0100
,  // measure 9
1000
0000
0001
0010
0002
0000
1003
0000
,  // measure 10
1000
0000
1000
0100
0000
0100
0010
0000
,  // measure 11
0010
0000
0001
0100
0001
0000
0010
0000
,  // measure 12
0001
0000
1000
0001
0000
1010
0000
1001
,  // measure 13
0000
0000
0101
0000
1000
0100
0010
0000
,  // measure 14
1001
0000
0100
0010
0000
0000
1100
0000
,  // measure 15
0011
0000
0000
0220
0000
0000
0330
0000
,  // measure 16
0001
1000
0100
0000
0100
1000
0001
0000
,  // measure 17
2000
0000
3010
0100
0020
0000
0130
0000
,  // measure 18
0001
0000
1000
0002
0000
1003
0010
1000
,  // measure 19
0100
0000
1001
0000
0010
1000
0010
0000
,  // measure 20
1000
0100
1000
0001
0000
1100
0000
0110
,  // measure 21
0000
0000
0011
0000
1000
0001
1000
0000
,  // measure 22
0110
0000
0001
1000
0000
0000
0101
0000
,  // measure 23
1010
0000
0000
2002
0000
0000
3003
0000
,  // measure 24
0100
0000
0001
0000
1000
0010
0100
0001
,  // measure 25
2000
0000
3100
0000
0100
1000
0001
0000
,  // measure 26
0002
0000
0013
0000
0010
0001
0100
0000
,  // measure 27
0100
1001
0010
1001
,  // measure 28
0200
0000
0010
0310
,  // measure 29
0020
0000
1030
0000
0100
0010
0001
0000
,  // measure 30
0200
0000
0301
0000
0010
0100
1000
0000
,  // measure 31
0220
0000
0000
0330
0000
1000
0001
2000
,  // measure 32
0000
3010
0100
1001
,  // measure 33
0002
2003
3020
0230
,  // measure 34
0301
0010
0001
0000
1000
0010
1000
0000
,  // measure 35
0001
0010
1100
0000
,  // measure 36
1000
0010
0101
0000
,  // measure 37
2000
0000
3001
0010
0200
0000
1300
0000
,  // measure 38
0002
0000
1003
0100
0020
0000
0031
0000
,  // measure 39
1001
0000
1100
0000
0000
0001
0010
0001
,  // measure 40
0000
0000
0011
0000
0000
1000
0100
0010
,  // measure 41
0000
0000
0101
0000
0000
0001
0010
0100
,  // measure 42
0000
1010
0110
1001
,  // measure 43
0200
0000
0310
1000
0001
1000
0020
0000
,  // measure 44
0000
0230
0000
0302
,  // measure 45
1000
2000
3003
0000
;

//---------------dance-single - ----------------
#NOTES:
     dance-single:
     :
     Challenge:
     9:
     0.552,0.512,0.620,0.290,0.140: // measure 1
0000
0000
0000
0000
,  // measure 2
0000
0000
0000
0000
,  // measure 3
0000
0000
0000
0000
,  // measure 4
0000
0000
0000
0000
,  // measure 5
1001
0000
0000
0100
0001
0000
0010
0000
0001
0000
0100
0000
0010
0000
1000
0000
,  // measure 6
1100
0000
0000
0001
1000
0000
0100
0000
0001
0000
0100
0000
1000
0000
0001
0000
,  // measure 7
0101
0000
0000
1000
0100
0000
1000
0000
0010
0000
1000
0000
0011
0000
2020
0000
,  // measure 8
0000
3030
0001
1000
0001
0000
0010
0000
0001
0000
0100
0000
0010
0000
1000
0000
,  // measure 9
0110
0000
0001
1000
1100
0000
0010
0100
,  // measure 10
0001
0010
1000
0010
0001
1000
0101
0001
,  // measure 11
1010
0000
1000
0001
0011
0000
1000
0100
,  // measure 12
0001
0000
0010
0000
1000
0000
0001
1000
0001
0000
1000
0000
0100
0000
0010
0000
,  // measure 13
1001
0000
1000
0000
1100
0000
0000
0010
0001
0000
0001
0000
1001
0000
0000
0000
,  // measure 14
0002
0000
0010
0000
1003
0000
0010
0100
0010
0000
2000
0000
0100
0000
3001
0000
,  // measure 15
1001
0000
1100
1010
0000
0101
0011
0000
,  // measure 16
1000
0000
0100
0000
0010
0000
0001
0000
1000
0100
1000
0000
0010
0000
0100
0000
,  // measure 17
1001
0000
1000
0100
1100
0000
0001
0010
,  // measure 18
0011
1000
0100
0001
0100
1000
0001
1000
,  // measure 19
0011
0000
1000
0001
1100
0000
0001
0010
,  // measure 20
0001
0000
1000
0100
1000
0000
0001
0000
1000
0000
0101
0000
0001
0000
1010
0000
,  // measure 21
2000
0000
3001
1100
0011
0000
1000
0001
,  // measure 22
0200
0000
0010
0000
0301
0000
0010
0100
0020
0000
0100
0000
1030
0000
0000
0000
,  // measure 23
1000
0000
0101
0011
0000
1100
1010
0000
,  // measure 24
0001
0000
0100
0010
0000
0100
0010
0000
1000
0100
1000
0100
0010
0001
0010
0001
,  // measure 25
2000
0000
3001
0010
0012
0000
1003
0100
,  // measure 26
1000
0010
1000
0001
0100
0001
0011
0000
,  // measure 27
2200
0000
3300
0011
0011
1001
0000
0110
,  // measure 28
0000
0001
0010
1000
0010
0001
1000
0001
,  // measure 29
1010
0000
0000
0001
0010
0000
0001
0000
2000
0000
0000
3100
1000
0000
0001
0000
,  // measure 30
1000
0100
0001
1000
0010
0001
0000
1002
,  // measure 31
0000
0000
0000
1003
0100
0000
0010
0000
0001
0000
1100
0000
1100
0000
1001
0000
,  // measure 32
0000
0001
0010
0000
0100
0000
1000
0000
0001
0010
0001
0000
1000
0100
1000
0000
,  // measure 33
0012
0000
1003
0100
1100
0000
0010
0100
,  // measure 34
0001
0100
1000
0010
0001
0100
1000
0010
,  // measure 35
1001
0000
0100
0010
0110
0000
0001
1000
,  // measure 36
0001
0000
0010
0000
0100
0000
1000
0001
1000
0000
0010
0000
0100
0000
0001
0000
,  // measure 37
2100
0000
0000
3001
0100
0000
0010
0000
0102
0000
0000
1003
0100
0000
0010
0000
,  // measure 38
0100
1000
0001
0010
0001
1000
0000
0120
,  // measure 39
0000
0000
0000
1030
0100
0000
0010
0000
0001
0000
0011
0000
0011
0000
1001
0000
,  // measure 40
0000
0000
0001
1000
0001
0000
0100
0000
0010
0000
1010
0000
1010
0000
0110
0000
,  // measure 41
0000
0000
0010
0100
0010
0000
0100
0000
0001
0000
0101
0000
0101
0000
0110
0000
,  // measure 42
0000
1000
0100
0010
0001
1001
1000
1001
,  // measure 43
1002
0000
0000
0000
0203
0000
0020
0300
2000
0030
0002
3000
2000
0003
0000
0000
,  // measure 44
3020
0000
0230
0000
0002
0300
2000
0003
,  // measure 45
0020
3000
0200
0000
0330
0000
0000
0000
;
