#TITLE:ドキドキ妄想空回りシンドローム;
#SUBTITLE:(ドキ・カラ);
#ARTIST:秋葉レイ;
#TITLETRANSLIT:Dokidoki Mousou Sora Mawari Syndrome;
#SUBTITLETRANSLIT:(Doki Kara);
#ARTISTTRANSLIT:Akiba Rei;
#GENRE:;
#CREDIT:;
#MENUCOLOR:;
#NEWMETERSYSTEM:NO;
#BANNER:Dokidoki Mousou Sora Mawari Syndrome-bn.png;
#BACKGROUND:Dokidoki Mousou Sora Mawari Syndrome-bg.png;
#LYRICSPATH:;
#CDTITLE:DJ OMiY-cdtitle.png;
#MUSIC:Dokidoki Mousou Sora Mawari Syndrome (Doki Kara).mp3;
#OFFSET:-0.620;
#SAMPLESTART:68.160;
#SAMPLELENGTH:12.520;
#SELECTABLE:YES;
#LISTSORT:;
#BPMS:0.000=155.000;
#STOPS:;
#BGCHANGES:;
#ATTACKS:;

//---------------dance-single - ----------------
#NOTES:
     dance-single:
     :
     Easy:
     4:
     0.275,0.312,0.035,0.112,0.000:
0000
0000
0000
0000
,
0001
0001
0010
0000
,
1000
1000
0100
0000
,
0010
0100
0010
0000
,
0002
0100
0100
1003
,
1000
0100
0010
0000
,
0001
0010
0100
0000
,
1000
0001
1000
0000
,
2000
0100
0100
3010
,
0001
0100
1000
0100
,
0001
0100
1000
0100
,
0001
0000
0001
0000
,
0100
0000
0100
0000
,
1000
0000
0100
0000
,
0001
0010
0100
1000
,
0001
0000
0001
0000
,
0100
0000
0010
0000
,
1000
0000
0001
0000
,
0100
0100
0100
0100
,
0010
0010
1001
0000
,
0100
0000
1000
0000
,
0100
0010
0100
0001
,
0100
0000
0001
0000
,
0010
0010
0001
1001
,
1000
1000
0100
0000
,
0010
0100
0010
0001
,
1000
0000
0010
0010
,
1000
1000
1001
0000
,
0200
0000
0000
0000
,
0320
0000
1000
0000
,
2030
0000
0000
0000
,
3001
0010
0100
1000
,
0002
0000
0000
0000
,
0203
0000
0010
0000
,
0320
0000
0000
0000
,
1030
0100
0010
0000
,
0001
0000
0100
0000
,
0010
1000
0001
0000
,
0100
0000
0001
0000
,
1000
0100
0010
0000
,
0002
0000
2003
0000
,
3002
0000
1003
1000
,
1000
0100
0010
0001
,
0000
0100
0010
0000
,
0010
0100
0001
0100
,
0010
0000
1000
0000
,
0100
1000
0001
1000
,
0100
0000
1000
0000
,
0010
0100
0001
0100
,
0010
0000
1000
0000
,
0001
0010
0100
0010
,
0001
0000
0010
0000
,
0010
0100
0010
0001
,
0010
0000
0001
0000
,
0100
0010
1000
0001
,
0100
0000
0010
0000
,
1000
0100
0001
0100
,
1000
0000
0100
0000
,
1000
0010
0100
0001
,
1000
0000
0010
0010
,
0110
0000
0001
0000
,
0100
0010
1000
0000
,
0100
0010
0100
0000
,
0002
0010
0100
1003
,
0100
0010
0100
0000
,
0010
1000
0001
0000
,
0100
0001
0010
0000
,
0010
0100
0010
0000
,
1000
0001
1000
0000
,
0010
0100
0010
0000
,
0001
0010
0100
1000
,
0000
1000
1000
0000
0001
0001
0000
0200
,
0000
0000
0000
0300
0000
0000
0000
0000
;

//---------------dance-single - Copied from----------------
#NOTES:
     dance-single:
     Copied from:
     Beginner:
     1:
     0.127,0.217,0.035,0.155,0.000:
0000
0000
0000
0000
,
0010
0000
0000
0000
,
0010
0000
0000
0000
,
0010
0000
0000
0000
,
2000
0000
3000
0000
,
0001
0000
0000
0000
,
0001
0000
0000
0000
,
0100
0000
0000
0000
,
0020
0000
0030
0000
,
2000
0000
3000
0000
,
0002
0000
0003
0000
,
0100
0000
0000
0100
,
0100
0000
0000
0001
,
0001
0000
1000
0000
,
1000
0000
0000
0000
,
0100
0000
0000
0010
,
0010
0000
0000
0100
,
0100
0000
1000
0000
,
2000
0000
0000
0000
,
0000
0000
3000
0000
,
0100
0000
0100
0000
,
0100
0000
0000
0000
,
0001
0000
0001
0000
,
0010
0000
0000
0000
,
1000
0000
1000
0000
,
1000
0000
0000
0000
,
0001
0000
0001
0000
,
0001
0000
0000
0000
,
0020
0000
0000
0000
,
0000
0000
0030
0000
,
0200
0000
0000
0000
,
0000
0000
0300
0000
,
2000
0000
0000
0000
,
0000
0000
3000
0000
,
0002
0000
0000
0000
,
0000
0000
0003
0000
,
0010
0000
0000
0000
,
0001
0000
0000
0000
,
1000
0000
0000
0000
,
0100
0000
0000
0000
,
1001
0000
1001
0000
,
1001
0000
0000
0000
,
0020
0000
0000
0000
,
0030
0000
0000
0100
,
0100
0000
0100
0000
,
0001
0000
0000
0000
,
0010
0000
0010
0000
,
1000
0000
0000
0000
,
0001
0000
1000
0000
,
0001
0000
0000
0000
,
0200
0000
0000
0000
,
0000
0000
0300
0000
,
0100
0000
1000
0000
,
1000
0000
0000
0000
,
0001
0000
0010
0000
,
0010
0000
0000
0000
,
0001
0000
1000
0000
,
0001
0000
0000
0000
,
0020
0000
0000
0000
,
0030
0000
0010
0010
,
0020
0000
0000
0000
,
0000
0000
0030
0000
,
0000
1000
0000
0000
,
0000
0001
0000
0000
,
0000
0100
0000
0000
,
0000
0010
0000
0000
,
0000
1000
0000
0000
,
0002
0000
0003
0000
,
2000
0000
3000
0000
,
0002
0000
0003
0000
,
0220
0000
0000
0000
,
0000
0000
0000
0000
0000
0000
0000
0330
;

//---------------dance-single - Copied from----------------
#NOTES:
     dance-single:
     Copied from:
     Medium:
     6:
     0.473,0.437,0.129,0.276,0.009:
0000
0000
0000
0000
,
0010
0000
0100
0001
0100
0000
0000
0001
,
0000
1000
0100
1000
0100
0000
0000
0010
,
0000
0100
0010
0100
0010
0000
0000
1000
,
0000
0001
0000
0100
0001
0000
1000
0000
,
0010
0000
0100
0001
0100
0001
0000
1000
,
0000
0010
1000
0010
1000
0000
0000
0010
,
0000
0100
0001
0100
0001
0000
0000
1000
,
0000
0001
0000
0100
0001
0000
1000
0000
,
0020
2030
3200
2300
,
3002
0023
0230
2300
,
3001
0100
0100
0010
,
1000
0000
0001
0000
0001
0000
0100
0010
,
0100
0001
1000
0100
,
1001
0110
1001
0110
,
0001
0000
0100
0010
0100
0000
0010
0000
,
1000
0000
0100
0010
0100
0000
0010
0000
,
0002
0000
0000
0203
0000
0000
0320
0000
,
1030
1000
1000
1000
,
0100
0010
0100
0010
0001
0000
1000
0100
,
1000
0000
1000
0100
1000
0000
0001
0100
,
0001
0000
0002
0000
0103
0000
0010
0100
,
0010
0000
1000
0100
1000
0000
1000
0100
,
1000
0000
0001
0000
0100
0000
0001
0010
,
0100
0000
0001
0010
0100
0000
0010
0100
,
1000
0000
0020
0000
0130
0000
1000
0001
,
1000
0000
0001
1000
0001
0000
0100
0010
,
0100
0010
0000
0100
0010
0000
0010
0000
,
2000
0100
0010
0001
,
0010
0100
0010
0001
,
3020
0100
1000
0100
,
1030
0100
0010
0001
,
0002
0010
0100
1000
,
0100
0010
0100
1000
,
0203
0001
0010
0301
,
0001
0000
0010
0000
0100
0000
1000
0001
,
0100
0000
0010
0100
0000
0100
0010
0000
,
1000
0000
0001
0010
0000
0100
1000
0000
,
0001
0000
1000
0010
0000
0010
1000
0000
,
0010
0000
0100
0001
0000
1000
0010
0000
,
1001
0000
0110
0000
,
1001
0000
0000
0000
0000
0000
1000
0000
0100
0000
0010
0000
,
0002
0023
0230
2300
,
3000
0001
0000
0100
0001
0000
1001
0000
,
1000
0100
1000
0010
0100
0000
0010
0200
,
0000
0000
0001
0000
0301
0000
0100
0001
,
0000
0001
0100
0010
1000
0000
0100
0020
,
0000
0001
0000
0031
0100
0000
0100
0000
,
0010
0100
0001
0100
0010
0000
0010
2000
,
0000
0000
0001
0000
3001
0000
0001
0100
,
0000
0000
1000
0100
0000
0000
0001
0010
,
0000
0000
1000
0010
0000
0000
1000
0001
,
0000
0001
0010
0100
1000
0000
0010
0200
,
0000
0000
0010
0000
0301
0000
0100
0010
,
0000
0010
1000
0001
0010
0000
0001
2000
,
0000
0001
0000
3001
1000
0000
1000
0000
,
0001
0010
0001
0100
0010
0000
1000
0020
,
0000
0000
1000
0000
1030
0000
0001
0100
,
0000
0100
0010
1000
0001
0000
1000
0020
,
0000
0100
0000
0130
0001
0000
1001
0000
,
1100
0000
0010
0000
0100
0010
0000
0010
,
0001
0000
0100
0020
0000
0000
0130
0000
,
0010
0000
1000
0000
0010
1000
0000
1000
,
0000
1001
0000
1000
0001
0000
0001
0000
,
0100
0000
0001
0000
0010
0100
0000
1000
,
0000
0001
0010
0002
0000
0000
0103
0000
,
0001
0000
1000
0000
0001
1000
0000
1100
,
0000
1000
0100
0000
0010
0000
0000
1100
,
0000
1000
0100
0000
0010
0000
0000
1100
,
0000
1000
0100
0000
0010
0000
0001
0000
,
1000
0001
1000
0001
1000
0001
1000
0001
,
0000
1000
0010
0000
0001
0100
0000
2002
,
0000
0000
0000
3003
0000
0000
0000
0000
;

//---------------dance-single - Copied from ----------------
#NOTES:
     dance-single:
     Copied from:
     Hard:
     8:
     0.614,0.562,0.336,0.362,0.035: // measure 1
0000
0000
0000
0000
,  // measure 2
0010
0100
0001
1000
0100
0010
0000
0002
,  // measure 3
0000
0103
0010
1000
0100
0001
0000
2000
,  // measure 4
0000
3100
0010
0100
0010
0001
1000
0001
,  // measure 5
0000
0001
0100
0010
1000
0001
0100
0001
,  // measure 6
0000
1000
0100
0010
0001
0010
0000
0002
,  // measure 7
0000
0103
0010
1000
0001
0100
0000
0020
,  // measure 8
0000
1030
0100
0010
0100
0010
0001
0100
,  // measure 9
0000
0100
0010
1000
0001
0100
0001
1000
,  // measure 10
0100
0010
0001
0010
0100
1000
0100
0010
,  // measure 11
0001
0010
0100
1000
0100
0010
0002
0000
,  // measure 12
0103
0010
1000
2000
,  // measure 13
3100
0000
0010
0000
0001
0000
0100
0001
,  // measure 14
0100
0010
1000
0001
,  // measure 15
0101
0110
1010
1002
,  // measure 16
1003
0100
0010
0200
,  // measure 17
1300
0000
0001
0000
0100
0000
0001
0100
,  // measure 18
0020
0000
0000
2030
0000
0000
3002
0000
,  // measure 19
0103
0001
0100
0001
1000
0010
1000
0010
,  // measure 20
0100
0010
1000
0100
1001
0000
0001
1000
,  // measure 21
0010
0000
0001
1000
0010
0000
0001
0100
,  // measure 22
0010
0000
0110
0000
1000
0100
0001
0100
,  // measure 23
1000
0000
0001
0100
1000
0000
1000
0010
,  // measure 24
0000
1001
0000
0100
0010
0000
0010
1000
,  // measure 25
0001
0000
0010
1000
0001
0000
0100
0001
,  // measure 26
0010
0000
0100
0000
1000
0100
0010
0100
,  // measure 27
0001
0000
0100
1000
0010
0000
0100
0001
,  // measure 28
0000
1001
0000
0010
0100
0000
1001
0000
,  // measure 29
0002
0000
0200
0003
,  // measure 30
0020
0300
0200
0030
,  // measure 31
0002
0300
2000
0003
,  // measure 32
3200
0010
0320
0001
,  // measure 33
0032
0000
0200
0003
,  // measure 34
2000
0300
0200
3000
,  // measure 35
0020
0300
2000
0030
,  // measure 36
3001
0000
1001
0000
1001
0000
1000
0100
,  // measure 37
0010
0001
0100
0010
0000
0100
0010
1000
,  // measure 38
0001
0010
0100
1000
0000
1000
0100
0100
,  // measure 39
0001
0100
1000
0010
0000
0100
0001
0100
,  // measure 40
0010
1000
0001
0100
0000
0001
0010
0100
,  // measure 41
1000
0000
0100
0000
0010
0000
0001
0000
0010
0000
0100
0000
,  // measure 42
1000
0000
0100
0000
0010
0000
0011
0000
0101
0000
1001
0000
,  // measure 43
1000
0100
1000
0010
0100
0001
0010
0001
,  // measure 44
0000
1001
0000
1100
1001
0000
0110
0000
,  // measure 45
0001
0100
0001
1000
0100
0010
0001
0200
,  // measure 46
0010
0000
0001
0000
0310
0010
1000
0001
,  // measure 47
1000
0100
0010
1000
0010
0001
0100
0101
,  // measure 48
0000
0001
0010
0100
1100
0000
1001
0000
,  // measure 49
0100
0001
0100
1000
0010
0100
0001
2000
,  // measure 50
0100
0000
0001
0000
3100
1000
0001
0200
,  // measure 51
0000
0310
0100
0002
0000
0013
0001
2000
,  // measure 52
0000
3010
0100
0020
0000
1030
0100
0010
,  // measure 53
0001
0100
1000
0100
0010
0100
0001
0020
,  // measure 54
0001
0000
0001
0000
0130
0010
0001
0010
,  // measure 55
0100
1000
0001
0100
0001
1000
0001
1010
,  // measure 56
0000
1000
0100
0010
0011
0000
1001
0000
,  // measure 57
1000
0001
0100
0010
0100
0001
0010
0002
,  // measure 58
0100
0000
1000
0000
0013
0001
1000
0100
,  // measure 59
0001
0100
1000
0010
0100
0001
0100
0110
,  // measure 60
0000
0101
0000
1100
1001
0000
1001
0000
,  // measure 61
0010
0100
0010
0100
0001
0100
1000
0200
,  // measure 62
0000
0310
1000
0100
0010
0001
1000
0002
,  // measure 63
0000
0013
0001
0100
0001
0010
1000
0020
,  // measure 64
0000
0032
0000
1003
0110
0000
1001
0000
,  // measure 65
0100
1000
0010
0100
0001
0100
0001
2000
,  // measure 66
0000
3100
0010
0100
1000
0010
0100
0002
,  // measure 67
0000
0103
1000
0100
0010
0100
0001
1001
,  // measure 68
0000
1000
0100
0010
0001
0010
0100
1001
,  // measure 69
0000
1000
0100
0010
0001
0010
0100
1001
,  // measure 70
0000
1000
0100
0010
0001
0010
0200
0000
,  // measure 71
1300
0100
1000
0010
0100
0001
0010
0001
,  // measure 72
0000
1100
0011
0000
0101
1001
0000
0220
,  // measure 73
0000
0000
0000
0330
0000
0000
0000
0000
;
