#TITLE:Computer City;
#ARTIST:Perfume;
#CREDIT:A. Michaelangelo;
#BANNER:banner.png;
#BACKGROUND:background.png;
#MUSIC:music.ogg;
#OFFSET:-0.490;
#SAMPLESTART:13.700;
#SAMPLELENGTH:15.000;
#BPMS:0.000=131.780;
#NOTES:dance-single:A. Michaelangelo:Beginner:1::
0000
0000
0000
0000
,
0000
0000
0000
0000
,
0000
0000
0000
0000
,
0000
0000
0000
0000
,
0000
0000
0000
0000
,
0000
0000
0000
0000
,
0000
0000
0000
0000
,
0000
0000
0000
0000
,
1000
0000
0000
0000
,
0000
0000
0000
0000
,
0001
0000
0000
0000
,
0000
0000
0000
0000
,
1000
0000
0000
0000
,
0000
0000
0000
0000
,
0010
0000
0000
0000
,
0000
0000
0000
0000
,
1000
0000
0000
0000
,
0000
0000
0000
0000
,
0000
0000
0000
0000
,
0000
0000
0000
0000
,
0001
0000
0000
0000
,
0000
0000
0000
0000
,
0000
0000
0000
0000
,
0000
0000
0000
0000
,
0100
0000
0000
0000
,
0000
0000
0000
0000
,
0010
0000
0000
0000
,
0000
0000
0000
0000
,
0100
0000
0000
0000
,
0000
0000
0000
0000
,
0001
0000
0000
0000
,
0000
0000
0000
0000
,
0010
0000
0000
0000
,
0000
0000
0000
0000
,
0100
0000
0000
0000
,
0000
0000
0000
0000
,
0010
0000
0000
0000
,
0000
0000
0000
0000
,
1000
0000
0000
0000
,
0000
0000
0000
0000
,
1000
0000
0000
0000
,
0000
0000
0000
0000
,
0001
0000
0000
0000
,
0000
0000
0000
0000
,
1000
0000
0000
0000
,
0000
0000
0000
0000
,
0001
0000
0000
0000
,
0000
0000
0000
0000
,
1000
0000
0000
0000
,
0000
0000
0000
0000
,
0001
0000
0000
0000
,
0000
0000
0000
0000
,
1000
0000
0000
0000
,
0000
0000
0000
0000
,
0001
0000
0000
0000
,
0000
0000
0000
0000
,
0100
0000
0000
0000
,
0000
0000
0000
0000
,
0100
0000
0000
0000
,
0000
0000
0000
0000
,
0100
0000
0000
0000
,
0000
0000
0000
0000
,
0010
0000
0000
0000
,
0000
0000
0000
0000
0000
0000
0000
0010
;
#NOTES:dance-single:A. Michaelangelo:Easy:2::
0000
0000
0000
0000
,
0000
0000
0000
0000
,
0000
0000
0000
0000
,
0000
0000
0000
0000
,
0000
0000
0000
0000
,
0000
0000
0000
0000
,
0000
0000
0000
0000
,
0000
0000
0001
0010
,
1000
0000
0000
0000
,
0000
0000
1000
0100
,
0001
0000
0000
0000
,
0000
0000
0001
0100
,
1000
0000
0000
0000
,
0000
0000
1000
0010
,
0001
0000
0000
0000
,
0000
0000
0000
0000
,
1000
0001
1000
0001
,
1000
0000
0000
0000
,
0001
1000
0001
1000
,
0001
0000
0000
0000
,
1000
0001
1000
0001
,
1000
0000
0000
0000
,
0001
0100
1000
0100
,
0001
0000
0000
0000
,
0002
0000
0000
0003
,
0000
0000
0000
0000
,
2000
0000
0000
3000
,
0000
0000
0000
0000
,
0020
0000
0000
0030
,
0000
0000
0000
0000
,
0200
0000
0000
0300
,
0000
0000
0000
0001
,
0002
0000
0000
0003
,
0000
0000
0000
1000
,
2000
0000
0000
3000
,
0000
0000
0000
0010
,
0020
0000
0000
0030
,
0000
0000
0000
0100
,
0200
0000
0000
0300
,
0000
0000
0000
0000
,
0001
0001
0100
0000
,
1000
1000
0010
0000
,
0100
0100
0001
0000
,
0010
0010
1000
0000
,
1000
0100
0010
0000
,
0100
0010
0001
0000
,
0001
0010
0200
0000
,
0300
0000
0000
0000
,
2001
0000
0000
3000
,
0000
0000
0000
0000
,
1002
0000
0000
0003
,
0000
0000
0000
0000
,
2001
0000
0000
3000
,
0000
0000
0000
0000
,
1002
0000
0000
0003
,
0000
0000
0000
0000
,
1000
0000
0100
0000
,
0010
0000
0001
0000
,
1000
0000
0100
0000
,
0010
0000
0001
0000
,
0001
0010
0100
1000
,
0000
0000
0000
0000
,
1000
0010
0100
0001
,
0000
0000
0000
0000
0000
0000
0000
1001
;
#NOTES:dance-single:A. Michaelangelo:Medium:4::
0000
0000
0000
0000
,
0000
0000
0000
0000
,
0000
0000
0000
0000
,
0000
0000
0000
0000
,
0000
0000
0000
0000
,
0000
0000
0000
0000
,
0000
0000
0000
0000
,
0000
0000
0000
0000
,
1000
0010
1000
0001
,
0010
0001
1000
0100
,
1000
0001
0100
0001
,
1000
0010
1000
0001
,
0010
0001
1000
0100
,
1000
0001
0100
0001
,
2000
0000
0000
0000
,
3001
0000
0000
0000
,
1000
0100
0010
0001
,
1000
0000
0100
0010
0100
0000
0000
0000
,
0001
0010
0100
1000
,
0001
0010
0100
0000
,
1000
0100
0010
0001
,
1000
0000
0100
0010
0100
0000
0000
0000
,
0001
0010
0100
1000
,
0001
0010
0100
0000
,
1000
0001
1000
0001
,
1000
0001
0000
0000
,
0100
0010
0100
0010
,
0100
0010
0000
0000
,
1000
0001
1000
0001
,
1000
0001
0000
0000
,
0100
0010
0100
0010
,
0100
0010
0100
0000
0000
0000
0000
0000
,
0001
1000
0001
1000
,
0001
1000
0000
0000
,
0010
0100
0010
0100
,
0010
0100
0000
0000
,
0001
1000
0001
1000
,
0001
1000
0000
0000
,
0010
0100
0010
0100
,
0010
0100
0010
0000
0000
0000
0000
0000
,
0002
0000
0103
0000
,
2000
0000
3010
0000
,
0200
0000
0301
0000
,
0020
0000
1030
0000
,
2000
3000
0110
0000
,
0200
0300
0011
0000
,
0020
0030
1100
0000
,
0000
0000
0000
0000
,
0010
1000
0010
0100
,
1000
0100
0010
0001
,
0010
0100
0001
0100
,
0010
1000
0010
0100
,
1000
0100
0010
0001
,
0010
0100
0001
0100
,
0001
0010
0100
1000
,
0000
0000
0000
0000
,
2000
0000
0000
0000
,
0000
3000
1000
0000
,
0002
0000
0000
0000
,
0000
0003
0001
0000
,
0001
0010
0100
1000
,
0001
0010
0100
1000
,
0001
0100
0010
1000
,
0000
0000
0000
0000
0000
0000
0000
1001
;
#NOTES:dance-single:A. Michaelangelo:Hard:6::
0000
0000
0000
0000
,
0000
0000
0000
0000
,
0000
0000
0000
0000
,
0000
0000
0000
0000
,
0000
0000
0000
0000
,
0000
0000
0000
0000
,
0000
0000
0000
0000
,
0000
0000
0000
0000
,
1000
0000
0100
0000
0001
0000
0010
0100
,
1000
0100
0001
0000
,
0001
0000
0100
0000
1000
0000
0100
0010
,
0001
0100
1000
0000
,
1000
0000
0100
0000
0001
0000
0010
0100
,
1000
0100
0001
0000
,
0001
0000
0100
0000
1000
0000
0100
0010
,
0001
0100
1000
0000
,
0001
0001
0010
0010
,
0001
0000
0001
0000
0100
0000
0100
0010
,
1000
1000
0100
0100
,
1000
0000
1000
0000
0010
0000
0010
0100
,
0001
0001
0100
0100
,
0001
0000
0001
0000
0010
0000
0010
0100
,
1000
1000
0010
0010
,
1000
1000
0000
0000
,
0200
0000
0000
0300
1000
0000
0000
0000
0200
0000
0000
0300
0001
0000
0000
0000
,
0200
0000
0000
0300
1000
0000
0000
0000
0200
0000
0000
0300
0001
0000
0000
0000
,
0200
0000
0000
0300
1000
0000
0000
0000
0200
0000
0000
0300
0001
0000
0000
0000
,
0200
0000
0000
0300
1000
0000
0000
0000
0100
0000
0010
0000
0001
0000
0000
0000
,
0200
0000
0000
0300
1000
0000
0000
0000
0200
0000
0000
0300
0001
0000
0000
0000
,
0200
0000
0000
0300
1000
0000
0000
0000
0200
0000
0000
0300
0001
0000
0000
0000
,
0200
0000
0000
0300
1000
0000
0000
0000
0200
0000
0000
0300
0001
0000
0000
0000
,
0200
0000
0000
0300
1000
0000
0100
0000
0001
0000
0000
0000
1000
0000
0100
0000
,
0020
0000
0000
0030
0001
0000
0000
0000
0020
0000
0000
0030
1000
0000
0000
0000
,
0020
0000
0000
0030
0001
0000
0000
0000
0020
0000
0000
0030
1000
0000
0000
0000
,
0020
0000
0000
0030
0001
0000
0000
0000
0020
0000
0000
0030
1000
0000
0000
0000
,
0020
0000
0000
0030
0001
0000
0000
0000
0010
0000
0100
0000
1000
0000
0000
0000
,
0020
0000
0000
0030
0001
0000
0000
0000
0020
0000
0000
0030
1000
0000
0000
0000
,
0020
0000
0000
0030
0001
0000
0000
0000
0020
0000
0000
0030
1000
0000
0000
0000
,
0020
0000
0000
0030
0001
0000
0000
0000
0020
0000
0000
0030
1000
0000
0000
0000
,
0020
0000
0000
0030
0001
0000
0000
0000
0000
0000
0000
0000
0000
0000
0000
0000
,
0001
0010
1000
0100
,
1000
0010
0001
0100
,
0001
0010
1000
0100
,
1000
0010
0001
0100
,
0001
0010
1000
0100
,
1000
0010
0001
0100
,
0001
0010
1000
0100
,
1000
0010
0000
0000
,
0001
0000
0010
0000
1000
0000
0100
0010
,
0001
0010
1000
0000
,
1000
0000
0010
0000
0001
0000
0010
0100
,
1000
0010
0001
0000
,
0001
0000
0010
0000
1000
0000
0100
0010
,
0001
0010
1000
0000
,
1000
0000
0010
0000
0001
0000
0010
0100
,
1000
0010
0001
0000
,
2000
0000
0000
0000
,
0100
0100
3100
0000
,
0002
0000
0000
0000
,
0010
0010
0013
0000
,
1000
0100
0001
0100
,
1000
0001
0100
1000
,
0100
0001
1000
0100
,
0001
0000
0100
0000
1000
0000
0000
2002
,
0000
0000
0000
0000
,
3003
0000
0000
0000
;
