#TITLE:Boku No Taiyou;
#SUBTITLE:;
#ARTIST:AKB48;
#TITLETRANSLIT:;
#SUBTITLETRANSLIT:;
#ARTISTTRANSLIT:;
#CREDIT:;
#BANNER:bn.PNG;
#BACKGROUND:bg.PNG;
#LYRICSPATH:;
#CDTITLE:;
#MUSIC:Boku No Taiyou.ogg;
#OFFSET:-0.249;
#SAMPLESTART:64.340;
#SAMPLELENGTH:16.420;
#SELECTABLE:YES;
#BPMS:0.000=137.450;
#STOPS:;
#BGCHANGES:;

//---------------dance-single - ----------------
#NOTES:
     dance-single:
     :
     Hard:
     7:
     0.513,0.486,0.085,0.351,0.019:
0000
0000
0000
0000
,
2000
0000
3001
0010
0001
0000
0100
0000
,
0020
0000
1030
0100
1000
0000
0010
0000
,
0200
0000
0301
0020
0000
0230
0000
1300
,
0001
0010
0001
0200
0000
0300
0010
1000
,
0001
0000
0010
0001
0000
0100
0010
1000
,
1001
0000
0110
0000
0010
1000
0001
0010
,
0002
0000
1000
0000
0103
0001
0100
0010
,
2000
0000
0100
0000
3010
0200
0000
0301
,
0020
0000
0000
0001
0001
0000
0130
0000
,
0010
0000
0100
0000
1000
0000
0000
0010
0000
0000
1000
0000
0001
0000
0010
0000
,
0001
0100
0010
1000
0100
0010
0000
0001
,
0000
1000
0010
1000
0001
0100
0000
0010
,
0000
1000
0100
0000
0010
0000
0001
1000
,
0001
0100
0001
0100
1000
0100
1000
0100
,
0001
0010
0100
1000
0100
0010
0000
0001
,
0000
0100
0010
1000
0010
0100
0000
0010
,
0000
0100
0001
0000
0011
0000
0010
0200
,
0000
1300
0010
0000
0100
0001
0100
0010
,
1000
0100
0010
0001
0100
0010
0000
2000
,
0000
0000
3001
0010
0001
0000
0011
0000
,
0010
0000
0100
0000
1000
0010
0100
0000
,
0001
0000
0010
0002
0000
0003
1000
0100
,
1000
0100
0010
0002
0000
0000
0013
0000
,
0001
0010
0100
2000
0000
0000
3010
0000
,
0100
0001
0010
0001
0100
0010
1000
0010
,
0000
0110
0000
0100
0002
0000
0013
0100
,
1000
0010
1000
0010
0100
0001
0100
0001
,
0010
0100
1000
0002
0000
0013
0001
0100
,
0010
1000
0100
1000
0001
0010
0001
1000
,
0010
1000
0001
0200
0000
0310
1000
0001
,
0020
0000
0000
0031
0010
0100
0000
1000
,
0010
0000
0100
0000
0001
1000
0000
0010
,
0000
1000
0001
0000
0010
0000
0001
0100
,
0000
0010
1000
0100
1000
0001
0010
0001
,
0100
0000
0010
0000
1000
0001
0000
0010
,
0001
0100
0000
0000
0010
0000
1000
0001
0000
0000
0000
0000
1001
0000
0000
0000
,
1000
0100
1000
0001
0020
0000
0031
0000
,
0100
0010
1000
0010
0200
0000
0301
0000
,
2000
0000
3100
0000
0010
0001
1000
0010
,
1000
0000
0010
0000
0100
0000
0001
0010
,
0001
0000
1000
0200
0000
0000
0310
0000
,
0001
0000
0000
0000
1000
0000
0000
0000
0010
0000
0000
0100
0000
0000
0001
0000
,
0020
0000
0031
0000
0010
0100
1000
0001
,
0000
0010
0001
0100
0010
1000
0100
0001
,
0100
1000
0010
1000
0200
0000
0310
0000
,
0001
0100
0010
1000
0200
0000
0310
0000
,
0001
0000
0010
0200
0000
2300
0000
3002
,
0000
0013
0001
0200
0000
0000
0310
1000
,
0001
0000
0010
0001
0100
0010
1000
0001
,
1001
0000
0110
0000
0010
1000
0001
0010
,
0002
0000
0100
0000
0013
0000
0001
1000
,
0200
0000
0010
0000
0301
0010
0000
0100
,
1000
0020
0100
0000
1000
0000
0100
0030
,
1000
0000
0010
0000
0100
0001
0010
0001
,
0200
0000
0010
0000
0301
1000
0100
0010
,
0002
0000
1000
0000
0103
1000
0010
0100
,
0001
1000
0100
1000
0001
0010
0001
0202
,
0000
0000
0000
0000
,
0000
0000
0000
0000
,
0000
0303
0000
0000
;

//---------------dance-single - ----------------
#NOTES:
     dance-single:
     :
     Beginner:
     1:
     0.085,0.110,0.000,0.000,0.000:
0000
0000
0000
0000
,
1000
0000
0000
0000
,
0001
0000
0000
0000
,
0010
0000
0000
0000
,
0001
0000
0000
0000
,
0100
0000
0000
0000
,
0010
0000
0010
0000
,
0010
0000
0000
0000
,
1000
0000
0000
0000
,
0001
0000
0000
0000
,
0010
0000
0000
0000
,
0001
0000
0000
0000
,
1000
0000
0000
0000
,
0010
0000
0000
0000
,
0100
0000
0000
0000
,
0001
0000
0000
0000
,
0010
0000
0000
0000
,
0100
0000
0000
0000
,
1000
0000
0000
0000
,
0010
0000
0000
0000
,
0100
0000
0000
0000
,
0001
0000
0000
0000
,
0010
0000
0000
0000
,
0100
0000
0000
0000
,
1000
0000
0000
0000
,
0010
0000
0000
0000
,
1000
0000
0000
0000
,
0001
0000
0000
0000
,
0010
0000
0010
0000
,
0010
0000
0000
0000
,
0100
0000
0100
0000
,
0100
0000
0000
0000
,
1000
0000
0000
0000
,
0010
0000
0000
0000
,
1000
0000
0000
0000
,
0001
0000
0000
0000
,
0010
0000
0010
0000
,
0010
0000
0000
0000
,
1000
0000
0000
0000
,
0001
0000
0000
0000
,
0010
0000
0000
0000
,
0001
0000
0000
0000
,
0100
0000
0000
0000
,
0010
0000
0000
0000
,
1000
0000
0000
0000
,
0100
0000
0000
0000
,
1000
0000
0000
0000
,
0001
0000
0000
0000
,
0010
0000
0000
0000
,
0001
0000
0000
0000
,
0100
0000
0100
0000
,
0100
0000
0000
0000
,
0010
0000
0000
0000
,
1000
0000
0000
0000
,
0001
0000
0000
0000
,
0010
0000
0000
0000
,
0001
0000
0000
0000
,
0100
0000
0000
0000
,
0010
0000
0000
0000
;

//---------------dance-single - ----------------
#NOTES:
     dance-single:
     :
     Easy:
     3:
     0.228,0.247,0.000,0.057,0.000:
0000
0000
0000
0000
,
1000
0001
0010
0000
,
0001
0100
0010
0000
,
1000
0100
0010
0001
,
1000
0000
0001
0000
,
0010
0001
0100
0000
,
0010
1000
0001
0100
,
0001
0000
0010
0000
,
0001
0000
0100
0000
,
0010
0000
1000
0000
,
0100
0100
0100
0100
,
1000
0000
0010
0000
,
1000
0000
0001
0000
,
0010
0001
0010
0000
,
0001
0100
0001
0000
,
0100
0000
0010
0000
,
1000
0000
0100
0000
,
0010
0001
0100
0000
,
0010
1000
0100
0000
,
0010
0000
0001
0000
,
1000
0000
0010
0000
,
1000
0000
0100
0000
,
0010
0001
0100
0010
,
1000
0000
0001
0000
,
0010
0000
0001
0000
,
0100
0000
0010
0000
,
1000
0001
1000
0001
,
1000
0000
0010
0000
,
1000
0001
0010
0000
,
0001
0000
0100
0000
,
0010
0100
0001
0000
,
0010
0000
0001
0000
,
0100
0010
1000
0010
,
0100
0000
0001
0000
,
0010
0000
0001
0000
,
1000
0000
0010
0000
,
0100
0001
0100
0000
,
0010
1000
0100
0000
,
0010
0001
1000
0000
,
0010
1000
0001
0100
,
0001
0000
0010
0000
,
0100
1000
0010
1000
,
0100
0000
0010
0001
,
1000
0000
0010
1000
,
0001
0010
0001
0100
,
0010
1000
0100
0000
,
0010
0001
0100
0000
,
0010
1000
0001
0100
,
0001
0000
0010
0000
,
0100
1000
0010
0000
,
0100
0001
1000
0010
,
2000
0000
3001
0010
,
0002
0000
0103
0010
,
0200
0000
0310
1000
,
0020
0000
0130
0001
,
0020
0000
0130
1000
,
0002
0000
0013
0001
,
0100
0010
1000
0100
,
0010
0000
0000
0000
;

//---------------dance-single - ----------------
#NOTES:
     dance-single:
     :
     Medium:
     5:
     0.356,0.329,0.000,0.019,0.000: // measure 1
0000
0000
0000
0000
,  // measure 2
1000
0100
1000
0001
,  // measure 3
0010
0001
0100
0010
,  // measure 4
1000
0000
0010
0100
0000
0001
0000
0010
,  // measure 5
0000
0100
0000
1000
0000
0000
0010
0100
,  // measure 6
0010
0000
0100
0001
0000
0000
0010
0000
,  // measure 7
0001
0000
0100
0010
0000
1000
0000
0100
,  // measure 8
0010
0001
0010
0100
,  // measure 9
1000
0010
0100
0001
,  // measure 10
0100
0010
1000
0001
,  // measure 11
0010
0000
0001
0000
1000
0001
1000
0001
,  // measure 12
1000
0000
0010
0000
1000
0001
0000
0010
,  // measure 13
0000
0000
0001
0000
0100
0010
0000
1000
,  // measure 14
0000
0100
0010
0000
0001
0000
1000
0010
,  // measure 15
0000
1000
0001
0010
,  // measure 16
0001
0000
0100
0000
0010
1000
0000
0100
,  // measure 17
0000
0010
0001
0000
1000
0001
0000
0010
,  // measure 18
0000
0001
0100
0000
0010
0000
1000
0000
,  // measure 19
0100
0010
0001
1000
,  // measure 20
0010
1000
0010
0000
0100
0001
0000
0010
,  // measure 21
0000
0100
1000
0010
,  // measure 22
1000
0000
0001
0000
0010
0001
0000
0100
,  // measure 23
0000
0000
0010
1000
0000
0000
0100
1000
,  // measure 24
0100
0010
0001
1000
,  // measure 25
0020
0000
0030
1000
,  // measure 26
0001
0010
0100
1000
,  // measure 27
0001
0100
0010
1000
0010
0000
0100
0000
,  // measure 28
0001
0010
0001
0000
0010
0000
0100
0000
,  // measure 29
1000
0010
1000
0010
0000
0000
0100
0000
,  // measure 30
0001
0010
0001
0000
0100
0000
0010
0000
,  // measure 31
1000
0100
0010
0001
0000
0000
1000
0000
,  // measure 32
0002
0000
0000
0000
0013
0100
0000
0000
,  // measure 33
1000
0000
0010
0000
1000
0001
0000
0010
,  // measure 34
0000
0001
0010
0000
0100
0000
1000
0000
,  // measure 35
0010
0000
0100
0000
0001
0010
0001
0000
,  // measure 36
1000
0000
0100
1000
0000
0010
0100
0000
,  // measure 37
0001
0010
0100
1000
0000
0000
0001
0000
,  // measure 38
0010
0000
0001
0100
0001
0000
0100
0000
,  // measure 39
0010
0000
1000
0100
1000
0000
0010
0000
,  // measure 40
0100
0000
0001
0000
0010
0000
0100
1000
,  // measure 41
0100
0000
0010
0000
0001
0000
1000
0010
,  // measure 42
1000
0000
0001
0010
0000
0000
0001
0000
,  // measure 43
0010
0000
0100
0000
1000
0000
0010
1000
,  // measure 44
0010
0000
0100
0000
0001
0010
0001
0010
,  // measure 45
0000
0001
0100
0000
0010
0000
1000
0000
,  // measure 46
0001
0000
0010
0001
0010
0000
0001
0000
,  // measure 47
0100
0000
0010
1000
0010
0000
1000
0000
,  // measure 48
0100
0000
0010
0001
0000
0010
0000
0100
,  // measure 49
1000
0000
0010
0100
0000
0000
0001
0010
,  // measure 50
0001
0000
0100
0010
0000
0000
1000
0000
,  // measure 51
0001
0000
0010
0001
0000
0100
0000
0010
,  // measure 52
1000
0100
0001
0100
,  // measure 53
1000
0010
0001
0010
,  // measure 54
1000
0010
0100
0001
,  // measure 55
0010
0000
0100
0000
1000
0000
0010
0100
,  // measure 56
0001
0000
0010
0000
0001
0000
0100
0010
,  // measure 57
1000
0000
0100
0000
0010
0000
0001
1000
,  // measure 58
0010
0000
1000
0001
0000
0010
0001
0100
;
