#TITLE:What about my dreams?;
#SUBTITLE:;
#ARTIST:Kati Wolf;
#TITLETRANSLIT:;
#SUBTITLETRANSLIT:;
#ARTISTTRANSLIT:;
#GENRE:;
#CREDIT:Telperion;
#BANNER:wamd-bn.png;
#BACKGROUND:wamd-bg.png;
#LYRICSPATH:;
#CDTITLE:;
#MUSIC:wamd.ogg;
#OFFSET:-0.421587;
#SAMPLESTART:86.288002;
#SAMPLELENGTH:15.118000;
#SELECTABLE:YES;
#DISPLAYBPM:63.500000:127.000000;
#BPMS:0.000000=126.999992,120.000000=63.499996,152.000000=126.999992;
#STOPS:;
#DELAYS:;
#TIMESIGNATURES:0.000000=4=4
;
#BGCHANGES:;
#KEYSOUNDS:;
#ATTACKS:;

//---------------dance-single - Telperion----------------
#NOTES:
     dance-single:
     Telperion:
     Hard:
     7:
     0.402,0.525,0.241,0.332,0.104,270.000,29.000,40.000,0.000,0.000,0.000,0.000,0.402,0.525,0.241,0.332,0.104,270.000,29.000,40.000,0.000,0.000,0.000,0.000:
0000
0000
0000
0000
,
0000
0000
0000
0000
,
1001
0000
0001
0000
0010
0001
1000
0000
,
0020
0000
0001
0000
1030
0100
0010
0000
,
0011
0000
0001
0000
1000
0010
1000
0000
,
0200
0001
2000
3300
,
1010
0000
1000
0000
0001
1000
0100
0000
,
0020
0000
1000
0000
0031
1000
0001
0100
,
0010
0000
0010
0000
1000
0010
2000
0000
,
0001
0010
0002
3003
,
0110
0010
0000
0100
0000
2000
0000
0001
,
0000
3010
0000
1000
0000
0200
0000
0010
,
0000
1300
0000
0001
0000
0100
0000
0020
,
0030
0000
0110
0010
,
1001
0000
0001
0000
0010
0001
1000
0000
,
0020
0001
0200
0330
,
0101
0000
1000
0000
1100
0000
0010
0100
,
1000
0000
0001
1000
0010
1000
0001
0000
,
0010
0000
0100
0000
0100
0000
0000
0000
1000
0100
1000
0001
1000
0000
0000
0000
,
0000
0000
0001
0100
0001
0100
0000
0000
0100
0000
0000
0000
2010
0000
0000
0000
,
3001
0000
0010
0000
0010
0000
0000
0000
0001
0100
0001
1000
0001
0000
0000
0000
,
1000
0000
0100
1000
0001
1000
0000
0000
0100
0000
0000
0000
0120
0000
0000
0000
,
0031
0000
0001
0010
0100
0000
1020
0000
,
0130
0000
0010
0100
0001
0000
2001
0000
,
3010
0000
0000
1000
0000
0000
0100
0000
0000
0000
0000
0000
0100
0000
1000
0000
,
0010
0100
0001
2100
,
3001
0000
0100
0001
0000
0000
1002
0000
,
0013
0000
0100
1000
0000
0000
1010
0010
,
0100
0000
0000
0001
0000
0000
0010
0000
0000
0000
0000
0000
0010
0000
0100
0000
,
1000
0100
0010
0001
0000
0001
0100
0010
,
2000
0000
3020
0000
,
0230
0000
2300
3000
,
1000
0100
0010
2000
0000
0000
3000
0000
0001
0010
0100
0002
0000
0000
0003
0000
,
0100
0010
0001
2000
0000
0000
3000
0000
0100
1000
0001
0200
0000
0000
0300
0000
,
0010
0010
0100
0100
1000
1000
0100
0001
,
0010
0000
0010
0000
0100
0000
0100
0000
0010
0000
0100
0000
1000
0001
0100
0000
,
0110
0000
0010
0000
1000
0010
0100
0010
1000
0000
1000
0000
0001
0010
0100
1000
,
0001
0000
0001
0000
0100
0001
0010
0001
0200
0000
0000
0000
0020
0000
0330
0000
,
1001
0000
0010
0000
1000
0100
0010
0000
,
0201
0010
1300
0100
,
1001
0000
0010
0000
0001
0100
0010
0000
,
2000
0100
0002
3003
,
0110
0000
1000
0000
0001
0010
0001
0000
,
1200
0010
0301
0100
,
0110
0000
0001
1000
0010
0100
0010
0000
,
1000
0020
0200
0330
,
1001
0001
0000
1000
0000
0020
0000
0001
,
0000
0130
0000
0110
0000
2000
0000
0010
,
0000
3001
0000
1000
0000
0100
0000
0020
,
0030
0000
1100
0100
,
0021
0000
0100
0000
0031
1000
0010
0000
,
1020
0000
0100
0000
1030
0100
0010
0000
,
1001
0000
0001
0000
0010
0001
0010
0100
,
1000
0001
0000
0001
0100
0010
0100
0000
,
2002
0000
0000
0000
,
3003
0000
0000
0000
;

//---------------dance-single - Telperion----------------
#NOTES:
     dance-single:
     Telperion:
     Medium:
     4:
     0.224,0.205,0.116,0.125,0.000,160.000,14.000,15.000,0.000,0.000,0.000,0.000,0.224,0.205,0.116,0.125,0.000,160.000,14.000,15.000,0.000,0.000,0.000,0.000:
0000
0000
0000
0000
,
0000
0000
0000
0000
,
1001
0010
0000
0010
,
0100
0100
0000
0100
,
0001
1000
0000
1000
,
0001
0010
0100
1000
,
0110
0010
0000
0010
,
0100
0100
0000
0100
,
1000
0100
0001
1000
,
0100
0100
0000
0100
,
0010
0001
0000
0001
0000
1000
0000
1000
,
0000
0010
0000
0010
0000
0100
0000
0100
,
0000
0001
0000
0100
0000
0010
0000
1000
,
0000
0000
0001
1000
,
1001
0010
0000
0010
,
0100
0100
0010
0100
,
0001
1000
0000
1000
,
0001
1000
0100
1000
,
0010
0000
0000
0000
,
0100
0010
0000
0000
0010
0000
1001
0000
,
0100
0000
0000
0000
0000
0000
0000
0100
,
0010
0100
0000
0000
0000
0000
0010
0000
,
2001
0000
3000
0010
,
1002
0000
0003
0010
,
2100
0000
0000
0010
3000
0000
0100
0000
,
0010
0001
0100
0010
,
0210
0000
0000
0001
0300
0000
0000
0000
,
0210
0000
0000
1000
0300
0000
0001
0000
,
2000
0000
0000
3020
0000
0000
0000
0000
,
0200
0000
0000
0330
,
0002
0000
0000
0000
,
0023
0000
0000
0000
,
0230
0000
0000
0000
,
2300
0000
0000
3000
,
1000
0010
0100
0010
,
0001
0010
1000
0001
,
0010
0100
0010
1000
,
0010
0001
2000
3000
,
0110
0010
0000
0010
,
0100
0100
0000
0100
,
0001
0010
0001
1000
,
0010
0010
0000
1000
,
0110
0010
0000
0010
,
0100
0100
0000
0100
,
1000
0001
1000
0010
,
0100
0000
0010
0100
,
0001
1000
0000
1000
0000
0010
0000
0010
,
0000
0100
0000
1000
0000
0100
0000
0010
,
0000
1000
0000
0001
0000
0010
0000
0100
,
0000
0000
0010
0001
,
1010
0010
0100
0100
,
0001
1000
0100
0000
,
0011
0001
1000
1000
,
0010
0100
0001
1000
,
0220
0000
0000
0000
,
0330
0000
0000
0000
;

//---------------dance-single - Telperion----------------
#NOTES:
     dance-single:
     Telperion:
     Easy:
     3:
     0.128,0.179,0.042,0.025,0.000,100.000,5.000,3.000,0.000,0.000,0.000,0.000,0.128,0.179,0.042,0.025,0.000,100.000,5.000,3.000,0.000,0.000,0.000,0.000:
0000
0000
0000
0000
,
0000
0000
0000
0000
,
1000
0000
0001
0000
,
0010
0000
0100
0010
,
0001
0000
1000
0000
,
0010
0000
0100
0001
,
0010
0000
0100
0000
,
1000
0000
0100
0010
,
0001
0000
0100
0000
,
0010
0000
0000
0000
,
0110
0000
0000
0000
,
0010
0000
0000
0000
,
1000
0000
0000
0000
,
0001
0000
0000
0000
,
0010
0000
0001
0000
,
0010
0000
0100
1000
,
0010
0000
1000
0000
,
0010
0000
0100
0001
,
0010
0000
0000
0000
,
0010
0000
0000
0000
,
0100
0000
0000
0000
,
0100
0000
0000
0000
,
1000
0000
0000
0000
,
1000
0000
0000
0000
,
0001
0000
0000
0000
,
1000
0000
0000
0010
,
0010
0000
0000
0100
,
0100
0000
0000
0001
,
0001
0000
0000
0000
,
1000
0000
0001
0000
,
0020
0000
0000
0000
,
0030
0000
0000
0000
,
0200
0000
0000
0000
,
0300
0000
0000
0000
,
0010
0001
0010
0001
,
1000
0100
1000
0100
,
0010
0001
1000
0100
,
0010
0001
0200
0300
,
0010
0000
0100
0000
,
0001
0000
0100
0010
,
1000
0000
0100
0000
,
0010
0000
0100
0010
,
0001
0000
1000
0000
,
0001
0000
0100
0010
,
1000
0000
0001
0000
,
1000
0000
0000
0000
,
0110
0000
0010
0000
,
0100
0000
0100
0000
,
0001
0000
1000
0000
,
0110
0000
0000
0000
,
0001
0000
0010
0000
,
0100
0000
1000
0001
,
1000
0000
0010
0000
,
0100
0000
0110
0000
,
1001
0000
0000
0000
;

//---------------dance-single - Blank----------------
#NOTES:
     dance-single:
     Blank:
     Beginner:
     1:
     0.050,0.112,0.025,0.000,0.000,39.000,3.000,0.000,0.000,0.000,0.000,0.000,0.050,0.112,0.025,0.000,0.000,39.000,3.000,0.000,0.000,0.000,0.000,0.000:
0000
0000
0000
0000
,
0000
0000
0000
0000
,
0010
0000
0000
0000
,
0000
0000
0000
0000
,
0100
0000
0000
0000
,
0000
0000
0000
0000
,
1000
0000
0000
0000
,
0000
0000
0000
0000
,
0100
0000
0000
0000
,
0000
0000
0000
0000
,
0001
0000
0000
0000
,
0000
0000
0000
0000
,
0100
0000
0000
0000
,
0000
0000
0000
0000
,
0010
0000
0000
0000
,
0000
0000
0000
0000
,
0100
0000
0000
0000
,
0000
0000
0000
0000
,
1001
0000
0000
0000
,
0000
0000
0000
0000
,
0000
0000
0000
0000
,
0000
0000
0000
0010
,
0010
0000
0000
0010
,
0010
0000
0000
0010
,
0010
0000
0000
0000
,
0000
0000
0000
0100
,
0100
0000
0000
0100
,
0100
0000
0000
0100
,
0100
0000
0000
0000
,
0000
0000
0000
0000
,
0001
0000
0000
0000
,
0000
0000
0000
0000
,
1000
0000
0000
0000
,
0000
0000
0000
0000
,
0100
0000
0000
0000
,
0100
0000
0000
0000
,
0010
0000
0010
0000
,
0010
0010
0010
0000
,
1001
0000
0000
0000
,
0000
0000
0000
0000
,
0001
0000
0000
0000
,
0000
0000
0000
0000
,
0100
0000
0000
0000
,
0000
0000
0000
0000
,
1000
0000
0000
0000
,
0000
0000
0000
0000
,
0100
0000
0000
0000
,
0000
0000
0000
0000
,
0010
0000
0000
0000
,
0000
0000
0000
0000
,
0100
0000
0000
0000
,
0000
0000
0000
0000
,
0100
0000
0000
0000
,
0000
0000
0000
0000
,
1001
0000
0000
0000
;
