#TITLE:Proposed, Flower, Wolf;
#SUBTITLE:;
#ARTIST:Rex;
#TITLETRANSLIT:;
#SUBTITLETRANSLIT:;
#ARTISTTRANSLIT:;
#GENRE:;
#CREDIT:Telperion;
#BANNER:pfw-bn.png;
#BACKGROUND:pfw-bg.png;
#LYRICSPATH:;
#CDTITLE:;
#MUSIC:pfw.ogg;
#OFFSET:-18.107000;
#SAMPLESTART:60.101002;
#SAMPLELENGTH:27.004999;
#SELECTABLE:YES;
#DISPLAYBPM:160.000000;
#BPMS:0.000000=80.000000;
#STOPS:;
#DELAYS:;
#TIMESIGNATURES:0.000000=4=4
;
#BGCHANGES:;
#KEYSOUNDS:;
#ATTACKS:;

//---------------dance-single - Telperion----------------
#NOTES:
     dance-single:
     Telperion:
     Hard:
     5:
     0.233,0.247,0.041,0.357,0.162,152.000,5.000,44.000,0.000,0.000,0.000,0.000,0.233,0.247,0.041,0.357,0.162,152.000,5.000,44.000,0.000,0.000,0.000,0.000:
0010
0020
0000
0200
0000
0000
0330
0000
,
0001
0000
0001
1000
0000
0000
0100
0010
,
0210
0000
0000
0000
0000
0000
2300
0000
0000
0010
0000
0000
0002
0000
0000
0000
,
0000
3003
0000
0000
,
0001
0000
0000
0000
1000
0000
0000
2000
0000
0000
0000
0000
3000
0000
0010
0100
,
1000
0000
0000
0100
0000
0000
0002
0000
0000
0000
0000
0000
0003
0000
0000
0000
,
1000
0000
0000
0000
0001
0000
0000
0001
0000
0000
0000
0000
0000
0000
0010
0000
,
0100
0000
0000
0000
0000
0000
0000
0000
0000
2000
0000
0000
0000
0000
0000
0000
0000
0000
0020
0000
0000
0000
0000
0000
0000
0000
0000
0000
0000
0000
0000
0000
0000
0000
0000
0030
3000
0000
0000
0000
0000
0000
0010
0000
0000
0000
0000
0000
,
2000
3200
0320
0032
,
0103
0000
0000
0000
0000
0000
0000
0000
0000
0002
0000
0000
0000
0000
0000
0000
0000
0000
2000
0000
0000
0000
0000
0000
0000
0000
0000
0000
0000
0000
0000
0000
0000
0000
0000
3000
0003
0000
0000
0000
0000
0000
0010
0000
0000
0000
0000
0000
,
0002
0203
0320
2030
,
3001
0000
0000
0020
0000
0000
0200
0000
0000
0000
0000
0000
0330
0000
0010
0001
,
2000
0000
0000
0000
0000
0000
0000
0000
0000
0010
0000
0000
0000
0000
0000
0000
0000
0000
0002
0000
0000
0000
0000
0000
0000
0000
0000
0000
0000
0000
0000
0000
0000
0000
0000
0003
3000
0000
0000
0000
0000
0000
0010
0000
0000
0100
0000
0000
,
0002
0000
0000
0000
0000
0000
0000
0000
0000
0010
0000
0000
0000
0000
0000
0000
0000
0000
2000
0000
0000
0000
0000
0000
0000
0000
0000
0000
0000
0000
0000
0000
0000
0000
0000
3000
0003
0000
0000
0000
0000
0000
0000
0000
0000
0000
0000
0000
,
0010
0100
0100
0000
1000
0100
0001
0000
,
0200
0000
0000
0000
0000
0000
0000
0000
0000
2300
0000
0000
0000
0000
0000
0000
0000
0000
0020
0000
0000
0000
0000
0000
0000
0000
0000
0000
0000
0000
0000
0000
0000
0000
0000
0030
3000
0000
0000
0000
0000
0000
0100
0000
0000
0001
0000
0000
,
0010
0100
0100
0000
0001
0100
0010
0000
,
0002
0000
0000
0000
0000
0000
0000
0000
0000
0203
0000
0000
0000
0000
0000
0000
0000
0000
2000
0000
0000
0000
0000
0000
0000
0000
0000
0000
0000
0000
0000
0000
0000
0000
0000
3000
0300
0000
0000
0000
0000
0000
1000
0000
0000
0100
0000
0000
,
0010
0000
0000
0100
0000
0100
0001
0000
0010
0000
0000
0100
0000
0100
1000
0000
,
0001
0000
0000
0100
0000
0001
0000
0000
1000
0000
0000
0100
0000
0000
1000
0100
,
0010
0000
0000
0100
0000
0100
1000
0000
0010
0000
0000
0010
0000
0000
0100
0000
,
0201
0000
0000
0000
0000
0000
0000
0000
0000
0010
0000
0000
0000
0000
0000
0000
0000
0000
2000
0000
0000
0000
0000
0000
0000
0000
0000
0000
0000
0000
0000
0000
0000
0000
0000
3000
0300
0000
0000
0000
0000
0000
0000
0000
0000
0000
0000
0000
,
1000
0000
0000
0100
0000
0000
0001
0000
0000
0010
0001
0010
0100
1000
0001
0000
,
0210
0000
0301
1000
1200
0000
0310
0100
,
2000
0000
0000
0000
0000
0000
0000
0000
0000
0000
0000
0000
0000
0000
0000
0000
0000
0000
0010
0000
0000
0000
0000
0000
0002
0000
0000
0000
0000
0000
0000
0000
0000
0000
0000
0003
3000
0000
0000
0000
0000
0000
0010
0000
0000
1000
0000
0000
,
0100
0000
0000
0000
0000
0000
0100
0000
0000
0010
0000
0000
0001
0000
0010
0000
0100
0000
1000
0000
0100
0000
0010
0000
,
0002
0000
1000
0010
2000
0000
3003
0000
,
0110
0000
0100
0002
0010
0000
1000
0000
,
0203
0000
0000
0000
1300
0000
0100
0000
0001
0000
0000
0010
0000
0000
0100
0000
,
2000
0000
0000
0000
0000
0000
0000
0000
0000
0000
3000
0000
2000
0000
0000
0000
0000
0000
0000
0000
0000
0000
0000
0000
3001
0000
0000
0000
0000
0000
0000
0000
0000
1000
0000
0000
0000
0000
0000
0000
0000
0000
0010
0000
0000
0000
0000
0000
,
0000
0020
0000
0000
0000
0000
0000
0000
,
0000
0000
0000
0000
0000
0000
0000
0000
0000
0000
0000
0000
0000
0000
0000
0000
0000
0000
0000
0000
0000
0000
0000
0000
0000
0000
0000
0000
0000
0000
0000
0000
0000
0000
0000
0000
0030
0000
0000
0000
0000
0000
0000
0000
0000
0000
0000
1000
,
0001
0000
0000
0000
;

//---------------dance-single - Telperion----------------
#NOTES:
     dance-single:
     Telperion:
     Medium:
     3:
     0.136,0.143,0.000,0.244,0.000,87.000,0.000,30.000,0.000,0.000,0.000,0.000,0.136,0.143,0.000,0.244,0.000,87.000,0.000,30.000,0.000,0.000,0.000,0.000:
0020
0000
0000
0200
0000
0000
0330
0000
,
2000
0000
0000
0002
0000
0000
3003
0000
,
0020
0000
0000
0230
0000
0000
2300
0000
,
0000
0000
3000
0000
,
0001
0010
0002
0003
,
0100
0000
0000
0200
0000
0000
0300
0000
,
1000
0010
2000
3000
,
0100
0000
0000
0200
0000
0000
0300
0000
,
0010
0001
0010
0100
,
2000
0000
0000
0002
0000
0000
3003
0000
,
0010
1000
0010
0100
,
0002
0000
0000
0020
0000
0000
0033
0000
,
2000
0000
0000
0020
0000
0000
3030
0000
,
0002
0000
0000
2000
0000
0000
3003
0000
,
0010
0100
0001
0100
,
0010
0000
0000
0020
0000
0000
0030
0000
,
0001
0100
1000
0100
,
0010
0000
0000
0200
0000
0000
0300
0000
,
0001
0000
0000
0001
1000
0000
0000
1000
,
0100
0000
0000
0100
0010
0000
0000
0100
,
0001
0000
0000
0001
0100
0000
0000
1000
,
0020
0000
0000
0000
,
0030
0000
0000
0000
,
0100
0000
1000
0000
0100
0000
0001
0010
,
0100
0001
0200
0300
,
1000
0001
0100
0100
,
0100
0010
2000
0002
,
3003
0000
1000
0100
0020
0000
0001
0000
,
0130
0000
0000
1000
0020
0000
1000
0000
,
0200
0330
0002
0010
,
2000
0000
0000
0000
,
0000
0000
3003
0000
,
0010
0000
0000
0000
;

//---------------dance-single - Telperion----------------
#NOTES:
     dance-single:
     Telperion:
     Easy:
     2:
     0.087,0.104,0.024,0.138,0.000,55.000,3.000,17.000,0.000,0.000,0.000,0.000,0.087,0.104,0.024,0.138,0.000,55.000,3.000,17.000,0.000,0.000,0.000,0.000:
0020
0000
0000
0030
0000
0000
0000
0000
,
0200
0000
0000
0300
0000
0000
0000
0000
,
2002
0000
0000
0000
,
0000
0000
3003
0000
,
2000
0000
0000
0010
,
3002
0000
0000
0003
,
0002
0000
0000
0010
,
2003
0000
0000
3000
,
0100
0000
0010
0000
,
0002
0000
0000
0003
,
0100
0000
0010
0000
,
2000
0000
0000
3000
,
0020
0000
0000
0030
0000
0000
0000
0000
,
0200
0000
0000
0300
0000
0000
0000
0000
,
1001
0000
0010
0000
,
0200
0000
0000
0300
,
1001
0000
0010
0000
,
0200
0000
0000
0300
,
0001
0000
0100
0000
,
0010
0000
0100
0000
,
1000
0000
0100
0000
,
0002
0000
0000
0000
,
0003
0000
0000
0000
,
0010
0100
0010
0000
,
0001
1000
0001
0000
,
0100
0010
0200
0000
,
0301
1000
0001
0000
,
1000
0100
1000
0100
,
0010
0001
0010
0100
,
1000
0010
0100
0001
,
0020
0000
0000
0000
,
0000
0000
0000
0000
,
0030
0000
0000
0000
;

//---------------dance-single - Telperion----------------
#NOTES:
     dance-single:
     Telperion:
     Beginner:
     1:
     0.041,0.055,0.008,0.000,0.000,34.000,1.000,0.000,2.000,0.000,0.000,0.000,0.041,0.055,0.008,0.000,0.000,34.000,1.000,0.000,2.000,0.000,0.000,0.000: // measure 1
0001
0000
0000
0000
,  // measure 2
1000
0000
0000
0000
,  // measure 3
0100
0000
0000
0100
0000
0000
0100
0000
,  // measure 4
0000
0000
0000
0000
,  // measure 5
0010
0000
0000
0000
,  // measure 6
0100
0000
0000
0000
,  // measure 7
0010
0000
0000
0000
,  // measure 8
0100
0000
0000
0000
,  // measure 9
1000
0000
0000
0000
,  // measure 10
0001
0000
0000
0000
,  // measure 11
1000
0000
0000
0000
,  // measure 12
0001
0000
0000
0000
,  // measure 13
0100
0000
0000
0100
0000
0000
0000
0000
,  // measure 14
0100
0000
0000
0100
0000
0000
0000
0000
,  // measure 15
0010
0000
0000
0000
,  // measure 16
0010
0000
0000
0000
,  // measure 17
1000
0000
0000
0000
,  // measure 18
1000
0000
0000
0000
,  // measure 19
0001
0000
0000
0000
,  // measure 20
0001
0000
0000
0000
,  // measure 21
0010
0000
0000
0000
,  // measure 22
0100
0000
0000
0000
,  // measure 23
0000
0000
0000
0000
,  // measure 24
0010
0000
0000
0000
,  // measure 25
0001
0000
0000
0000
,  // measure 26
1000
0000
0000
0000
,  // measure 27
0010
0000
0000
0000
,  // measure 28
0100
0000
0000
0000
,  // measure 29
0010
0000
0000
0000
,  // measure 30
1000
0000
0000
0000
,  // measure 31
0001
0000
0000
0000
,  // measure 32
0000
0000
0000
0000
,  // measure 33
0110
0000
0000
0000
,  // measure 34
0000
0000
0000
0000
,  // measure 35
M00M
0000
0000
0000
;
