#TITLE:ポーカーフェイス;
#SUBTITLE:;
#ARTIST:ゆちゃP feat. シト;
#TITLETRANSLIT:Poker Face;
#SUBTITLETRANSLIT:;
#ARTISTTRANSLIT:Yucha-P feat. Sito;
#GENRE:Cover;
#CREDIT:GuardianFrozen/AznPunk07;
#MENUCOLOR:#c90f1d;
#METERTYPE:DDR;
#BANNER:Pokerface ver. Sito-bn.png;
#BACKGROUND:Pokerface ver. Sito-bg.png;
#LYRICSPATH:Pokerface ver. Sito.lrc;
#CDTITLE:!cdtitle.png;
#MUSIC:Pokerface ver. Sito.mp3;
#OFFSET:-0.038;
#SAMPLESTART:50.844;
#SAMPLELENGTH:21.000;
#SELECTABLE:YES;
#LISTSORT:;
#DISPLAYBPM:184.000:92;
#BPMS:0.000=184.000,28.000=368.000,30.000=184.000,31.000=368.000,32.000=184.000,288.000=92.000,303.000=736.000,307.000=184.000;
#STOPS:28.000=0.081
,28.500=0.082
,29.000=0.081
,29.500=0.082
,31.000=0.163
;
#BGCHANGES:;
#ATTACKS:;

//---------------dance-single - ----------------
#NOTES:
     dance-single:
     :
     Hard:
     7:
     0.563,0.593,0.235,0.448,0.000: // measure 1
0000
0000
0000
0000
,  // measure 2
0000
0000
0000
1000
,  // measure 3
0100
0000
1000
0000
,  // measure 4
0010
0000
0100
0001
,  // measure 5
0010
0000
0001
0000
,  // measure 6
1000
0000
0010
0100
,  // measure 7
0001
0000
1000
0000
,  // measure 8
0100
0000
0000
0000
0000
0000
0000
0000
0000
0000
0000
0000
0000
0000
0000
0000
0010
0000
0000
0000
0000
0000
0000
0000
0000
0000
0000
0000
0000
0000
0000
0000
0100
0000
0000
0000
0000
0000
0000
0000
0000
0000
0000
0000
0000
0000
0000
0000
0220
0330
0000
0000
0000
0000
0000
0000
0000
0000
0000
0000
0000
0000
0000
0000
,  // measure 9
0010
0000
0001
0000
0100
0000
0010
1000
,  // measure 10
0000
0001
0000
1000
0000
0010
0000
0100
,  // measure 11
0001
0000
1000
0000
0001
0000
1000
0100
,  // measure 12
0020
0230
2300
3002
,  // measure 13
0103
0000
0010
0000
1000
0000
0001
0010
,  // measure 14
0000
0001
0000
1000
0000
0001
0000
0010
,  // measure 15
0100
0000
0010
0000
0001
0000
1000
0001
,  // measure 16
0020
0032
2003
3200
,  // measure 17
1300
1000
0010
0010
,  // measure 18
0100
0000
0001
1000
0000
1000
0000
0000
,  // measure 19
0010
0010
0100
0100
,  // measure 20
0001
0010
0001
0000
0011
0000
0000
0000
,  // measure 21
0100
1100
0100
0110
,  // measure 22
0010
0000
0001
1000
0000
1000
0000
1000
,  // measure 23
0010
1010
0010
0110
,  // measure 24
0100
0001
0100
0001
0000
0001
0000
0001
,  // measure 25
0020
0000
0230
0000
2300
0000
3000
0020
,  // measure 26
0000
2030
0000
3002
0000
0023
0000
0030
,  // measure 27
0002
0000
2003
0000
3020
0000
0030
0200
,  // measure 28
0000
0302
0000
2003
0000
3200
0000
0300
,  // measure 29
0020
0000
0032
0000
0203
0000
0300
0002
,  // measure 30
0000
2003
0000
3200
0000
0320
0000
0030
,  // measure 31
0200
0000
2300
0000
3002
0000
0003
2000
,  // measure 32
0000
3002
0000
0023
0000
0230
0000
0300
,  // measure 33
0010
0001
0010
0000
0100
0000
0010
0001
,  // measure 34
0010
0000
0000
0100
0000
0100
0000
1000
,  // measure 35
0010
0100
0010
0000
0010
1000
0010
0000
,  // measure 36
0100
0000
0100
0001
0000
0001
1000
0000
,  // measure 37
0100
1100
0010
0011
,  // measure 38
0100
0000
1000
0001
1000
0001
1000
0000
,  // measure 39
0010
1000
0100
0000
0010
0001
0100
0000
,  // measure 40
0110
0000
0000
0110
0000
0001
1000
0001
,  // measure 41
1000
1001
0001
1001
,  // measure 42
1000
0100
0010
0000
0010
0100
1000
0000
,  // measure 43
0001
0000
0100
0000
0010
1000
0000
1000
,  // measure 44
0002
0023
0230
0300
,  // measure 45
0010
0000
0011
0000
0001
1000
0000
0001
,  // measure 46
1000
0000
0010
0000
0100
0010
0100
0000
,  // measure 47
0001
0001
1000
1000
,  // measure 48
0100
0001
0010
1000
,  // measure 49
0100
0000
1100
0000
0010
0001
0010
0000
,  // measure 50
0100
1000
0100
0010
0001
0000
0011
0000
,  // measure 51
1000
0000
0001
0100
0001
0100
0000
0010
,  // measure 52
2000
3002
0203
0300
,  // measure 53
1000
1100
0001
0101
,  // measure 54
0010
1000
0100
0000
0100
1000
0010
0000
,  // measure 55
0100
0000
0001
0000
1000
0001
0000
0001
,  // measure 56
0010
0010
0100
0100
,  // measure 57
1000
0100
0000
1000
0100
0000
1000
0010
,  // measure 58
0000
1000
0001
0000
2002
0000
3003
0000
,  // measure 59
0001
0100
0000
0001
0100
0000
0001
0010
,  // measure 60
0000
0001
1000
0000
2002
0000
3003
0000
,  // measure 61
1000
0000
0000
0100
0000
0010
0000
0100
,  // measure 62
0000
1000
0000
0001
0100
0000
0010
0000
,  // measure 63
1000
0000
0000
1010
0000
0000
0001
0000
,  // measure 64
0000
0011
0000
0000
0100
0000
0010
0000
,  // measure 65
0001
0000
1000
0001
0000
0100
0001
0000
,  // measure 66
0010
0000
0000
0100
1000
0000
0010
1000
,  // measure 67
0100
0000
0010
0001
0000
1000
0010
0000
,  // measure 68
0010
0100
0000
0001
1000
0000
0100
0000
,  // measure 69
0010
0000
0010
0100
0000
0100
1000
0000
,  // measure 70
1000
0001
0000
0001
0100
0000
0100
0000
,  // measure 71
0010
1000
0000
0010
0100
0000
0010
0001
,  // measure 72
0000
0010
0100
0010
1000
0010
0001
0010
,  // measure 73
2000
0000
3100
0010
0002
0000
1003
0010
,  // measure 74
0200
0000
0300
0010
1000
0001
0100
0001
,  // measure 75
0020
0000
0130
1000
0002
0000
1003
0100
,  // measure 76
2000
0000
3000
0010
0100
0100
0020
0000
,  // measure 77
0000
0000
0000
0030
,  // measure 78
1000
1010
0100
0101
,  // measure 79
1000
0100
1000
0000
0001
0100
0001
0000
,  // measure 80
0010
0000
0100
0000
1000
0100
0000
1000
,  // measure 81
0002
2003
3020
0030
,  // measure 82
0100
0101
0001
1001
,  // measure 83
1000
0001
1000
0000
0001
0000
0011
0000
,  // measure 84
1000
0100
0001
0100
,  // measure 85
1000
1000
0001
0001
,  // measure 86
0100
0101
0010
1010
,  // measure 87
0010
1000
0010
0000
0100
0001
0100
0000
,  // measure 88
0010
0000
1000
0001
1000
0010
0000
0010
,  // measure 89
2000
3002
0023
0030
,  // measure 90
0100
0010
0001
1000
,  // measure 91
0001
0100
0001
1000
0100
1000
0001
0000
,  // measure 92
0100
0110
1000
1100
,  // measure 93
0001
0101
1000
1001
,  // measure 94
0001
0000
0100
0000
0001
1000
0000
0001
,  // measure 95
0000
0010
0000
0100
1000
0000
0010
0000
,  // measure 96
1000
0000
0001
0000
0100
0001
0000
1000
,  // measure 97
0000
0100
0000
0010
0100
0000
1000
0000
,  // measure 98
0001
0000
0100
0000
0010
0100
0000
0010
,  // measure 99
0000
1000
0000
0001
0010
0000
0001
0000
,  // measure 100
1000
0100
0000
0100
1000
0000
0001
0100
,  // measure 101
0000
0100
0001
0000
1000
0001
1000
0001
;

//---------------dance-single - ----------------
#NOTES:
     dance-single:
     :
     Challenge:
     9:
     0.673,0.778,0.426,0.081,0.077: // measure 1
0000
0000
0000
0000
,  // measure 2
0000
0000
0000
0001
,  // measure 3
0100
0010
0000
1000
0100
1000
0000
0010
,  // measure 4
1000
0010
0000
0100
0001
0100
0010
1000
,  // measure 5
0100
0010
0000
0001
0010
0001
0000
0100
,  // measure 6
0001
0100
0000
0010
1000
0010
0100
0001
,  // measure 7
0010
1000
0000
0010
0100
0010
0000
0001
,  // measure 8
0100
0000
0000
0000
0000
0000
0000
0000
0001
0000
0000
0000
0000
0000
0000
0000
1000
0000
0000
0000
0000
0000
0000
0000
0001
0000
0000
0000
0000
0000
0000
0000
0100
0000
0000
0000
0000
0000
0000
0000
0000
0000
0000
0000
0000
0000
0000
0000
0020
0030
0000
0000
0000
0000
0000
0000
0000
0000
0000
0000
0000
0000
0000
0000
,  // measure 9
1000
0000
0100
0000
0010
0000
0001
1000
,  // measure 10
0000
0010
0000
0100
0000
0001
0000
1000
,  // measure 11
0100
0000
0010
0000
0100
0000
1000
0001
,  // measure 12
0100
0110
1010
1001
,  // measure 13
0011
0000
0100
0000
0010
0000
0001
1000
,  // measure 14
0000
0001
0000
0100
0000
0010
0000
1000
,  // measure 15
0100
0000
1000
0000
0010
0000
0100
0001
,  // measure 16
1000
1100
1001
0101
,  // measure 17
0110
0000
1000
0000
0001
0100
0001
0000
,  // measure 18
0010
0000
0100
1000
0000
0100
0000
0010
,  // measure 19
0001
0100
0010
0000
1000
0100
1000
0100
,  // measure 20
0010
0001
1000
0000
0001
0100
0010
0010
,  // measure 21
1000
0100
1000
0000
0010
0100
0010
0000
,  // measure 22
1000
0000
0001
0100
0000
0001
0000
1000
,  // measure 23
0100
1000
0010
0000
0100
0001
0010
0000
,  // measure 24
0001
0010
0100
1000
0000
1000
0000
1000
,  // measure 25
0020
0000
0100
0000
1030
0000
0001
0200
,  // measure 26
0000
0010
0000
1000
0000
0301
0000
0010
,  // measure 27
0002
0000
1000
0000
0013
0000
0100
1000
,  // measure 28
0100
0011
1100
1001
,  // measure 29
0201
0000
0010
0000
1300
0000
0001
2000
,  // measure 30
0000
0100
0000
0001
0000
3010
0000
0100
,  // measure 31
0002
0000
0010
0000
1003
0000
0100
0010
,  // measure 32
0001
0110
0011
1100
,  // measure 33
0001
0010
0100
0000
0100
0010
0001
0000
,  // measure 34
1000
0010
0001
0010
0000
0100
0001
1000
,  // measure 35
0100
0010
0100
0000
1000
0010
1000
0001
,  // measure 36
1000
0100
0010
0001
0000
0001
0010
0100
,  // measure 37
1000
0001
0010
0000
1000
0001
0010
0000
,  // measure 38
0100
1000
0001
0100
0001
1000
0100
0010
,  // measure 39
0001
0100
1000
0000
1000
0100
0010
0010
,  // measure 40
1000
0001
0010
0100
0000
0010
0100
1000
,  // measure 41
0001
0101
1000
1100
,  // measure 42
0001
0100
0001
0001
1000
0010
1000
0000
,  // measure 43
0100
0010
0001
0010
0100
0100
0000
1000
,  // measure 44
0010
0000
1010
0000
1001
0010
1000
0000
,  // measure 45
0100
0010
0001
0000
0100
1000
0000
0001
,  // measure 46
1000
0100
0010
0010
0100
1000
0100
0000
,  // measure 47
0010
0011
1001
0100
,  // measure 48
0010
1010
1000
0011
,  // measure 49
1000
0000
1100
0000
0010
0001
0010
0000
,  // measure 50
0100
1000
0001
1000
0100
0000
0110
0000
,  // measure 51
0001
0100
1000
1000
0100
0001
0000
0001
,  // measure 52
1000
0000
1010
0000
0101
0010
1000
0000
,  // measure 53
0100
1100
0010
0011
,  // measure 54
1000
0100
0001
0100
1000
0001
1000
0000
,  // measure 55
0010
0000
1010
0000
0100
0101
0000
0010
,  // measure 56
1001
0011
1010
1001
,  // measure 57
0100
0001
0000
1000
0010
0000
0100
0001
,  // measure 58
0000
1000
0100
0010
0200
0000
0300
0000
,  // measure 59
0001
0100
0000
0010
1000
0000
0001
0100
,  // measure 60
0000
0001
0010
0100
0020
0000
0030
0000
,  // measure 61
1000
0010
0001
1000
0000
0100
0000
0001
,  // measure 62
0000
0010
1000
0010
0001
0000
0100
0000
,  // measure 63
0010
0000
1000
0010
0000
0100
0001
0000
,  // measure 64
0010
0100
0000
0010
0001
0000
0010
0100
,  // measure 65
1000
0100
1000
0000
0000
0000
0001
0100
0001
0000
0000
0000
0010
0001
0010
0000
,  // measure 66
0100
1000
0100
0000
0000
0000
0010
0001
1000
0000
0000
1000
0010
0000
0000
0010
,  // measure 67
0100
0001
0100
0000
0000
0000
0010
0100
0010
0000
0000
0000
1000
0010
1000
0000
,  // measure 68
0000
0000
0001
1000
0001
0000
0010
0001
1000
0000
0000
0100
1000
0000
0000
1000
,  // measure 69
0001
0100
0001
0000
0010
0000
0100
1000
0100
0000
1000
0000
0010
1000
0010
0000
,  // measure 70
0100
0000
0001
0010
0001
0000
0100
0000
0010
0000
0000
0010
1000
0000
0000
1000
,  // measure 71
0001
0001
0000
0100
0100
0000
0010
0010
,  // measure 72
0000
1000
1000
0100
0010
0001
1000
0100
,  // measure 73
0010
0001
1000
0010
0001
1000
0100
0001
,  // measure 74
0010
0000
0000
0100
0000
0000
0010
0000
0001
0000
1000
0000
0001
0000
0100
0000
,  // measure 75
0010
1000
0100
1000
0001
0100
1000
0010
,  // measure 76
0001
0000
0000
1000
1000
0001
2002
0000
,  // measure 77
0000
0000
3003
0100
,  // measure 78
0010
1010
0100
0101
,  // measure 79
0010
1000
0100
0000
0010
0001
0100
0000
,  // measure 80
0001
1000
0100
0100
1000
0001
0000
0001
,  // measure 81
0010
0000
0011
0000
1100
0001
0010
0000
,  // measure 82
0100
1100
0010
0011
,  // measure 83
1000
0001
0100
0001
1000
0010
1000
0000
,  // measure 84
0100
0110
0010
0011
,  // measure 85
0101
1010
1100
0011
,  // measure 86
0100
0101
0010
1010
,  // measure 87
0100
0001
0001
1000
0100
0100
0010
0000
,  // measure 88
0100
1000
0001
0010
1000
0010
0000
0001
,  // measure 89
0100
0000
1100
0000
0101
0010
1000
0000
,  // measure 90
0001
0000
0010
0100
1000
1000
0100
0010
,  // measure 91
0001
1000
0010
0001
0010
0100
0001
0000
,  // measure 92
0100
1010
0100
0011
,  // measure 93
1001
0110
1010
0011
,  // measure 94
1000
0000
0010
0000
0100
0001
0000
0010
,  // measure 95
0000
0001
1000
0100
0010
0100
1000
0000
,  // measure 96
0010
0000
0100
0000
0001
1000
0000
0001
,  // measure 97
0000
0010
0001
0010
1000
0010
0100
0000
,  // measure 98
0010
0000
0001
0000
1000
0001
0000
0100
,  // measure 99
0000
0001
1000
0010
1000
0001
0010
0000
,  // measure 100
0100
1000
0000
0100
0010
0000
0100
0001
,  // measure 101
0000
0100
1000
0010
0001
0100
1000
0010
;

//---------------dance-single - ----------------
#NOTES:
     dance-single:
     :
     Medium:
     6:
     0.391,0.481,0.162,0.257,0.000:
0000
0000
0000
0000
,
0000
0000
0000
2000
,
0200
0000
0000
0000
,
0000
0000
0000
0000
,
0000
0000
0000
0000
,
0000
0000
0000
0000
,
0000
0000
0000
3300
,
0001
0001
0001
0000
,
1000
0000
0000
0000
0100
0000
0000
1000
,
0000
0001
0000
0100
0000
0000
0000
0000
,
0010
0000
0000
0000
0100
0000
0000
0001
,
0000
1000
0000
0001
0000
0000
0000
0000
,
0010
0000
0000
0000
0100
0000
0000
0010
,
0000
0001
0000
1000
0000
0000
0000
0000
,
0010
0000
0000
0000
0100
0000
0000
0010
,
0000
1000
0000
0100
0000
0000
0000
0000
,
1000
1000
0100
0000
,
0010
0001
1000
0000
,
0010
0010
0100
0100
,
0001
1000
1001
0000
,
0001
0001
0010
0000
,
0100
0010
0001
0000
,
1000
1000
0010
0010
,
0100
0000
0001
0000
1000
0000
0100
0010
,
0200
0000
1000
0000
,
0001
0000
0010
0000
,
2300
0000
0010
0000
,
0001
0000
0100
0000
,
3002
0000
0010
0000
,
1000
0000
0100
0000
,
0023
0000
0100
0000
,
1000
0000
0031
0000
,
0100
0100
1000
1000
,
0001
0100
0101
0000
,
0010
1000
0001
0001
,
1000
0100
1100
1010
,
1000
1000
0001
0001
,
0010
0001
0100
0100
,
0010
0010
1000
1000
,
1001
0100
1001
0010
,
0001
0011
0001
0011
,
0001
0000
0010
0000
0001
0010
0001
0000
,
1000
0000
1000
0000
0001
0100
0000
0000
,
0020
0230
0320
0030
,
1000
0000
0100
0000
1000
0100
0000
1000
,
0100
0000
0100
0000
1000
0100
1000
0000
,
0010
0010
0100
0100
,
0001
1000
0001
1001
,
1000
1100
1000
1010
,
1000
0010
1000
0000
0010
0000
0010
0000
,
0100
0000
0001
0000
1000
0001
0000
0000
,
0002
2003
3002
0003
,
0010
0010
0100
0100
,
0010
0001
1000
0001
,
0100
0100
0010
0000
,
1000
0010
0100
0001
,
1000
0000
0000
0000
0100
0000
0000
1000
,
0000
0100
0010
0000
,
0001
0000
0000
0000
0100
0000
0000
0001
,
0000
0100
0010
0000
,
1000
0000
0000
0100
0000
1000
0000
0001
,
0000
0100
0000
0000
0001
0000
1000
0000
,
0001
0000
0000
0010
0000
0000
0001
0000
,
1000
0000
0010
0000
,
0200
0000
0000
1000
0000
0000
0010
0000
,
0302
0000
2003
0000
,
3020
0000
0000
0100
0000
0000
0001
0000
,
2030
0000
3002
0000
,
2003
0000
0000
0100
0000
0000
0010
0000
,
0000
0001
0000
0000
3020
0000
0130
0000
,
0002
1000
0000
1000
0000
0000
1000
0000
,
0000
1003
0000
0000
1000
0001
1000
0001
,
2000
3100
0020
0031
,
0200
0300
0002
0003
,
0200
0301
0020
0130
,
2000
3000
0000
0002
,
0000
0000
0000
0003
,
1000
1000
0001
0001
,
1000
1010
1000
1100
,
0001
0000
0010
0000
0001
0010
0000
0000
,
0020
0230
0320
0030
,
0100
1100
1000
1100
,
1000
0001
1000
0000
1001
0000
0100
0000
,
0010
0010
1000
1000
,
0001
1000
0001
0001
,
1000
0000
1100
0000
1000
0010
1000
0000
,
0100
1100
1010
1100
,
0010
0000
0010
0000
0001
1000
0000
0000
,
2000
3002
2003
3000
,
0010
0110
0100
0110
,
0001
1000
0001
0000
0100
0000
0100
0000
,
0010
1000
0100
0010
,
0001
1000
0001
0100
,
0010
0000
1000
0000
0100
0000
0000
1000
,
0000
0001
0100
0001
,
0010
0000
0001
0000
1000
0000
0000
0001
,
0000
0010
0001
1000
,
0010
0000
0100
0000
0001
0000
0000
0100
,
0000
0010
1000
0100
,
0010
0000
0000
0100
0000
0000
1000
0000
,
0000
0001
0000
0000
1000
0000
0001
0000
;

//---------------dance-single - ----------------
#NOTES:
     dance-single:
     :
     Beginner:
     2:
     0.120,0.218,0.096,0.125,0.000:
0000
0000
0000
0000
,
0000
0000
0000
0000
,
0000
0000
0000
0000
,
0000
0000
0000
0000
,
0000
0000
0000
0000
,
0000
0000
0000
0000
,
0000
0000
0000
0000
,
0000
0000
0000
0000
,
1000
0000
0000
0000
,
0100
0000
0000
0000
,
0010
0000
0000
0000
,
0001
0000
0000
0000
,
0100
0000
0000
0000
,
0010
0000
0000
0000
,
1000
0000
0000
0000
,
0001
0000
0000
0000
,
2000
0000
3000
0000
,
0000
0000
0000
0000
,
0002
0000
0003
0000
,
0000
0000
0000
0000
,
2000
0000
3000
0000
,
0000
0000
0000
0000
,
0002
0000
0003
0000
,
0000
0000
0000
0000
,
0200
0000
0300
0000
,
0000
0000
0100
0000
,
0200
0000
0300
0000
,
0000
0000
0100
0000
,
0200
0000
0300
0000
,
0000
0000
0100
0000
,
0200
0000
0300
0000
,
0000
0000
0000
0000
,
0002
0000
0003
0000
,
0000
0000
0000
0000
,
2000
0000
3000
0000
,
0000
0000
0000
0000
,
0002
0000
0003
0000
,
0000
0000
0000
0000
,
2000
0000
3000
0000
,
0002
0000
0003
0000
,
0010
0000
0010
0000
,
0010
0000
0000
0000
,
0100
0000
0100
0000
,
0200
0000
0300
0000
,
0010
0000
0010
0000
,
0010
0000
0000
0000
,
0001
0000
0000
0000
,
1000
0000
0000
0000
,
0001
0000
0001
0000
,
1000
0000
0000
0000
,
1000
0000
1000
0000
,
0001
0000
0000
0000
,
1000
0000
0000
0000
,
0001
0000
0000
0000
,
0010
0000
0010
0000
,
0100
0000
0100
0000
,
0110
0000
0000
0000
,
0000
0000
0000
0000
,
1001
0000
0000
0000
,
0000
0000
0000
0000
,
0110
0000
0000
0000
,
0000
0000
0000
0000
,
1001
0000
0000
0000
,
0000
0000
0000
0000
,
2000
0000
0000
0000
,
3000
0000
0000
0000
,
0002
0000
0000
0000
,
0003
0000
0000
0000
,
2000
0000
0000
0000
,
3000
0000
0000
0000
,
0001
0000
0000
0000
,
0000
0000
0000
0000
,
0010
0000
0000
0000
,
0100
0000
0000
0000
,
0010
0000
0000
0000
,
0100
0000
0000
0000
,
0000
0000
0000
0000
,
0001
0000
0000
0000
,
1000
0000
0000
0000
,
0001
0000
1000
0000
,
1001
0000
0000
0000
,
1000
0000
0000
0000
,
0001
0000
0000
0000
,
1000
0000
0001
0000
,
1001
0000
0000
0000
,
0010
0000
0000
0000
,
0100
0000
0000
0000
,
0010
0000
0100
0000
,
0110
0000
0000
0000
,
0100
0000
0000
0000
,
0010
0000
0000
0000
,
0100
0000
0010
0000
,
0110
0000
0110
0000
,
0110
0000
0000
0000
,
0000
0000
0000
0000
,
1001
0000
0000
0000
,
0000
0000
0000
0000
,
0110
0000
0000
0000
,
0000
0000
0000
0000
,
1001
0000
0000
0000
;

//---------------dance-single - ----------------
#NOTES:
     dance-single:
     :
     Easy:
     4:
     0.290,0.333,0.073,0.059,0.000:
0000
0000
0000
0000
,
0000
0000
0000
0000
,
0000
0000
0000
0000
,
0000
0000
0000
0000
,
0000
0000
0000
0000
,
0000
0000
0000
0000
,
0000
0000
0000
0000
,
0000
0000
0000
0000
,
1000
0100
0010
0000
,
0010
0100
1000
0000
,
0001
0100
0010
0000
,
0100
0100
0100
0100
,
0010
1000
0100
0000
,
0010
0001
0100
0000
,
0010
1000
0100
0000
,
0010
0010
0010
0010
,
0100
0000
1000
0000
,
0001
0100
0001
0000
,
1000
0000
0100
0000
,
0010
0100
1000
0000
,
0010
0000
0100
0000
,
0001
1000
0001
0000
,
0100
0000
0010
0000
,
1000
1000
0001
1000
,
0002
0000
0003
0000
,
2000
0000
3000
0000
,
0020
0000
0030
0000
,
0200
0000
0300
0000
,
0002
0000
0003
0000
,
2000
0000
3000
0000
,
0200
0000
0300
0000
,
0020
0000
0030
0000
,
0100
0100
1000
1000
,
0001
0000
0100
0000
,
0010
0010
0100
0100
,
0001
0000
1000
0000
,
0001
0001
0010
0000
,
0100
0100
1000
0000
,
1000
1000
0010
0010
,
0100
0001
0100
0100
,
0010
0000
1010
0000
,
0100
0000
0101
0000
,
1000
0100
0001
0000
,
0001
0100
1000
0000
,
0001
0000
0011
0000
,
0100
0000
1100
0000
,
1000
1000
0010
0000
,
0100
0100
0001
0000
,
1000
0000
1001
0000
,
0100
0000
0110
0000
,
0001
0010
1000
0000
,
1000
0010
0001
0000
,
0100
0000
0110
0000
,
0010
1000
0100
0010
,
0001
0000
1000
0000
,
0001
0100
0010
1000
,
0100
0000
1000
0000
,
0100
0010
0001
0000
,
0100
0000
0001
0000
,
0100
0010
1000
0000
,
0001
0000
1000
0000
,
0001
1000
0100
0000
,
0010
0000
0100
0000
,
0010
0001
1000
0010
,
1000
0000
0001
0000
,
0100
0100
0100
0000
,
0001
0000
1000
0000
,
0100
0100
0100
0000
,
0010
0000
0001
0000
,
1000
0000
0010
0000
,
0100
0000
0100
0000
,
0100
0100
0100
0100
,
0100
0000
0001
0000
,
1000
0000
0100
0000
,
0010
0000
0001
0000
,
1000
0000
0010
0010
,
0000
0000
0000
0000
,
0100
0100
0001
0000
,
1000
1000
0100
0000
,
0010
0100
1000
0100
,
0010
0001
1000
0000
,
0010
0010
0100
0000
,
0001
0001
1000
0000
,
0001
0010
0001
1000
,
0010
0100
0001
1000
,
0100
0100
0010
0001
,
1000
0001
0100
0100
,
0010
1000
0001
1000
,
0100
0010
0110
0000
,
1000
0100
0001
0100
,
1000
0001
0100
0010
,
1000
0001
0010
1000
,
0010
0001
1000
0001
,
0100
0100
0010
0000
,
1000
0010
0100
0001
,
1000
1000
0100
0000
,
1000
0001
0100
0001
,
0010
0010
0001
0000
,
1000
0001
0100
0010
,
1000
0000
0001
0000
,
1000
0001
1001
0110
;
