#TITLE:Play Boy;
#SUBTITLE:;
#ARTIST:7 Icons;
#TITLETRANSLIT:;
#SUBTITLETRANSLIT:;
#ARTISTTRANSLIT:;
#CREDIT:348;
#BANNER:Playboy Banner.png;
#BACKGROUND:Playboy Background.png;
#LYRICSPATH:Playboy.lrc;
#CDTITLE:;
#MUSIC:Playboy.mp3;
#OFFSET:-0.882;
#SAMPLESTART:48.126;
#SAMPLELENGTH:15.000;
#SELECTABLE:YES;
#BPMS:0.000=127.000;
#STOPS:;
#BGCHANGES:;

//---------------dance-single - ----------------
#NOTES:
     dance-single:
     :
     Beginner:
     1:
     0.090,0.126,0.000,0.000,0.000:
0000
0000
0000
0000
,
0000
0000
0000
0000
,
0000
0000
0000
0000
,
0000
0000
0000
0000
,
1000
0000
0000
0000
,
0001
0000
0000
0000
,
1000
0000
0000
0000
,
0001
0000
0000
0000
,
1000
0000
0000
0000
,
1000
0000
0000
0000
,
0100
0000
0000
0000
,
0100
0000
0000
0000
,
0010
0000
0000
0000
,
0010
0000
0000
0000
,
0001
0000
0000
0000
,
0001
0000
0000
0000
,
0000
0000
1000
1000
,
0000
0000
0001
0001
,
0000
0000
0100
0000
,
0010
0000
0100
0000
,
0000
0000
0010
0010
,
0000
0000
0100
0100
,
0000
0000
0001
0000
,
1000
0000
0001
0000
,
0100
0000
0010
0000
,
1000
0000
0000
0000
,
0010
0000
0000
0000
,
0100
0000
0000
0000
,
0001
0000
0001
0000
,
1000
0000
0000
0000
,
0001
0000
0000
0000
,
0100
0000
0000
0000
,
0010
0000
0010
0000
,
1000
0000
0000
0000
,
0100
0000
0000
0000
,
0010
0000
0000
0000
,
0001
0000
0001
0000
,
1000
0000
0000
0000
,
0001
0000
0000
0000
,
0010
0000
0000
0000
,
0100
0000
1000
0000
,
0001
0000
0010
0000
,
0001
0000
1000
0000
,
0100
0000
1000
0000
,
0001
0000
0000
0000
;

//---------------dance-single - ----------------
#NOTES:
     dance-single:
     :
     Easy:
     3:
     0.224,0.309,0.114,0.069,0.000: // measure 1
0000
0000
0000
0000
,  // measure 2
0000
0000
0000
0000
,  // measure 3
0000
0000
0000
0000
,  // measure 4
0000
0000
0000
0000
,  // measure 5
1000
0100
0010
0001
,  // measure 6
1000
0001
1000
0001
,  // measure 7
2000
0000
3020
0000
,  // measure 8
0230
0000
0302
0000
,  // measure 9
1003
0000
0001
0010
,  // measure 10
0001
0000
1000
0100
,  // measure 11
1000
0000
0001
1000
,  // measure 12
0001
0010
1000
0010
,  // measure 13
0001
0000
1000
0010
,  // measure 14
1000
0000
0001
0100
,  // measure 15
0001
0000
0100
0010
,  // measure 16
1000
0100
0001
0100
,  // measure 17
1000
1100
0000
0000
,  // measure 18
0001
0011
0000
0000
,  // measure 19
1000
1001
0000
0000
,  // measure 20
0001
0010
0100
1001
,  // measure 21
0100
0101
0000
0000
,  // measure 22
0010
1010
0000
0000
,  // measure 23
1000
0010
0100
0001
,  // measure 24
0010
0100
1000
0110
,  // measure 25
0010
0010
0100
0100
,  // measure 26
0001
0000
0001
0000
,  // measure 27
0010
0000
0010
0000
,  // measure 28
0100
1000
0100
0000
,  // measure 29
1000
0001
1000
0001
,  // measure 30
1000
0000
1000
0000
,  // measure 31
0100
0000
0100
0000
,  // measure 32
0010
0001
0010
0000
,  // measure 33
0100
0010
0100
0010
,  // measure 34
0001
0000
0100
0000
,  // measure 35
0010
0000
1000
0000
,  // measure 36
0001
1000
0001
0000
,  // measure 37
1000
0010
1000
0010
,  // measure 38
0100
0000
0001
0000
,  // measure 39
1000
0000
0010
0000
,  // measure 40
0100
0010
0100
0000
,  // measure 41
0001
0100
0001
0100
,  // measure 42
0001
1000
0010
0100
,  // measure 43
0001
1000
1000
0001
,  // measure 44
0100
0110
0010
0110
,  // measure 45
2002
0000
0000
0000
,  // measure 46
3003
0000
0000
0000
;

//---------------dance-single - ----------------
#NOTES:
     dance-single:
     :
     Medium:
     4:
     0.294,0.335,0.194,0.229,0.000: // measure 1
0000
0000
0000
0000
,  // measure 2
0000
0000
0000
0000
,  // measure 3
0000
0000
0000
0000
,  // measure 4
0000
0000
0000
0000
,  // measure 5
1000
0001
1000
0110
,  // measure 6
0002
1003
0200
0310
,  // measure 7
0001
0010
0100
1000
,  // measure 8
0001
0000
1000
0000
0001
1000
0001
0000
,  // measure 9
1000
1000
1100
0000
,  // measure 10
0001
0001
0011
0000
,  // measure 11
1000
0001
1000
0001
,  // measure 12
0200
0310
0020
0130
,  // measure 13
0100
0100
0101
0000
,  // measure 14
0010
0010
1010
0000
,  // measure 15
0010
0100
0010
0100
,  // measure 16
0002
1003
2000
3001
,  // measure 17
0001
0010
0200
0300
,  // measure 18
0100
0010
0002
0003
,  // measure 19
1000
0000
0001
1000
,  // measure 20
0001
0010
0100
1000
,  // measure 21
1000
0100
0020
0030
,  // measure 22
0010
0100
2000
3000
,  // measure 23
0001
0100
1000
0100
,  // measure 24
0001
1000
1001
0000
,  // measure 25
0010
0000
0100
0000
0010
0100
0010
0000
,  // measure 26
1000
0000
0001
0001
,  // measure 27
0100
0000
0010
0010
,  // measure 28
1000
0100
0010
0001
,  // measure 29
1000
1001
0001
1001
,  // measure 30
1000
0000
0100
0100
,  // measure 31
0010
0000
0001
0001
,  // measure 32
0100
0001
1000
0010
,  // measure 33
0100
0110
0010
0110
,  // measure 34
0002
0000
1000
0103
,  // measure 35
0200
0000
0001
0310
,  // measure 36
0010
0100
0110
0000
,  // measure 37
0002
0103
0020
1030
,  // measure 38
2000
0000
0001
3010
,  // measure 39
0020
0000
1000
0130
,  // measure 40
1000
0001
1001
0000
,  // measure 41
2000
3100
0020
0031
,  // measure 42
1000
0001
0100
0011
,  // measure 43
0001
1000
0010
1100
,  // measure 44
0010
1001
0100
1001
,  // measure 45
0220
0000
0000
0000
,  // measure 46
0330
0000
0000
0000
;

//---------------dance-single - ----------------
#NOTES:
     dance-single:
     :
     Hard:
     7:
     0.485,0.463,0.835,0.183,0.011: // measure 1
0000
0000
0000
0000
,  // measure 2
0000
0000
0000
0000
,  // measure 3
0000
0000
0000
0000
,  // measure 4
0000
0000
0000
0000
,  // measure 5
1000
0100
0001
0010
,  // measure 6
1000
0100
0010
0000
0001
0010
0100
0000
,  // measure 7
1000
1100
0001
0011
,  // measure 8
1000
0000
0000
0110
0000
0000
0001
0000
1000
0000
0000
0000
1001
0000
0000
0000
,  // measure 9
0000
0011
0000
1100
0000
0001
0010
0001
,  // measure 10
0000
1010
0000
0101
0000
1000
0100
1000
,  // measure 11
0000
0110
0000
1001
0000
0001
0010
0100
,  // measure 12
1010
1001
0101
1001
,  // measure 13
0000
0011
0000
1010
0000
0010
1000
0010
,  // measure 14
0000
1100
0000
0101
0000
0100
0001
0100
,  // measure 15
0000
1001
0000
0110
0000
0100
0001
1000
,  // measure 16
1100
0110
0011
0110
,  // measure 17
2000
0000
3001
0010
0200
0000
0310
0001
,  // measure 18
2000
0000
3001
1000
0200
0000
1300
0001
,  // measure 19
0010
0001
0100
0010
1000
0100
1000
0001
,  // measure 20
2100
3010
0102
0013
,  // measure 21
0002
0000
1003
0100
0020
0000
0130
1000
,  // measure 22
0002
0000
1003
0001
0020
0000
0031
1000
,  // measure 23
0100
1000
0001
0100
0010
1000
0001
0010
,  // measure 24
0011
1100
1001
0110
,  // measure 25
0100
0000
0000
1001
0000
0000
0010
0000
0110
0000
0000
0000
1001
0000
0000
0000
,  // measure 26
0000
0101
0000
0101
0000
0100
0100
0001
,  // measure 27
0000
1100
0000
1100
0000
0100
0100
1000
,  // measure 28
0001
0100
1000
0100
0001
0000
0100
0010
,  // measure 29
1100
0101
1100
0101
,  // measure 30
0000
1010
0000
1010
0000
0010
0010
1000
,  // measure 31
0000
0011
0000
0011
0000
0010
0010
0001
,  // measure 32
1000
0100
0001
0100
1000
0000
0010
0100
,  // measure 33
0011
0000
1010
0000
1001
0000
1000
0001
,  // measure 34
0000
1100
0000
1001
0000
0001
0010
0010
,  // measure 35
0000
0011
0000
1001
0000
1000
0100
0100
,  // measure 36
1000
0010
0001
0010
1000
0000
0001
0100
,  // measure 37
1001
0110
0110
1001
,  // measure 38
0000
0101
0000
0110
0000
0100
0001
0001
,  // measure 39
0000
1010
0000
0110
0000
0010
1000
1000
,  // measure 40
0001
0010
1000
0010
0001
0000
1000
0010
,  // measure 41
1010
1100
0011
0101
,  // measure 42
1001
0110
0201
0310
,  // measure 43
1020
0130
0110
1001
,  // measure 44
2001
3001
1002
1003
,  // measure 45
0220
0000
0000
0000
,  // measure 46
0330
0000
0000
0000
;

//---------------dance-single - ----------------
#NOTES:
     dance-single:
     :
     Challenge:
     9:
     0.597,0.643,0.515,0.103,0.383: // measure 1
0000
0000
0000
0000
,  // measure 2
0000
0000
0000
0000
,  // measure 3
0000
0000
0000
0000
,  // measure 4
0000
0000
0000
0000
,  // measure 5
1001
0000
0000
1000
0100
0000
1000
0000
1010
0000
0000
0001
0010
0000
0001
0000
,  // measure 6
0101
0000
0000
1000
0001
0000
0010
0000
0011
0000
0000
0001
1000
0000
0100
0000
,  // measure 7
1100
0000
0000
0010
0100
0000
0001
0000
1001
0000
0000
0100
0001
0000
0100
0000
,  // measure 8
0110
0000
0000
0000
0000
0000
0000
0000
0000
1000
0000
0000
0001
0000
0000
0000
0000
0000
1000
0000
0000
0000
0000
0000
0001
0000
0000
0000
0010
0000
0000
0000
0001
0000
0000
0000
1000
0000
0000
0000
0100
0000
0000
0000
1000
0000
0000
0000
,  // measure 9
0001
0000
1000
0100
1000
0000
0001
0000
2000
0000
0100
0000
0010
0000
3001
0000
,  // measure 10
0000
0000
0001
0010
0001
0000
1000
0000
0002
0000
0100
0000
0010
0000
1003
0000
,  // measure 11
0000
0000
1000
0001
1000
0000
0010
0000
0001
0000
0010
0000
1000
0000
0001
0000
,  // measure 12
1000
0100
1100
0000
0010
0001
0011
0000
,  // measure 13
1000
0000
0010
1000
0010
0000
0100
0000
0020
0000
1000
0000
0100
0000
0130
0000
,  // measure 14
0000
0000
0100
0001
0100
0000
0010
0000
0200
0000
0001
0000
0010
0000
0310
0000
,  // measure 15
0000
0000
0010
0100
0010
0000
1000
0000
0001
0000
0100
0000
0001
0000
1000
0000
,  // measure 16
0001
0100
0101
0000
0010
1000
1010
0000
,  // measure 17
1000
0000
0100
1000
0100
0000
0000
0000
0011
0000
0000
0000
1100
0000
0000
0000
,  // measure 18
0001
0000
0100
0001
0100
0000
0000
0000
1010
0000
0000
0000
0101
0000
0000
0000
,  // measure 19
1000
0000
0001
1000
0001
0000
0000
0000
1000
0000
0100
0000
0001
0000
0100
0000
,  // measure 20
1000
0001
1001
0000
0010
0100
0110
0000
,  // measure 21
0001
0000
0010
0001
0010
0000
0000
0000
0101
0000
0000
0000
0011
0000
0000
0000
,  // measure 22
1000
0000
0010
1000
0010
0000
0000
0000
1100
0000
0000
0000
1010
0000
0000
0000
,  // measure 23
0010
0000
0100
0010
0100
0000
0000
0000
0001
0000
0010
0000
1000
0000
0010
0000
,  // measure 24
0001
1000
0110
0000
0010
0100
1001
0000
,  // measure 25
0001
0000
0000
0011
0000
0000
1000
0000
0000
1100
0000
0000
0001
0000
0100
0000
0010
0000
1000
0000
0010
0000
0100
0000
,  // measure 26
0001
0000
1000
0100
0000
0000
0100
1000
0000
0000
0001
0000
1000
0100
1000
0000
,  // measure 27
0000
0000
0001
0010
0000
0000
0010
0001
0000
0000
1000
0000
0001
0010
0001
0000
,  // measure 28
1000
0000
0010
0100
0010
0000
1000
0000
0001
0000
0100
0010
0100
0000
0001
0000
,  // measure 29
1100
1001
0011
1001
,  // measure 30
0100
0000
0001
0100
0000
0000
0100
0001
0000
0000
0100
0000
0010
1000
0010
0000
,  // measure 31
0000
0000
1000
0010
0000
0000
0010
1000
0000
0000
0010
0000
0100
0001
0100
0000
,  // measure 32
0001
0000
0010
0100
0010
0000
0001
0000
1000
0000
0100
0010
0100
0000
1000
0000
,  // measure 33
0101
0000
1010
0000
0010
0100
0010
0100
,  // measure 34
0110
0000
0001
0100
0000
0000
0010
1000
0000
0000
0001
0000
1000
0100
0010
0000
,  // measure 35
0100
0000
1000
0100
0000
0000
0010
0001
0000
0000
1000
0000
0001
0010
0100
0000
,  // measure 36
0010
0000
0001
1000
0001
0000
0010
0000
0100
0000
1000
0001
1000
0000
0100
0000
,  // measure 37
1010
0110
0101
0110
,  // measure 38
0010
0000
1000
0010
0000
0000
0100
0001
0000
0000
0010
0000
0001
0100
0010
0000
,  // measure 39
0100
0000
0001
0010
0000
0000
0100
1000
0000
0000
0100
0000
1000
0010
0100
0000
,  // measure 40
0010
0000
0100
0001
0100
0000
0010
0000
0100
0000
0010
1000
0010
0000
0100
0000
,  // measure 41
0011
0101
1010
1100
,  // measure 42
1001
0120
0130
1001
,  // measure 43
2010
3001
1002
0103
,  // measure 44
1000
0100
1000
0100
0010
0001
0010
0001
1000
0010
1000
0010
0100
0001
0100
0002
,  // measure 45
2000
0000
0000
0000
,  // measure 46
3003
0000
0000
0000
;
