#TITLE:Mermaid girl;
#SUBTITLE:;
#ARTIST:Cream puff;
#TITLETRANSLIT:;
#SUBTITLETRANSLIT:;
#ARTISTTRANSLIT:;
#CREDIT:hooky;
#MENUCOLOR:#00FF00;
#METERTYPE:DDR X;
#BANNER:;
#BACKGROUND:;
#LYRICSPATH:;
#CDTITLE:;
#MUSIC:Mermaid girl.ogg;
#OFFSET:-0.420;
#SAMPLESTART:59.920;
#SAMPLELENGTH:17.280;
#SELECTABLE:YES;
#DISPLAYBPM:140.000;
#BPMS:0.000=140.000,204.000=70.000,212.000=140.000;
#STOPS:;
#BGCHANGES:;

//---------------dance-single - hooky----------------
#NOTES:
     dance-single:
     hooky:
     Hard:
     8:
     0.553,0.638,0.106,0.229,0.172:
0000
0000
0000
0000
,
0000
0000
0000
0000
0000
0000
1000
0100
,
1000
0000
0100
1000
0000
0000
0100
0000
0010
0000
0100
0000
0010
0000
0000
0000
,
0001
0010
0100
0010
0001
0010
0100
0000
,
0100
0000
0010
0100
0000
0100
0001
0000
0010
0000
0001
0000
0010
0000
0000
0000
,
0100
0010
0001
0010
0100
0000
0001
0010
,
0001
0000
0010
0001
0000
0000
0010
0000
0100
0000
0010
0000
0100
0000
0000
0000
,
1000
0100
0010
0100
1000
0100
0010
0000
,
0010
0000
0100
0010
0000
0010
1000
0000
0100
0000
1000
0000
0100
0000
0000
0000
,
0010
0000
0100
1000
0000
0100
0010
0000
0100
0000
0001
0000
0020
0000
0000
0000
,
0130
0100
0010
0001
0010
0100
0010
0000
,
1000
0100
1000
0100
0010
0100
0010
0000
,
0001
0000
0001
0010
0000
0010
0100
0000
0010
0000
0100
0000
1000
0000
0000
0000
,
0100
1000
0010
0001
0200
0000
0010
0310
,
1000
0100
1000
0010
0100
0001
0100
0000
,
0010
0100
0010
0001
0010
1000
0100
0000
,
0100
0000
0010
0001
0000
0100
1000
0000
0010
0000
0100
0000
0001
0000
0000
0000
,
1000
0000
0010
0100
0000
1000
0001
0000
0010
0000
0100
0000
0010
0000
0000
0000
,
2000
0000
0002
0000
3003
0000
1000
0100
,
1000
0000
0010
0001
0010
0000
0100
0000
,
0010
0100
0010
0001
0000
1000
0100
1000
,
0010
0100
0010
0000
0001
0010
0001
0000
,
1000
0100
0010
0100
0000
1000
1000
0100
,
0010
0001
0010
0000
0100
0010
1000
0000
,
0100
0010
0100
0001
0200
0000
0310
0000
,
1000
0100
1000
0000
0010
0001
0010
0000
,
0100
0010
0001
0010
0000
1000
0100
0000
,
0010
0100
0010
1000
0100
0010
0100
0000
,
0001
0010
0001
0200
0000
0010
0310
0001
,
0010
0000
1000
0000
0100
0010
0100
0000
,
0001
0000
0010
0000
0001
0010
0100
0000
,
0100
0010
0100
1000
0100
1000
0100
0010
,
0200
0000
0002
0300
2000
0000
3003
0100
,
0010
0000
0100
1000
0100
0000
0010
0000
,
0220
0000
0000
0000
0000
0330
0001
0010
,
0100
0000
0100
0010
0000
0000
1000
0000
0100
0000
1000
0000
0100
0000
0000
0000
,
0010
0001
0010
0100
0010
0100
1000
0000
,
0100
0000
0100
0010
0000
0010
0100
0000
0001
0000
0010
0000
0001
0000
0000
0000
,
1000
0100
0010
0100
1000
0000
0100
0001
,
0010
0000
0100
0001
0000
0000
0100
0000
0010
0000
0100
0000
0010
0000
0000
0000
,
1000
0100
0010
0100
1000
0100
0010
0000
,
0001
0000
1000
0100
0000
0100
1000
0000
0010
0000
0100
0000
0010
0000
0000
0000
,
0001
0000
0010
0100
0000
1000
0100
0000
0010
0000
0001
0000
0011
0000
0000
0000
,
1000
0100
1000
0100
0010
0100
0010
0000
,
0001
0010
0001
0010
0100
0010
0100
0000
,
1000
0000
0100
0010
0000
0010
0100
0000
0001
0000
0010
0000
0001
0000
0000
0000
,
1000
0100
0010
0100
2020
0000
3030
0000
,
0001
0100
0010
0100
0010
1000
0100
0000
,
0100
0010
1000
0100
0001
0010
0001
0000
,
0100
0000
0010
0100
0000
0100
0010
0000
0001
0000
0010
0000
0001
0000
0000
0000
,
1000
0000
0100
0010
0000
0001
0010
0000
1000
0000
0100
0000
2200
0000
0000
0000
,
3300
1000
0100
0000
0010
0001
0010
0000
0000
0010
0100
0010
0000
1000
0100
1000
,
0200
0320
0032
2003
3200
0000
0020
0330
,
1000
0100
1000
0010
0100
0010
0100
0001
,
0020
0000
0230
0000
2000
0000
3300
1000
,
0110
0010
1001
1000
,
0220
0000
0000
0330
,
1000
0000
1000
0000
1001
0000
0100
0010
,
0100
0000
1000
0001
0000
0000
0100
0000
0010
0000
0100
0000
0010
0000
0000
0000
,
1000
0100
1000
0010
0001
0010
0100
0000
,
0100
0000
0010
0001
0000
1000
0010
0000
0100
0000
0010
0000
0100
0000
0000
0000
,
1000
0100
0010
0100
1000
0000
0100
0010
,
0001
0000
0001
0010
0000
0000
0001
0000
0010
0000
0100
0000
0010
0000
0000
0000
,
1000
0100
0010
0001
0010
0100
1000
0000
,
1001
0000
1000
0010
0000
0001
0100
0000
0010
0000
0100
0000
0110
0000
0000
0000
,
0110
0000
1000
0100
0000
0010
0001
0000
0100
0000
0010
0000
0110
0000
0000
0000
,
2002
0000
0000
0000
,
0000
0000
0000
3003
;

//---------------dance-single - hooky----------------
#NOTES:
     dance-single:
     hooky:
     Medium:
     6:
     0.332,0.388,0.074,0.164,0.000:
0000
0000
0000
0000
,
0000
0000
0000
0000
,
1000
1000
0100
0000
,
0010
0010
0001
0000
,
0100
0000
0010
0000
0100
0010
0100
0000
,
1000
0100
0010
0000
,
0001
0100
0010
0010
,
1000
0100
1000
1000
,
0010
0000
1000
0000
0010
1000
0010
0000
,
0001
0000
0100
0000
0001
0100
0001
0000
,
0100
0100
0010
0010
,
0100
1000
2000
3000
,
0001
1000
0010
0010
,
0100
0010
0220
0330
,
1000
0100
1000
1100
,
0001
0010
0001
0101
,
0010
0100
0010
0100
,
1000
0001
1000
0001
,
2002
0000
0000
3003
,
0100
0010
1000
0010
,
0100
0000
0100
0001
0010
0000
0001
0000
,
1000
0100
0010
1000
,
0010
1000
0010
0000
0100
0000
0100
0000
,
0010
0000
1000
0000
0100
1000
0100
0000
,
0010
0000
0001
0000
0010
0001
0010
0000
,
0001
0100
0010
1000
,
0100
0100
1000
0000
,
0100
1000
0100
0000
0010
0000
0010
0000
,
0001
0100
0001
0000
1000
0000
0000
0001
,
0100
0010
1000
0100
,
1000
0000
1000
0000
,
0010
0100
0010
0000
0001
0000
0100
0000
,
0010
1000
0010
0000
1000
0000
0000
0100
,
0100
0010
0100
0001
,
2002
3003
0220
0330
,
1001
1000
0010
0100
,
0001
1000
0100
0100
,
1000
0000
0010
0000
1000
0010
1000
0000
,
0100
0001
0010
0000
,
0001
0100
0010
1000
,
0100
1000
0010
0100
,
0001
0100
0001
0000
0010
0000
0001
0000
,
1000
0010
1000
0000
0100
0000
0100
0000
,
0010
0100
0010
1000
,
0200
0000
2000
3300
,
0001
0010
0001
0100
,
0020
0000
0200
0330
,
0001
0010
0001
0100
,
0010
1000
0100
1000
,
1000
0100
1000
0000
0100
0000
0100
0000
,
0010
0000
0010
0000
0001
0010
0001
0000
,
0100
0100
0010
0100
,
0010
0100
1000
0100
0020
0000
0030
0000
,
0100
0010
1000
0100
,
1000
0100
1000
0000
0001
0000
0000
0000
,
0100
0010
0100
0001
,
0020
0000
0002
0033
,
0220
0000
0000
0330
,
1000
0100
1000
0100
,
0010
0001
0100
0010
,
1000
0010
1000
0000
0100
0000
0100
0000
,
0001
0010
0001
0000
0001
0000
0001
0000
,
0100
0010
1000
0100
,
1000
0010
1000
0001
,
0001
0100
0001
0000
1000
0000
1000
0000
,
0010
0100
0010
0000
1000
0000
0100
0000
,
2002
0000
0000
0000
,
0000
0000
0000
3003
;

//---------------dance-single - hooky----------------
#NOTES:
     dance-single:
     hooky:
     Easy:
     4:
     0.283,0.388,0.156,0.246,0.000: // measure 1
0000
0000
0000
0000
,  // measure 2
0000
0000
0000
0000
,  // measure 3
1000
0000
1000
0000
,  // measure 4
0100
0000
0000
0000
,  // measure 5
0001
0000
0001
0000
,  // measure 6
0010
0000
0000
0000
,  // measure 7
0100
0000
0010
0000
,  // measure 8
0100
0000
0010
0000
,  // measure 9
1000
0000
0001
0000
,  // measure 10
1000
0000
0001
0000
,  // measure 11
0100
0010
1000
0000
,  // measure 12
0001
0100
0010
0000
,  // measure 13
1000
1000
1100
0000
,  // measure 14
0001
0001
0011
0000
,  // measure 15
0100
0010
1000
0000
,  // measure 16
1000
0100
0010
0000
,  // measure 17
0001
0100
0202
0303
,  // measure 18
1000
0100
2200
3300
,  // measure 19
0220
0000
0000
0330
,  // measure 20
1000
0100
1000
0010
,  // measure 21
0100
0001
0000
0100
,  // measure 22
0010
1000
0100
1000
,  // measure 23
0100
0010
0000
0001
,  // measure 24
0100
0010
1000
0100
,  // measure 25
1000
1000
0010
0000
,  // measure 26
0001
0100
0010
1000
,  // measure 27
0100
1000
1000
0000
,  // measure 28
0010
0100
0001
0001
,  // measure 29
1000
0100
0220
0330
,  // measure 30
0100
0010
1000
0100
,  // measure 31
1000
0000
1000
0000
,  // measure 32
0001
0100
0010
1000
,  // measure 33
0100
1000
2002
3003
,  // measure 34
0100
0010
0100
0010
,  // measure 35
2000
0000
0002
3003
,  // measure 36
0110
1000
0100
1000
,  // measure 37
0010
0000
0100
0000
,  // measure 38
0001
0100
0010
0000
,  // measure 39
1000
0100
0010
0000
,  // measure 40
0001
0100
0010
0010
,  // measure 41
1000
0100
1000
0000
,  // measure 42
0010
0100
0001
0001
,  // measure 43
1000
0010
0100
0110
,  // measure 44
1001
0100
0010
0100
,  // measure 45
2002
0000
0000
3003
,  // measure 46
0100
0010
1000
0100
,  // measure 47
2200
0000
0000
3300
,  // measure 48
0001
0010
0001
0100
,  // measure 49
0010
1000
0100
0010
,  // measure 50
1000
1000
1000
0000
,  // measure 51
0001
0001
0001
0000
,  // measure 52
0100
0010
1000
0100
,  // measure 53
1000
0010
0110
0001
,  // measure 54
0100
0010
1000
0000
,  // measure 55
0100
0001
0010
0000
,  // measure 56
0100
0010
1000
0100
,  // measure 57
2000
0000
0002
3003
,  // measure 58
0220
0000
0000
0330
,  // measure 59
1000
0100
1000
1100
,  // measure 60
0001
0010
0202
0303
,  // measure 61
1000
0100
0020
0030
,  // measure 62
0001
0100
2000
3000
,  // measure 63
0100
0010
0220
0330
,  // measure 64
1000
0100
2200
3300
,  // measure 65
0001
0001
0010
0010
,  // measure 66
0100
0100
1000
1000
,  // measure 67
2002
0000
0000
0000
,  // measure 68
0000
0000
0000
3003
;

//---------------dance-single - hooky----------------
#NOTES:
     dance-single:
     hooky:
     Beginner:
     1:
     0.101,0.189,0.025,0.000,0.000:
0000
0000
0000
0000
,
0000
0000
0000
0000
,
0000
0000
0000
0000
,
0000
0000
0000
0000
,
0000
0000
0000
0000
,
0000
0000
0000
0000
,
1000
0000
0000
0000
,
0000
0000
0000
0000
,
0001
0000
0000
0000
,
0000
0000
0000
0000
,
0100
0000
0100
0000
,
0100
0000
0000
0000
,
0010
0000
0010
0000
,
0010
0000
0000
0000
,
1000
0000
1000
0000
,
1000
0000
0000
0000
,
0001
0000
0001
0000
,
0001
0000
0000
0000
,
1001
0000
0000
0000
,
1000
0000
0000
0000
,
1000
0000
0000
0000
,
1000
0000
0000
0000
,
1000
0000
0000
0000
,
0001
0000
0000
0000
,
0001
0000
0000
0000
,
0001
0000
0000
0000
,
0001
0000
0000
0000
,
0100
0000
0000
0000
,
0000
0000
0000
0000
,
0010
0000
0010
0000
,
0010
0000
0000
0000
,
1000
0000
0000
0000
,
0000
0000
0000
0000
,
0001
0000
0001
0000
,
0001
0000
0000
0000
,
1000
1000
1000
0000
,
0100
0000
0000
0000
,
0001
0001
0001
0000
,
0010
0000
0000
0000
,
0100
0100
0100
0000
,
1000
0000
0000
0000
,
0010
0010
0010
0000
,
0001
0000
0000
0000
,
0100
0000
0100
0000
,
0100
0000
0000
0000
,
0010
0000
0010
0000
,
0010
0000
0000
0000
,
1000
0000
1000
0000
,
1000
0000
0000
0000
,
0001
0000
0001
0000
,
0001
0000
0000
0000
,
1000
0000
0000
0000
,
0001
0000
0000
0000
,
0100
0000
0000
0000
,
0100
0000
0000
0000
,
0010
0000
0000
0000
,
0010
0000
0000
0000
,
1001
0000
0000
0000
,
1000
0000
1000
0000
,
1000
0000
0000
0000
,
0001
0000
0001
0000
,
0001
0000
0000
0000
,
0100
0100
0100
0000
,
0010
0010
0010
0000
,
1000
0000
0100
0000
,
0010
0000
0001
0000
,
1001
0000
0000
0000
;
