#TITLE:Kind Lady;
#SUBTITLE:(Future Trance Mix);
#ARTIST:Sota Fujimori;
#TITLETRANSLIT:;
#SUBTITLETRANSLIT:;
#ARTISTTRANSLIT:;
#CREDIT:;
#BANNER:Kind Lady.png;
#BACKGROUND:Kind Lady-bg.png;
#LYRICSPATH:;
#CDTITLE:;
#MUSIC:Kind Lady (Future Trance Mix).mp3;
#OFFSET:-6.790;
#SAMPLESTART:57.490;
#SAMPLELENGTH:13.520;
#SELECTABLE:YES;
#BPMS:0.000=142.000;
#STOPS:;
#BGCHANGES:;

//---------------dance-single - ----------------
#NOTES:
     dance-single:
     :
     Hard:
     8:
     0.525,0.550,0.281,0.330,0.242: // measure 1
2002
0000
0000
3003
,  // measure 2
0002
0000
0000
0203
0000
0000
0320
0000
,  // measure 3
2030
0000
0000
0000
,  // measure 4
3002
0000
0000
0023
0000
0000
0130
0000
,  // measure 5
2002
0000
0000
0000
,  // measure 6
0000
0000
0000
3003
,  // measure 7
1000
0000
0100
0000
1000
0000
0000
0001
0000
0000
0010
0000
0001
0000
0000
0000
,  // measure 8
1000
0010
0100
0001
0010
0000
0110
0000
,  // measure 9
0100
0000
1000
0000
0001
0000
0000
1000
0000
0000
0001
0000
0100
0000
0010
0000
,  // measure 10
1000
0000
0000
1001
0000
0000
0202
0000
0000
0000
0000
0000
0303
0000
0000
0000
,  // measure 11
0001
0000
0100
0000
1000
0000
0100
0000
0001
0000
0000
1000
0000
0000
0001
0000
,  // measure 12
0010
0001
0100
0010
0100
0001
1000
0000
,  // measure 13
0001
0000
0100
0000
1000
0000
0000
0000
1000
0000
0000
0100
0000
0000
0001
0000
,  // measure 14
1000
0000
0000
0100
0000
0000
2200
0000
0000
0000
0000
0000
3300
0000
0000
0000
,  // measure 15
0100
0010
0001
1000
0001
0000
0101
0000
,  // measure 16
0100
0010
1000
0100
0010
0100
1000
0001
,  // measure 17
0100
0000
0000
0000
0010
0000
1000
0002
0000
0000
1000
0000
1003
0000
0100
0000
,  // measure 18
0010
0000
0000
0110
0000
0000
2002
0000
0000
0000
0000
0000
3003
0000
0000
0000
,  // measure 19
1000
0000
0010
0000
0100
0000
0010
0000
1000
0000
0000
0001
0000
0000
1000
0000
,  // measure 20
0100
0010
0000
0000
0001
0000
0010
0000
0100
0000
0010
0000
0001
0000
1000
0000
,  // measure 21
0001
0000
0000
0000
0100
0000
0010
0000
0100
0000
0000
0001
0000
0000
0100
0000
,  // measure 22
0010
0000
0000
1000
0000
0000
2002
0000
0000
0000
0000
0000
3003
0000
0000
0000
,  // measure 23
0101
0000
0001
0000
0100
0000
0010
1000
0000
1000
0010
0000
0000
0100
0000
0000
,  // measure 24
0001
0000
1000
0000
0100
0000
0010
0001
0000
0001
0010
0000
0000
0001
0000
0000
,  // measure 25
1000
0000
0001
0000
0100
0000
0010
0100
0000
0100
0010
0000
0000
1000
0000
1000
,  // measure 26
0001
1000
0100
0020
0000
0001
0130
0000
,  // measure 27
0001
0000
1000
0000
0001
0000
0100
0001
0000
0100
0001
0000
0100
0001
0000
0001
,  // measure 28
1000
0000
0100
0000
0010
0000
0100
1000
0000
0100
1000
0000
0100
1000
0000
1000
,  // measure 29
0001
0000
0100
0000
0010
0000
1000
0001
0000
0001
1000
0000
1000
0100
0000
0100
,  // measure 30
0010
0001
0100
0010
0000
1001
1001
0000
,  // measure 31
1000
0000
0000
0100
0000
0000
0220
0000
0000
0000
0000
0000
0330
0000
0000
0000
,  // measure 32
0010
0000
0001
0000
0100
0010
0000
0100
0000
0010
0000
0000
0100
0000
0010
0000
,  // measure 33
2000
3200
0320
0032
,  // measure 34
1003
0000
0000
0001
0000
0000
2002
0000
0000
0000
0000
0000
3003
0000
0000
0000
,  // measure 35
1000
0010
0000
0010
0001
0000
0001
0010
,  // measure 36
1000
0000
0000
0001
0000
0000
2000
0000
0000
0000
3100
0000
0010
0000
0100
0000
,  // measure 37
1000
1000
0100
0100
0010
0001
0100
1000
,  // measure 38
0100
0010
1000
0001
0000
1000
0001
0100
,  // measure 39
0010
0000
1000
0000
0001
0000
1000
0001
0000
0000
1000
0000
0100
0000
0010
0000
,  // measure 40
0000
0011
0000
0110
0000
1100
0000
0000
,  // measure 41
1000
0010
0001
0010
1000
0010
0100
0010
,  // measure 42
1000
0000
0000
0001
0000
0000
2001
0000
0000
0000
0000
0000
0010
0000
3010
0000
,  // measure 43
0000
1000
0010
0100
0001
0000
0010
0001
,  // measure 44
1000
0000
0000
0001
0000
0000
0202
0000
0000
0000
0000
0000
0303
0000
0000
0000
,  // measure 45
0001
0100
1000
0100
0001
0100
0010
0100
,  // measure 46
0001
0000
0000
1000
0000
0000
1100
0000
0000
0000
0000
0000
0100
0000
0010
0000
,  // measure 47
1001
0000
0010
0100
1001
0000
1000
0100
,  // measure 48
0010
0001
0100
1000
0100
0010
1000
0001
,  // measure 49
0110
0000
0001
1000
0110
0000
0010
0001
,  // measure 50
1000
0000
0001
0000
1000
0100
0000
0022
0000
0000
0000
0000
0033
0000
0000
0000
,  // measure 51
0001
0000
0100
0000
0000
1000
0100
0000
0001
0000
0100
0000
0000
0000
0010
0000
,  // measure 52
0100
1000
0100
0010
1000
0001
1000
0100
,  // measure 53
0010
0011
0000
0100
0010
1010
0000
1000
,  // measure 54
0100
0000
0010
0000
0001
1000
0000
0001
0000
1000
0001
0000
0010
0000
0100
0000
,  // measure 55
1001
0000
0000
0000
;

//---------------dance-single - ----------------
#NOTES:
     dance-single:
     :
     Medium:
     5:
     0.388,0.340,0.204,0.204,0.000: // measure 1
2002
0000
0000
3003
,  // measure 2
2000
0000
0000
3002
0000
0000
0103
0000
,  // measure 3
0200
0000
0000
0000
,  // measure 4
0320
0000
0000
2000
0000
0000
3030
0000
,  // measure 5
2002
0000
0000
0000
,  // measure 6
0000
0000
0000
3003
,  // measure 7
1001
0000
0001
0100
0001
0000
0000
0000
,  // measure 8
1000
0000
0001
0000
1000
0100
1000
0000
,  // measure 9
0001
0000
0010
0100
0010
0000
0000
0000
,  // measure 10
0100
1000
2002
3003
,  // measure 11
0001
0100
0010
0000
0100
0010
1000
0000
,  // measure 12
0001
0000
1000
0000
0100
0010
0100
0000
,  // measure 13
0010
0001
1000
0000
0001
1000
0010
0000
,  // measure 14
1000
0001
2002
3003
,  // measure 15
1000
0010
0100
0001
0100
0000
0000
0000
,  // measure 16
0001
0010
0100
1000
,  // measure 17
0100
0000
0010
0100
0010
0000
0000
0000
,  // measure 18
0001
1000
2002
3003
,  // measure 19
1000
0010
1000
0000
0001
0010
0001
0000
,  // measure 20
1000
0000
0100
0000
0010
0100
1000
0000
,  // measure 21
0001
0100
0010
0000
0100
0010
1000
0000
,  // measure 22
0001
1000
2002
3003
,  // measure 23
1000
0100
1000
0000
0001
0000
0101
0000
,  // measure 24
0100
0010
0100
0000
0010
0000
1010
0000
,  // measure 25
1000
0100
0001
0000
0100
0000
1100
0000
,  // measure 26
1000
0001
0100
0000
0010
0100
0001
0000
,  // measure 27
0010
0001
0100
0000
0010
0000
1010
0000
,  // measure 28
1000
0100
0010
0000
0100
0000
0011
0000
,  // measure 29
0001
0100
1000
0000
0100
0000
0110
0000
,  // measure 30
0010
1000
0001
1000
0000
0001
1000
0000
,  // measure 31
0001
0000
0010
0000
0001
0000
1000
0001
,  // measure 32
1000
0000
0010
0000
0100
0000
0010
0100
,  // measure 33
0010
0000
1000
0010
1000
0000
0001
0010
,  // measure 34
0001
1000
2200
3300
,  // measure 35
0100
0010
0000
0010
0100
0000
0010
0000
,  // measure 36
0001
0000
1000
0000
0010
0100
0010
0000
,  // measure 37
0100
0010
1000
0001
,  // measure 38
1000
0100
0010
0001
0000
0000
1001
0000
,  // measure 39
1000
0000
0010
0000
0100
0001
0100
0000
,  // measure 40
0000
0101
0000
0110
0000
1010
0000
0000
,  // measure 41
1000
0000
0100
0000
0010
0001
0100
0000
,  // measure 42
0010
0100
2002
3003
,  // measure 43
1000
0010
0000
0100
0001
0000
1000
0000
,  // measure 44
0100
0010
0001
1000
,  // measure 45
0001
0100
0001
0000
1000
0000
0010
0100
,  // measure 46
0010
0000
0100
0000
0001
1000
0100
0000
,  // measure 47
0110
0000
0010
0001
0010
0000
0001
1000
,  // measure 48
0001
1000
0010
0100
,  // measure 49
0001
0000
0100
0010
0100
0000
0010
1000
,  // measure 50
0010
1000
0100
0010
,  // measure 51
0100
1000
0000
1000
0100
0010
0000
0010
,  // measure 52
0100
0010
0001
1000
,  // measure 53
0001
0100
0000
0100
0010
1000
0000
1000
,  // measure 54
0010
0000
0100
0000
0001
1000
0001
0000
,  // measure 55
1001
0000
0000
0000
;

//---------------dance-single - ----------------
#NOTES:
     dance-single:
     :
     Easy:
     2:
     0.201,0.262,0.155,0.058,0.000: // measure 1
1001
0000
0000
0000
,  // measure 2
1000
0000
0100
0000
,  // measure 3
0110
0000
0000
0000
,  // measure 4
0010
0000
0001
0000
,  // measure 5
2002
0000
0000
0000
,  // measure 6
0000
0000
0000
3003
,  // measure 7
1001
0000
1000
0000
,  // measure 8
0001
0100
0001
0000
,  // measure 9
1000
0000
0100
0000
,  // measure 10
0010
0010
0010
0000
,  // measure 11
0001
0000
1000
0000
,  // measure 12
0001
1000
0001
0000
,  // measure 13
1000
0000
0010
0000
,  // measure 14
0100
0100
0100
0000
,  // measure 15
0010
0000
1000
0000
,  // measure 16
0001
1000
0001
0000
,  // measure 17
1000
0000
0100
0000
,  // measure 18
0010
0010
0010
0000
,  // measure 19
0100
0000
0010
0000
,  // measure 20
0001
0100
0001
0000
,  // measure 21
1000
0000
0010
0000
,  // measure 22
1000
1000
1000
0000
,  // measure 23
1001
0000
0001
0000
,  // measure 24
1000
0000
0100
0000
,  // measure 25
0010
0000
0100
0000
,  // measure 26
0010
0001
1000
0001
,  // measure 27
0100
0000
0010
0000
,  // measure 28
0100
0000
0010
0000
,  // measure 29
1000
0000
0001
0000
,  // measure 30
2002
0000
0000
3003
,  // measure 31
1000
1000
1000
0000
,  // measure 32
0001
0000
0100
0000
,  // measure 33
0010
0100
0010
0100
,  // measure 34
0010
0000
0100
0000
,  // measure 35
0001
0001
0001
0000
,  // measure 36
1000
0000
0100
0000
,  // measure 37
0010
0001
0010
0001
,  // measure 38
0010
0000
0001
0000
,  // measure 39
1000
0000
0000
0000
,  // measure 40
0001
0000
0100
0001
,  // measure 41
0100
0000
0000
0000
,  // measure 42
0001
0000
1000
0010
,  // measure 43
1000
0000
0010
0000
,  // measure 44
0100
0000
0010
0000
,  // measure 45
0100
0000
0001
0000
,  // measure 46
2002
0000
3003
0000
,  // measure 47
1001
0000
1001
0000
,  // measure 48
1000
0001
1000
0000
,  // measure 49
0110
0000
0110
0000
,  // measure 50
0010
0100
0010
0000
,  // measure 51
1010
0000
1010
0000
,  // measure 52
0001
0100
0001
0000
,  // measure 53
0011
0000
0011
0000
,  // measure 54
1000
0100
1000
1000
,  // measure 55
1001
0000
0000
0000
;

//---------------dance-single - ----------------
#NOTES:
     dance-single:
     :
     Beginner:
     1:
     0.134,0.183,0.078,0.000,0.000: // measure 1
1001
0000
0000
0000
,  // measure 2
1000
0000
0010
0000
,  // measure 3
1000
0000
0000
0000
,  // measure 4
0001
0000
0000
0000
,  // measure 5
1001
0000
0000
0000
,  // measure 6
0000
0000
0000
0000
,  // measure 7
0110
0000
0000
0000
,  // measure 8
0100
0000
0010
0000
,  // measure 9
1000
0000
0000
0000
,  // measure 10
0001
0000
0000
0000
,  // measure 11
1000
0000
0000
0000
,  // measure 12
0001
0000
0010
0000
,  // measure 13
0001
0000
0000
0000
,  // measure 14
1000
0000
0000
0000
,  // measure 15
0010
0000
0000
0000
,  // measure 16
0100
0000
0010
0000
,  // measure 17
0100
0000
0000
0000
,  // measure 18
0001
0000
0000
0000
,  // measure 19
1000
0000
0000
0000
,  // measure 20
0001
0000
0010
0000
,  // measure 21
0001
0000
0000
0000
,  // measure 22
1001
0000
0000
0000
,  // measure 23
0110
0000
0100
0000
,  // measure 24
0010
0000
1000
0000
,  // measure 25
0001
0000
1000
0000
,  // measure 26
0100
0000
0000
0000
,  // measure 27
0010
0000
0001
0000
,  // measure 28
1000
0000
0001
0000
,  // measure 29
0100
0000
0010
0000
,  // measure 30
1000
0000
0000
0000
,  // measure 31
0001
0001
0001
0000
,  // measure 32
1000
0000
0100
0000
,  // measure 33
0010
0000
0100
0000
,  // measure 34
1000
0000
0000
0000
,  // measure 35
0010
0010
0010
0000
,  // measure 36
0100
0000
0010
0000
,  // measure 37
1000
0000
0001
0000
,  // measure 38
1000
0000
0000
0000
,  // measure 39
1001
0000
0000
0000
,  // measure 40
1000
0000
0001
0000
,  // measure 41
0100
0000
0010
0000
,  // measure 42
0100
0100
0100
0000
,  // measure 43
0010
0000
0000
0000
,  // measure 44
1000
0000
0010
0000
,  // measure 45
1000
0000
0001
0000
,  // measure 46
0010
0010
0010
0000
,  // measure 47
0110
0000
0010
0000
,  // measure 48
0001
0000
0010
0000
,  // measure 49
0100
0000
1000
0000
,  // measure 50
0100
0000
1000
0000
,  // measure 51
0001
0000
1000
0000
,  // measure 52
0001
0000
1000
0000
,  // measure 53
0010
0000
0100
0000
,  // measure 54
0010
0000
0100
0000
,  // measure 55
0110
0000
0000
0000
;
