#TITLE:I Love Belarus;
#SUBTITLE:;
#ARTIST:Anastasiya Vinnikova;
#TITLETRANSLIT:;
#SUBTITLETRANSLIT:;
#ARTISTTRANSLIT:;
#CREDIT:;
#BANNER:;
#BACKGROUND:;
#LYRICSPATH:;
#CDTITLE:;
#MUSIC:I Love Belarus.mp3;
#OFFSET:-3.610;
#SAMPLESTART:46.590;
#SAMPLELENGTH:14.320;
#SELECTABLE:YES;
#BPMS:0.000=134.000;
#STOPS:;
#BGCHANGES:;

//---------------dance-single - ----------------
#NOTES:
     dance-single:
     :
     Hard:
     7:
     0.509,0.528,0.335,0.102,0.009:
0001
0000
1100
0000
0010
0100
0001
0000
,
1000
0100
0010
0001
0010
0100
0010
0001
,
0100
0000
1001
0000
0100
0010
1000
0000
,
0001
1000
1000
0100
0100
0010
0010
0100
,
0110
0000
0011
0000
1000
0001
0100
0000
,
0010
0100
0001
0100
0010
1000
0100
1000
,
0001
0000
1100
0000
0010
0001
0100
0000
,
0010
1000
1000
0001
0001
0010
0100
0010
,
1001
1000
0010
0100
,
0001
0100
0001
0000
1000
0000
1100
0000
,
0100
0000
0010
0000
0001
1000
0001
0000
,
1000
0010
0100
0010
0100
0001
0000
0001
,
1000
0000
0100
0000
0010
0001
0100
0000
,
0010
1000
0001
0000
1000
0000
1100
0000
,
0100
0010
0100
1000
0100
0000
0010
0000
,
0001
0100
1000
0000
0100
0000
0001
1000
,
1001
0000
0101
0000
0100
0010
1000
0000
,
0100
0010
0100
0000
0010
0000
0011
0000
,
0001
0100
0010
1000
0010
0100
0000
0100
,
0010
0000
1000
0000
0001
1000
0000
1000
,
0100
0000
0010
0001
0100
0000
0010
0000
,
1000
0001
1000
0000
0010
0000
1000
0000
,
0001
0010
0001
0000
1000
0000
0001
0000
,
1000
0010
0100
0001
1000
0100
0010
0001
,
1001
0000
1001
0000
1000
0010
0110
0000
,
0010
1000
0100
0010
0001
0001
1000
0000
,
0011
0000
1100
0000
1000
0001
0101
0000
,
0100
0100
0010
1000
0100
0010
0100
0000
,
0010
0001
0100
0010
0100
0000
0001
0000
,
1000
0100
1000
0001
0100
0000
0010
0000
,
0100
0010
1000
0000
0100
0010
0001
0000
,
1000
0001
1000
0001
0100
0010
0000
0010
,
1010
0000
0001
0010
0002
0000
0013
0000
,
0100
1000
0100
0001
0100
0000
1001
0000
,
1000
0010
0100
0001
0200
0000
0300
0000
,
0010
0000
1000
0001
1000
0000
0100
0000
,
0010
0001
0010
0100
2000
0000
3010
0000
,
0010
0100
0001
1000
0001
0000
0011
0000
,
1100
0000
0010
0001
0100
0000
0010
1000
,
0001
0100
0010
1000
0100
0001
0100
1000
,
2001
0000
3001
0000
0010
0100
0110
0000
,
0010
1000
0010
0000
0100
0000
0002
0000
2000
0000
0000
0000
3003
0000
1100
0000
,
2100
0000
3010
0000
0010
0100
0101
0000
,
1000
0001
1000
0000
0001
0000
0010
0000
0100
0000
1000
0000
0100
0000
0010
0000
,
0011
0000
0001
0100
0000
0100
0010
1000
,
0100
0001
0100
1000
0000
0001
0100
0000
,
0010
1000
0010
1000
0001
0010
0001
0000
,
1000
0100
0010
0001
0100
0000
0110
0000
,
1001
0000
1100
0000
0010
0001
0100
0000
,
0010
0010
1000
0001
2000
0000
3000
0000
,
0011
0000
1100
0000
0010
0001
0100
0000
,
0010
0010
0100
0001
0020
0000
0030
0000
,
0001
1000
0100
0010
0100
0000
0010
0000
,
0100
0010
0001
1000
0001
0000
0100
0000
,
0010
0100
0001
1000
0100
0010
0100
1000
,
0001
0100
0010
1000
0001
0000
1001
0000
,
0220
0000
0000
0000
0330
1001
1001
0000
;

//---------------dance-single - ----------------
#NOTES:
     dance-single:
     :
     Medium:
     5:
     0.377,0.396,0.419,0.102,0.000: // measure 1
1001
1001
1001
1001
,  // measure 2
1000
0010
0100
0001
,  // measure 3
0101
0101
0101
0101
,  // measure 4
0100
0010
1000
0100
,  // measure 5
1100
1100
0011
0011
,  // measure 6
0010
0001
0100
0010
,  // measure 7
0110
0110
1001
1001
,  // measure 8
1000
0100
0010
0100
,  // measure 9
0110
0000
0100
0000
,  // measure 10
1000
0100
0010
0001
,  // measure 11
0100
0000
0010
0000
,  // measure 12
0100
0010
1001
0000
,  // measure 13
1000
0100
0010
0001
,  // measure 14
0100
1000
0100
0001
,  // measure 15
1000
0000
0100
1000
0100
0000
0000
0000
,  // measure 16
0010
0001
0010
0000
0001
0000
0000
0000
,  // measure 17
1001
1000
0010
0100
,  // measure 18
0001
0100
0010
0100
,  // measure 19
0000
0010
0100
0001
,  // measure 20
1000
0100
0010
0000
,  // measure 21
0100
0010
0100
0010
,  // measure 22
0001
1000
0001
1000
,  // measure 23
0010
0000
0100
0001
0100
0000
0000
0000
,  // measure 24
0100
0000
0010
1000
0010
0000
0000
0000
,  // measure 25
1001
1001
1001
1001
,  // measure 26
1000
0000
0001
1000
0001
0000
0000
0000
,  // measure 27
0110
0110
0110
0110
,  // measure 28
0100
0000
0010
0100
0010
0000
0000
0000
,  // measure 29
0100
0000
0001
0000
0100
0001
0100
0000
,  // measure 30
0001
0000
1000
0100
1000
0000
0000
0000
,  // measure 31
0001
0000
1000
0000
0100
0010
0100
0000
,  // measure 32
0010
0000
0001
1000
0001
0000
0000
0000
,  // measure 33
1001
0000
1000
0001
1000
0000
0000
0000
,  // measure 34
0001
0100
0010
1000
,  // measure 35
1010
0000
0001
0100
0001
0000
0000
0000
,  // measure 36
0100
0001
1000
0100
,  // measure 37
1100
0000
0001
0010
0001
0000
0000
0000
,  // measure 38
1000
0000
0001
0000
0100
0010
0100
0000
,  // measure 39
0010
0000
1000
0000
0001
1000
0100
0000
,  // measure 40
0010
0000
0001
0010
0000
0100
1000
0000
,  // measure 41
2002
0000
3003
1001
,  // measure 42
0010
0100
0010
0200
0020
0000
0330
0000
,  // measure 43
0220
0000
0330
0110
,  // measure 44
0001
1000
0001
2000
0002
0000
3003
0000
,  // measure 45
1100
1001
0101
1001
,  // measure 46
1000
0100
0010
0001
0010
0000
0000
0000
,  // measure 47
0001
0100
0001
0000
0100
0000
0001
0000
,  // measure 48
1000
0000
0001
1000
0002
0000
0003
0000
,  // measure 49
1001
0000
1001
0000
1000
0001
1000
0000
,  // measure 50
0001
0000
0100
0010
0100
0000
0000
0000
,  // measure 51
0110
0000
0110
0000
0010
1000
0010
0000
,  // measure 52
1000
0000
0001
1000
0100
0000
0000
0000
,  // measure 53
0011
0000
0001
0000
1000
0001
1000
0000
,  // measure 54
0010
0000
0100
0010
0100
0000
0000
0000
,  // measure 55
0001
0000
0100
0000
0001
1000
0100
0000
,  // measure 56
0010
0000
0100
1000
0001
0000
0000
0000
,  // measure 57
2002
0000
3003
1001
;

//---------------dance-single - ----------------
#NOTES:
     dance-single:
     :
     Easy:
     3:
     0.250,0.343,0.214,0.130,0.000: // measure 1
1000
1000
0001
0001
,  // measure 2
0100
0000
0010
0000
,  // measure 3
0100
0100
0010
0010
,  // measure 4
1000
0000
0001
0000
,  // measure 5
1000
1000
0100
0100
,  // measure 6
0010
0000
0001
0000
,  // measure 7
0001
0001
0100
0100
,  // measure 8
0010
0000
1000
0000
,  // measure 9
1001
0000
0000
0000
,  // measure 10
1000
0001
0100
0000
,  // measure 11
0010
0000
0000
0000
,  // measure 12
0100
0010
1000
0000
,  // measure 13
0001
0000
1000
0000
,  // measure 14
0100
0010
0001
0010
,  // measure 15
0100
0000
0010
0000
,  // measure 16
0001
1000
0001
0000
,  // measure 17
1001
0000
0000
0000
,  // measure 18
1000
0010
1000
0001
,  // measure 19
0100
0000
0000
0000
,  // measure 20
0001
0010
0001
1000
,  // measure 21
0100
0000
0000
0000
,  // measure 22
0010
0100
0010
0001
,  // measure 23
1000
0000
0001
0000
,  // measure 24
2002
0000
3003
0000
,  // measure 25
0100
0100
0010
0010
,  // measure 26
1000
0001
1000
0000
,  // measure 27
0001
0001
1000
1000
,  // measure 28
0100
0010
0100
0000
,  // measure 29
0010
0001
1000
0100
,  // measure 30
0010
0100
1000
0000
,  // measure 31
0001
0100
0010
0100
,  // measure 32
1000
0100
0010
0000
,  // measure 33
1001
1001
1001
0000
,  // measure 34
1000
0100
0010
0000
,  // measure 35
0110
0110
0110
0000
,  // measure 36
0100
0010
0001
0000
,  // measure 37
1001
1001
1001
0000
,  // measure 38
0001
0100
0010
1000
,  // measure 39
2002
0000
0000
0000
,  // measure 40
0000
0000
0000
3003
,  // measure 41
0220
0000
0000
0330
,  // measure 42
0000
0000
0000
0000
,  // measure 43
2002
0000
0000
3003
,  // measure 44
0000
0000
0000
0000
,  // measure 45
1000
0000
0100
0000
,  // measure 46
0010
0001
0100
0000
,  // measure 47
0010
0100
0010
1000
,  // measure 48
0001
1000
0100
0000
,  // measure 49
0110
0110
0220
0330
,  // measure 50
0010
0001
1000
0000
,  // measure 51
1001
1001
2002
3003
,  // measure 52
0001
1000
0010
0000
,  // measure 53
0100
0010
0100
0010
,  // measure 54
1000
0010
1000
0000
,  // measure 55
0001
0010
0001
0010
,  // measure 56
0100
1000
0100
0000
,  // measure 57
2002
0000
3003
1001
;

//---------------dance-single - ----------------
#NOTES:
     dance-single:
     :
     Beginner:
     1:
     0.132,0.185,0.112,0.019,0.000: // measure 1
1001
0000
0000
0000
,  // measure 2
1000
0000
0001
0000
,  // measure 3
0100
0000
0000
0000
,  // measure 4
0010
0000
0100
0000
,  // measure 5
0001
0000
0000
0000
,  // measure 6
1000
0000
0100
0000
,  // measure 7
1000
0000
0000
0000
,  // measure 8
0001
0000
1000
0000
,  // measure 9
1001
0000
0000
0000
,  // measure 10
1000
0000
0000
0000
,  // measure 11
0010
0000
0000
0000
,  // measure 12
0100
0000
0001
0000
,  // measure 13
0100
0000
0000
0000
,  // measure 14
0001
0000
0000
0000
,  // measure 15
0010
0000
0000
0000
,  // measure 16
0001
0000
1000
0000
,  // measure 17
1001
0000
0000
0000
,  // measure 18
1000
0000
0000
0000
,  // measure 19
0010
0000
0000
0000
,  // measure 20
0100
0000
0010
0000
,  // measure 21
0100
0000
0000
0000
,  // measure 22
0001
0000
0000
0000
,  // measure 23
1000
0000
0100
0000
,  // measure 24
0010
0000
0001
0000
,  // measure 25
1001
0000
0000
0000
,  // measure 26
0100
0100
0100
0000
,  // measure 27
0110
0000
0000
0000
,  // measure 28
0010
0010
0010
0000
,  // measure 29
1000
0000
0100
0000
,  // measure 30
1000
0000
0000
0000
,  // measure 31
0001
0000
0010
0000
,  // measure 32
0001
0000
1000
0000
,  // measure 33
0001
0001
0001
0000
,  // measure 34
0100
0000
0010
0000
,  // measure 35
0100
0100
0100
0000
,  // measure 36
0010
0000
1000
0000
,  // measure 37
0010
0010
0010
0000
,  // measure 38
1000
0000
0100
0000
,  // measure 39
0220
0000
0000
0000
,  // measure 40
0330
0000
0000
0000
,  // measure 41
1001
0000
0000
0000
,  // measure 42
0000
0000
0000
0000
,  // measure 43
0110
0000
0000
0000
,  // measure 44
0000
0000
0000
0000
,  // measure 45
1001
0000
0000
0000
,  // measure 46
0000
0000
0000
0000
,  // measure 47
1000
0000
0000
0000
,  // measure 48
0001
0000
0000
0000
,  // measure 49
1001
0000
0000
0000
,  // measure 50
1000
0000
0010
0000
,  // measure 51
1000
0000
0000
0000
,  // measure 52
0001
0000
0100
0000
,  // measure 53
0001
0000
1000
0000
,  // measure 54
0100
0000
0010
0000
,  // measure 55
0001
0000
1000
0000
,  // measure 56
0001
0000
0100
0000
,  // measure 57
0110
0000
0000
0110
;
