#TITLE:GIVE IT UP (Radio Mix);
#SUBTITLE:;
#ARTIST:CAPTAIN JACK;
#TITLETRANSLIT:;
#SUBTITLETRANSLIT:;
#ARTISTTRANSLIT:;
#GENRE:;
#CREDIT:hooky;
#BANNER:GIVE IT UP (Radio Mix).png;
#BACKGROUND:GIVE IT UP (Radio Mix)-bg.png;
#LYRICSPATH:;
#CDTITLE:;
#MUSIC:GIVE IT UP (Radio Mix).ogg;
#OFFSET:-0.158;
#SAMPLESTART:49.280;
#SAMPLELENGTH:12.000;
#SELECTABLE:YES;
#DISPLAYBPM:127.000;
#BPMS:0.000=127.030
;
#STOPS:
;
#BGCHANGES:;
#KEYSOUNDS:;
#ATTACKS:;

//---------------dance-single - hooky----------------
#NOTES:
     dance-single:
     hooky:
     Hard:
     8:
     0.532,0.439,0.136,0.170,0.170,302.000,12.000,15.000,0.000,0.000,0.000,0.532,0.439,0.136,0.170,0.170,302.000,12.000,15.000,0.000,0.000,0.000: // measure 0
0000
0000
0000
0000
,  // measure 1
0000
0000
0000
0000
,  // measure 2
1000
0100
0000
1000
0100
0000
1000
0100
0000
1000
0100
0000
1000
0000
0100
0000
,  // measure 3
1000
0000
0110
0000
0010
0001
0100
0010
,  // measure 4
1000
0000
0100
0010
0200
0000
0310
1000
,  // measure 5
0000
0100
0010
0100
0002
2000
3003
0000
,  // measure 6
0001
0010
0000
0001
0010
0000
0001
0010
0000
0001
0010
0000
0001
0000
0010
0000
,  // measure 7
0001
0000
0110
0000
0100
1000
0010
0100
,  // measure 8
0001
0000
0010
0100
0020
0000
0130
0001
,  // measure 9
0000
0010
0100
0010
2000
0001
3001
0000
,  // measure 10
0100
0010
0100
1000
0100
0010
0100
0000
,  // measure 11
0001
0000
0010
0100
0010
0001
0010
0100
,  // measure 12
0010
0001
0010
0100
0010
0001
0010
2000
,  // measure 13
0000
0010
0000
0001
3000
0110
1001
0000
,  // measure 14
0010
0001
0010
0100
0010
0001
0010
0000
,  // measure 15
1000
1000
1100
0000
0001
0001
0011
0000
,  // measure 16
0000
0000
0010
0100
0000
0100
0010
0000
0010
0000
0000
1000
0000
0000
0200
0000
,  // measure 17
0001
0000
0010
0000
1300
1100
0011
0000
,  // measure 18
0100
0010
0001
0010
0001
0010
0100
0010
,  // measure 19
0100
1000
0100
2000
0020
0000
3030
0000
,  // measure 20
0100
0010
0001
0010
1000
0100
0010
0100
,  // measure 21
1000
0000
0010
0000
1000
0000
0001
0000
0100
0000
0000
0100
0000
0000
0100
0000
,  // measure 22
1000
0100
0010
0100
1000
0100
0010
0001
,  // measure 23
0100
0010
0001
0010
0100
0010
0001
0010
,  // measure 24
0100
0000
0000
0100
0000
0000
0100
0000
0010
0000
0000
0010
0000
0000
0010
0000
,  // measure 25
2100
0000
0010
0000
0100
0001
3001
0000
,  // measure 26
0001
0010
0000
0001
0010
0000
0001
0010
0000
0001
0010
0000
0001
0000
0010
0000
,  // measure 27
0001
0000
0110
0000
0100
1000
0010
0100
,  // measure 28
0001
0000
0010
0100
0020
0000
0130
0001
,  // measure 29
0000
0010
0100
0010
2000
0002
3003
0000
,  // measure 30
1000
0100
0000
1000
0100
0000
1000
0100
0000
1000
0100
0000
1000
0000
0100
0000
,  // measure 31
1000
0000
0110
0000
0010
0001
0100
0010
,  // measure 32
1000
0000
0100
0010
0200
0000
0310
1000
,  // measure 33
0000
0100
0010
0100
0002
1000
1003
0001
,  // measure 34
1000
0100
0010
0100
1000
0100
0010
0100
,  // measure 35
1000
0001
1000
0000
0100
1000
0001
0010
,  // measure 36
0100
0000
0010
0001
0010
0000
1000
0100
1000
0000
0100
0000
0010
0000
0001
0000
,  // measure 37
0010
0100
1000
0000
0100
0100
0100
0000
,  // measure 38
0100
1000
0100
0010
0100
1000
0100
0010
,  // measure 39
0100
0000
0100
0000
0001
0010
0001
0100
,  // measure 40
0010
0000
0001
0010
0001
0000
1000
0100
1000
0000
0100
0000
0000
0000
0010
0000
,  // measure 41
0000
0010
0100
0000
1000
1000
1000
0000
,  // measure 42
1000
0001
0000
1000
0001
0000
1000
0001
0000
1000
0001
0000
1000
0000
0001
0000
,  // measure 43
1000
0000
0110
0000
1000
0100
0010
0100
,  // measure 44
1000
0000
0010
0010
0001
0000
0000
0010
,  // measure 45
0000
0010
0001
0100
1000
0100
0000
0000
;

//---------------dance-single - hooky----------------
#NOTES:
     dance-single:
     hooky:
     Medium:
     6:
     0.359,0.362,0.102,0.374,0.000,180.000,9.000,33.000,0.000,0.000,0.000,0.359,0.362,0.102,0.374,0.000,180.000,9.000,33.000,0.000,0.000,0.000:
0000
0000
0000
0000
,
0000
0000
0000
0000
,
1000
0000
0010
0001
0010
0000
1000
0100
,
2000
0000
0002
3003
,
1000
0000
0100
0010
0100
0000
0000
0000
,
0001
0000
1000
0100
0020
0000
0030
0000
,
0001
0000
0100
1000
0100
0000
0001
0010
,
0002
0000
2000
3003
,
0001
0000
0010
0100
0010
0000
0000
0000
,
1000
0000
0001
0010
0200
0000
0300
0000
,
2000
0000
3100
0000
0010
0001
0010
0000
,
0100
0000
0010
0000
1000
0010
0100
0000
,
0001
0000
0001
0000
0010
0001
0010
0000
,
2002
0000
0000
3003
,
0020
0000
0130
0000
0010
0001
0010
0000
,
1000
1000
0100
0000
0010
0010
0001
0000
,
0100
0010
0100
0000
1000
0010
0001
0000
,
0220
0000
0000
0330
,
1000
0000
0100
0000
1000
0100
1000
0000
,
0020
0000
0002
0033
,
0010
0000
0001
0000
0001
0100
0010
0000
,
1000
0100
1000
0000
0020
0000
0030
0000
,
0100
0000
0010
0000
1000
0100
1000
0000
,
0010
0010
0001
0001
,
2000
3000
0020
0030
,
0100
0001
1000
0110
,
1001
0000
0100
0000
0010
0100
0010
0000
,
2200
3300
0022
0033
,
0100
0010
1000
0000
0100
0000
0100
0000
,
0002
0000
0200
0303
,
1001
0000
0010
0000
0100
0010
0100
0000
,
0022
0033
2200
3300
,
0010
0100
0001
0000
0010
0000
0010
0000
,
2000
0000
0020
3030
,
1000
0000
0100
0000
0010
0000
0100
0010
,
0100
0000
0001
0000
0010
0000
1000
0100
,
1000
0000
0010
0000
0100
0000
0010
0001
,
0010
0000
0001
0010
0001
0000
0100
0000
,
0100
0010
0001
0000
0010
0001
0010
0000
,
1000
0100
1000
0000
0010
0000
0010
0000
,
1000
0001
1000
0000
0100
0000
0100
0000
,
0010
0000
0010
0000
0001
0100
0010
0000
,
2000
0000
0200
3000
,
0020
0300
0002
0030
,
1003
0000
0100
0000
0010
0100
0010
0000
,
0001
0010
0001
0000
0100
1000
0000
0000
;

//---------------dance-single - hooky----------------
#NOTES:
     dance-single:
     hooky:
     Easy:
     3:
     0.275,0.414,0.215,0.249,0.000,129.000,19.000,22.000,0.000,0.000,0.000,0.275,0.414,0.215,0.249,0.000,129.000,19.000,22.000,0.000,0.000,0.000:
0000
0000
0000
0000
,
0000
0000
0000
0000
,
1000
0000
1000
0000
,
0001
0100
0010
0000
,
1000
1000
0001
0000
,
0200
0000
0020
0330
,
1000
1000
0001
0100
,
0110
0000
0001
0000
,
1000
0000
0001
0000
0101
0000
0000
2200
,
0000
0000
0000
3300
,
0010
0100
0010
1000
,
0100
1000
0001
0100
,
0010
0100
0001
0010
,
0001
0100
0010
1010
,
0101
1000
0100
0010
,
0001
0010
0001
0010
,
0001
0100
0010
0001
,
0100
1000
0100
0000
,
0101
1010
0001
0100
,
1000
0010
0220
0330
,
1000
0100
0010
0010
,
0001
0100
0001
0000
,
0100
0010
1000
0100
,
1000
1000
0001
0001
,
0202
0303
2020
3030
,
0022
0033
1100
1001
,
0010
0010
0100
0100
,
2002
3003
0220
0330
,
0010
0010
0100
0000
,
1000
0000
0001
0000
,
0001
0001
0010
0010
,
0022
0033
2200
3300
,
0010
1000
0100
0000
,
0001
0000
1000
0000
,
0001
0100
0001
0100
,
0010
0000
0010
0000
,
1000
0100
0001
0000
,
1000
0100
1000
0000
,
0001
0000
0100
0000
,
0010
0000
0010
0100
,
0001
1000
0100
0000
,
0010
0000
1000
0000
,
1001
0000
0100
0000
,
0010
0000
0100
0000
,
0100
0000
0000
0000
0001
0000
0000
2002
,
0000
0000
0000
3003
;

//---------------dance-single - hooky----------------
#NOTES:
     dance-single:
     hooky:
     Beginner:
     1:
     0.123,0.125,0.023,0.000,0.000,74.000,2.000,0.000,0.000,0.000,0.000,0.123,0.125,0.023,0.000,0.000,74.000,2.000,0.000,0.000,0.000,0.000:
0000
0000
0000
0000
,
0000
0000
0000
0000
,
0000
0000
0000
0000
,
0000
0000
0000
0000
,
0000
0000
0000
0000
,
0000
0000
0000
0000
,
1000
0000
1000
0000
,
0001
0000
0000
0000
,
0100
0000
0100
0000
,
0000
0000
0000
0000
,
1000
0000
0001
0000
,
0100
0000
0010
0010
,
1000
0000
0001
0000
,
1000
0000
0100
0010
,
0100
0000
0100
0000
,
0001
0000
0001
0000
,
1000
0100
1000
0000
,
0010
0000
0100
0000
,
0100
0000
0001
0000
,
1000
0000
0010
0000
,
1000
0000
0100
0000
,
1000
0000
0001
0000
,
1000
0000
0010
0000
,
0100
0000
0001
0000
,
1000
0000
0001
0000
,
0100
0000
0010
0000
,
1001
0000
0100
0000
,
0010
0000
1000
0000
,
0100
0000
0001
0000
,
0100
0000
0010
0000
,
0001
0000
1000
0000
,
0100
0000
0100
0000
,
0010
0000
0010
0000
,
0001
0000
0100
0000
,
0010
0000
0010
0000
,
0010
0000
0000
0000
,
0100
0000
0100
0000
,
0100
0000
0000
0000
,
1000
0000
0001
0000
,
1000
0000
0010
0000
,
0100
0010
0100
0000
,
1000
0000
0001
0000
,
1001
0000
0000
0000
,
0100
0000
0000
0000
,
0010
0000
0000
0000
;
