#TITLE:Fly;
#SUBTITLE:;
#ARTIST:Elisa;
#TITLETRANSLIT:;
#SUBTITLETRANSLIT:;
#ARTISTTRANSLIT:;
#CREDIT:;
#BANNER:bn.png;
#BACKGROUND:bg.png;
#LYRICSPATH:;
#CDTITLE:;
#MUSIC:Fly.mp3;
#OFFSET:-0.060;
#SAMPLESTART:39.680;
#SAMPLELENGTH:15.620;
#SELECTABLE:YES;
#BPMS:0.000=145.000;
#STOPS:;
#BGCHANGES:;

//---------------dance-single - ----------------
#NOTES:
     dance-single:
     :
     Hard:
     7:
     0.521,0.463,0.041,0.716,0.103:
0000
0000
0000
0000
,
0000
0000
0000
0000
,
0000
0000
0000
0000
,
0000
0000
0000
0000
,
1000
0000
0100
0000
0001
0000
0000
0100
0000
0000
1000
0000
0010
0000
0100
0000
,
0001
0000
0000
0010
0000
0000
0100
0000
1000
0000
0000
0010
0000
0000
0100
0000
,
0001
0000
0010
0000
0100
0000
0000
1000
0000
0000
0010
0000
1000
0000
0100
0000
,
0001
0000
0000
0100
0000
0000
1000
0000
0010
0000
0000
0100
0000
0000
0001
0000
,
0010
0100
1000
0100
0020
0000
0031
0100
,
0000
0010
1000
0001
0010
0002
0000
2003
,
0000
3200
0000
1300
0010
0000
0100
0002
,
0000
0023
0000
0032
0000
0103
0010
0000
,
1000
0100
0010
0001
0200
0000
0310
1000
,
0100
0000
0010
0002
0000
0203
0000
0320
,
0000
2030
0000
3200
0000
0320
0000
0031
,
1000
0100
0000
0001
0100
1000
0000
0010
,
0110
0000
0100
0001
0010
0002
0000
0103
,
0010
0000
1000
0100
0001
0100
1000
0020
,
0000
0031
0010
0000
1000
0100
0010
0002
,
0000
0103
0010
2000
0000
3010
0100
0002
,
0000
0023
0000
0230
0000
2300
0000
3002
,
0000
0023
0000
0032
0000
0103
0010
0200
,
0000
0302
0000
2003
0000
3200
0000
0310
,
0001
0000
0100
0000
0010
0000
1000
0000
0100
0000
0000
1000
0000
0000
0010
0000
,
0210
0000
0010
0000
0001
0000
0310
1000
,
0020
0000
0130
0002
0000
2003
0000
3100
,
0010
0000
0001
0000
0100
0000
0000
0010
0000
0000
1000
0000
0100
0000
0001
0000
,
0200
0000
1300
0020
0000
0230
0000
0301
,
0010
0000
0001
0000
0100
0000
0000
0010
0000
0000
1000
0000
0001
0000
0200
0000
,
0000
0320
0000
2030
0000
3002
0000
0013
,
0001
0000
0100
0000
0010
0000
0000
1000
0000
0000
0100
0000
0001
0000
0100
0000
,
1000
0000
0010
0000
0100
0000
0000
0001
0000
0000
0010
0000
0001
0000
0100
0000
,
0120
0000
1000
0000
0100
0000
1030
0010
,
0200
0000
0301
0020
0000
0032
0000
0103
,
0010
0000
1000
0000
0001
0000
0000
0010
0000
0000
0001
0000
1000
0000
0100
0000
,
2000
0000
3010
0200
0000
0302
0000
0013
,
0001
0000
1000
0000
0100
0000
0000
1000
0000
0000
0001
0000
0100
0000
0002
0000
,
0000
0023
0000
0230
0000
2300
0000
3010
,
0100
0000
0001
0000
0010
0000
0000
0001
0000
0000
0100
0000
0010
0000
1000
0000
,
0100
0000
0001
0000
0100
0000
0000
1000
0000
0000
0010
0000
0100
0000
0001
0000
,
2000
0000
0000
0000
,
0000
0000
0000
0000
,
3000
0000
0000
0000
;

//---------------dance-single - ----------------
#NOTES:
     dance-single:
     :
     Challenge:
     9:
     0.887,0.867,0.124,1.000,0.392:
0000
0000
0000
0000
,
0000
0000
0000
0000
,
0000
0000
0000
0000
,
0000
0000
0000
0000
,
1000
0100
1000
0100
1000
0000
0100
0010
0000
0010
0001
0000
0100
0000
0010
0000
,
2000
0000
0000
3002
0000
0000
0023
0000
0032
0000
0000
0203
0000
0000
0320
0000
,
1030
0010
1000
0010
1000
0000
0010
0100
0000
0100
0001
0000
0010
0000
0001
0000
,
2000
0000
0000
3200
0000
0000
0301
0000
0101
0000
0000
1100
0000
0000
1010
0000
,
0020
0230
0302
0023
0032
1003
0020
2030
,
3001
0020
0032
0203
0320
2030
3001
0020
,
0031
0200
0310
2000
3002
0013
0200
2300
,
3010
2000
3001
0020
0031
0200
0310
1000
,
0002
0023
2030
3020
0032
0103
0020
2030
,
3001
0020
0032
0203
0310
2000
3100
0020
,
0031
2000
3010
0200
0301
2000
3100
0020
,
0031
0000
1000
0100
0000
1000
0002
0000
0023
0000
0032
0000
0103
0000
0010
0000
,
0120
0130
0020
2030
3002
0023
0031
0200
,
0310
1000
0200
0302
0203
2300
3020
0230
,
0301
0020
0031
0100
0020
2030
3200
0302
,
0103
2000
3010
1010
0010
0200
0302
0023
,
0130
2000
3010
0200
0301
0020
0031
0200
,
0310
2000
3001
0010
0001
2000
3200
0302
,
0103
2000
3010
2000
3100
0002
0013
0002
,
0103
0000
0010
0000
1000
0000
0001
0000
1001
0000
0000
1100
0000
0000
1001
0000
,
1000
0010
1000
0001
0010
0000
0001
0100
0000
0010
1000
0000
0100
0000
0010
0000
,
0002
0103
0020
2030
3100
0020
0031
2000
,
3010
0100
0001
0100
0010
0000
1000
0001
0000
0010
0001
0000
1000
0000
0020
0000
,
0230
0301
0020
0032
0103
0020
1030
0200
,
1300
0001
0010
0001
1000
0000
0010
1000
0000
0100
2000
0000
3002
0000
0203
0000
,
0310
2000
3001
0020
0031
0200
0310
2000
,
3001
0010
0001
0100
0010
0000
1000
0100
0000
1000
0001
0000
0010
0000
0001
0000
,
0100
0010
1000
0010
0100
0000
0001
0010
0000
0100
1000
0000
1001
0000
1000
0000
,
0010
0100
0001
0100
0010
0000
1000
0100
0000
0010
0001
0000
1000
0000
0020
0000
,
0230
0301
2000
3200
0310
0002
0103
0020
,
1030
0001
0100
0010
1000
0000
0100
1000
0000
0001
0010
0000
0001
0000
0200
0000
,
0320
1030
0002
0023
0031
0200
0310
2000
,
3001
0100
0010
1000
0100
0000
1000
0010
0000
0100
0002
0000
0023
0000
0032
0000
,
1003
0200
1300
0020
0130
0002
0013
0002
,
1003
0100
1000
0001
0010
0000
0001
0100
0000
0010
1000
0000
0100
0000
0001
0000
,
0100
1000
0010
0100
0001
0000
0010
0001
0000
0100
0010
0000
1000
0001
0100
0010
,
2000
0000
0000
0000
,
0000
0000
0000
0000
,
3000
0000
0000
0000
;

//---------------dance-single - ----------------
#NOTES:
     dance-single:
     :
     Easy:
     3:
     0.242,0.275,0.055,0.000,0.000:
0000
0000
0000
0000
,
0000
0000
0000
0000
,
0000
0000
0000
0000
,
0000
0000
0000
0000
,
1000
0001
0010
0001
,
1000
1000
0001
0001
,
0100
0010
1000
0100
,
0010
0010
0100
0100
,
1000
0010
1000
0000
,
0001
0010
0001
0000
,
0100
0001
0100
0010
,
1000
0100
0010
0000
,
0001
1000
0001
0000
,
1000
0010
1000
0000
,
0010
0100
0001
0010
,
0001
1000
0010
0000
,
0110
0100
0001
0000
,
0010
0001
1000
0000
,
0100
1000
0010
0000
,
0100
0001
0010
0000
,
0001
0001
1000
1000
,
0010
0010
0100
0000
,
0001
0001
0010
0010
,
1000
1000
0010
0010
,
0110
0000
0100
0000
,
0001
0010
0001
1000
,
0100
0000
1000
0000
,
0010
0100
0001
0010
,
1000
0000
0010
0001
,
0100
0010
1000
0001
,
0010
0000
0001
0000
,
1000
0100
1000
0000
,
1001
0000
0001
0000
,
0010
0001
0100
0010
,
1000
0000
0100
0000
,
0001
0100
1000
0010
,
0100
0000
0001
0010
,
1000
0010
0001
0100
,
0010
0000
1000
0000
,
0001
0010
0100
1000
,
1001
0000
0000
0000
;

//---------------dance-single - ----------------
#NOTES:
     dance-single:
     :
     Medium:
     5:
     0.366,0.385,0.041,0.000,0.000:
0000
0000
0000
0000
,
0000
0000
0000
0000
,
0000
0000
0000
0000
,
0000
0000
0000
0000
,
1000
0100
1000
0000
0010
0000
0100
0000
,
0001
0000
0010
0001
0010
0000
0001
0100
,
0001
0000
0100
0000
0010
1000
0010
0000
,
1000
0000
0100
1000
0100
0000
0010
0001
,
0010
0001
0100
0010
,
1000
0000
0100
0000
0010
0001
0000
0010
,
0000
0100
0000
1000
0010
0000
0100
0001
,
0000
0100
0000
0010
0000
1000
0001
0000
,
1000
0000
0010
1000
0010
0000
0100
0000
,
0001
0000
0010
0001
0000
1000
0000
0100
,
0000
0001
0000
0100
0000
1000
0000
0010
,
0100
0000
0001
0000
1000
0001
0000
1000
,
0001
0000
0010
0000
0001
0100
0000
0001
,
0100
0000
0010
0000
1000
0100
1000
0100
,
0000
0010
0000
0000
0001
0100
0001
0100
,
0000
0010
0000
1000
0000
0001
1000
0001
,
0000
0001
0000
1000
0000
1000
0000
0010
,
0000
0010
0000
0100
0000
0001
0100
0001
,
0000
0001
0000
1000
0000
1000
0000
0010
,
0100
0001
0100
0010
1000
0000
0100
0000
,
0110
0010
0001
1000
,
0010
0000
1000
0001
0000
0010
0000
0001
,
0100
0001
0100
0000
0010
0000
1000
0100
,
1000
0000
0100
0010
0000
0001
0000
1000
,
0010
1000
0010
0000
0100
0000
0001
0100
,
0000
0010
0000
1000
0000
0100
0000
0010
,
0001
0010
0001
0000
0100
0000
0001
0000
,
1000
0001
1000
0000
0010
0000
0100
0000
,
0101
0000
0100
0000
0010
0000
1000
0010
,
1000
0000
0100
1000
0000
0010
0000
0100
,
0001
0010
0001
0000
1000
0000
0010
1000
,
0010
0000
0100
0001
0000
1000
0000
0100
,
0010
0001
0010
0000
0100
0000
1000
0010
,
0000
0100
0000
0001
0000
1000
0000
0100
,
0001
0100
0001
0000
0100
0000
1000
0000
,
0010
0100
0010
0100
0001
1000
0001
0000
,
1001
0000
0000
0000
;

//---------------dance-single - ----------------
#NOTES:
     dance-single:
     :
     Beginner:
     1:
     0.112,0.165,0.041,0.000,0.000: // measure 1
0000
0000
0000
0000
,  // measure 2
0000
0000
0000
0000
,  // measure 3
0000
0000
0000
0000
,  // measure 4
0000
0000
0000
0000
,  // measure 5
1000
0000
0000
0000
,  // measure 6
1000
0000
0000
0000
,  // measure 7
0100
0000
0000
0000
,  // measure 8
0010
0000
0000
0000
,  // measure 9
1000
0000
1000
0000
,  // measure 10
0000
0000
0001
0000
,  // measure 11
0100
0000
0000
0000
,  // measure 12
1000
0000
0010
0000
,  // measure 13
0001
0000
0001
0000
,  // measure 14
0000
0000
1000
0000
,  // measure 15
0010
0000
0001
0000
,  // measure 16
0001
0000
0000
0000
,  // measure 17
1000
0000
0001
0000
,  // measure 18
1000
0000
0000
0000
,  // measure 19
0100
0000
0010
0000
,  // measure 20
0100
0000
0000
0000
,  // measure 21
0001
0000
1000
0000
,  // measure 22
0001
0000
0000
0000
,  // measure 23
0001
0000
0010
0000
,  // measure 24
1000
0000
0010
0000
,  // measure 25
0110
0000
0000
0000
,  // measure 26
0001
0000
0001
0000
,  // measure 27
0100
0000
0000
0000
,  // measure 28
0010
0000
0001
0000
,  // measure 29
1000
0000
0000
0000
,  // measure 30
0100
0000
1000
0000
,  // measure 31
0010
0000
0000
0000
,  // measure 32
1000
0000
1000
0000
,  // measure 33
1001
0000
0000
0000
,  // measure 34
0010
0000
0100
0000
,  // measure 35
1000
0000
0000
0000
,  // measure 36
0001
0000
1000
0000
,  // measure 37
0100
0000
0000
0000
,  // measure 38
1000
0000
0001
0000
,  // measure 39
0010
0000
0000
0000
,  // measure 40
0001
0000
0100
0000
,  // measure 41
1001
0000
0000
0000
;
