#TITLE:FEEL YOUR LOVE;
#SUBTITLE:;
#ARTIST:KIM SOZZI;
#TITLETRANSLIT:;
#SUBTITLETRANSLIT:;
#ARTISTTRANSLIT:;
#GENRE:;
#CREDIT:;
#BANNER:;
#BACKGROUND:;
#LYRICSPATH:;
#CDTITLE:;
#MUSIC:KIM SOZZI FEEL YOUR LOVE.mp3;
#OFFSET:0.493;
#SAMPLESTART:31.940;
#SAMPLELENGTH:12.000;
#SELECTABLE:YES;
#BPMS:0.000=130.000
;
#STOPS:;
#BGCHANGES:;
#KEYSOUNDS:;
#ATTACKS:;

//---------------dance-single - ----------------
#NOTES:
     dance-single:
     :
     Hard:
     7:
     0.295,0.338,0.045,0.072,0.018,218.000,5.000,8.000,0.000,0.000,0.000,0.295,0.338,0.045,0.072,0.018,218.000,5.000,8.000,0.000,0.000,0.000:
0000
0000
0000
0000
,
0000
0000
0000
0000
,
1000
0000
0000
0000
,
0001
0000
0000
0000
,
1000
0000
0000
0000
,
1000
0000
0000
0000
,
0100
0000
0000
0000
,
0010
0000
0000
0000
,
0100
0000
0000
0000
,
0100
0000
0000
0000
,
0010
0000
0001
0000
,
0100
0000
0010
0000
,
0100
0000
0010
0000
,
1000
0001
0010
0001
,
0100
0000
0010
0000
,
1000
0000
0001
0000
,
0010
0001
0100
1000
,
0200
0000
0000
0000
0000
0010
1300
0001
,
0010
0001
0010
0000
0001
0000
0100
0000
,
0010
1000
0010
0000
0100
0000
0001
0000
,
0010
0100
0010
0000
0100
0000
1000
0000
,
0001
1000
0001
0000
0100
0000
0010
0000
,
1000
0010
1000
0000
0010
0000
0100
0000
,
0001
0010
0001
0000
0010
0000
0100
0000
,
0010
0001
0010
0000
0001
0000
1000
0000
,
0100
0010
0100
0000
0010
0000
0001
0000
,
0100
0000
0000
0100
0000
0000
0010
0000
0000
0000
0100
0000
0001
0000
0000
0000
,
0001
0000
0000
0100
0000
0000
0010
0000
0000
0000
1000
0000
0100
0000
0000
0000
,
1000
0001
0100
0100
,
0001
1000
0010
0010
,
0100
0000
0000
0001
0000
0000
0010
0000
0000
0000
0100
0000
0010
0000
0000
0000
,
0100
0000
0000
1000
0000
0000
0010
0000
0000
0000
0100
0000
0010
0000
0000
0000
,
1000
0010
0100
0100
,
0010
0000
1000
0000
0001
0000
0001
1000
,
0100
0010
0001
0010
,
0100
0000
1000
0000
0010
1000
0001
0000
,
0010
0001
0100
0010
,
0100
0000
0001
0000
1000
0001
0100
0000
,
0010
1000
0100
1000
,
0001
0100
0001
0010
,
0200
0310
0200
0301
,
0200
1300
1100
0000
,
0010
0100
0001
0000
1000
0000
0001
0000
,
0010
0100
1000
0000
0100
0000
0010
0000
,
0001
1000
0100
0000
1000
0000
0010
0000
,
0100
0001
1000
0000
0100
0000
0010
0000
,
0100
1000
0010
0000
0100
0000
0001
0000
,
1000
0100
1000
0000
0010
0000
0100
0000
,
0010
1000
0100
0000
0010
0000
0001
0000
,
1000
0001
0100
0000
0001
0000
0010
0000
,
0100
1000
0010
0000
0100
0000
0001
0000
,
1000
0100
0010
0000
0100
0000
1000
0000
,
0100
0010
0001
0000
0001
0000
0100
0000
,
0110
1001
0110
1001
,
0001
1000
0001
0000
0100
0000
0001
0000
,
1000
0001
0100
0000
0010
0000
1000
0000
,
0100
0010
0001
0000
0100
0000
0010
0000
,
2000
3200
0320
0002
,
0033
0000
0000
0000
;

//---------------dance-single - ----------------
#NOTES:
     dance-single:
     :
     Medium:
     5:
     0.258,0.338,0.072,0.054,0.000,188.000,8.000,6.000,0.000,0.000,0.000,0.258,0.338,0.072,0.054,0.000,188.000,8.000,6.000,0.000,0.000,0.000:
0000
0000
0000
0000
,
0000
0000
0000
0000
,
0001
0000
0000
0000
,
0001
0000
0000
0000
,
0000
0000
0000
0000
,
0000
0000
0000
0000
,
1000
0000
0000
0000
,
1000
0000
0000
0000
,
0000
0000
0000
0000
,
0000
0000
0000
0010
,
0100
0000
0010
0000
,
0100
0000
0010
0000
,
0100
0000
0001
0000
,
1000
0000
0000
1000
,
0001
0000
0010
0000
,
0100
0000
1000
0000
,
0001
0100
0010
1000
,
0200
0000
0000
0310
,
0110
0010
0001
0100
,
0010
0000
1000
0000
0001
0000
1000
0001
,
1000
0001
0010
0001
,
0100
0000
0001
0000
1000
0000
0100
1000
,
0010
0100
0010
1000
,
0001
0000
0010
0000
0100
0000
0010
0001
,
1000
0001
0100
0100
,
0001
1000
0100
0100
,
1000
0100
0010
0011
,
0001
0010
0100
1100
,
1000
0000
0001
0000
,
0100
0000
0010
0000
,
0010
1000
0010
1010
,
0010
0100
0001
0011
,
0001
0000
1000
0000
,
0010
0000
0100
0010
,
1000
0100
1000
0010
,
0100
0000
0001
0000
0010
0001
0010
0000
,
0001
1000
0100
1000
,
0010
0000
0100
0000
0001
0010
0100
1000
,
0001
0001
1000
1000
,
0010
0010
0100
0100
,
0001
0100
0010
1000
,
0200
0000
0000
0310
,
1100
1000
0001
0100
,
0001
0000
0010
0000
0001
0000
1000
0001
,
0100
0010
1000
0100
,
0010
0001
0010
0001
,
0100
0010
1000
0001
,
0010
0000
0001
0000
0100
0000
0010
1000
,
0100
1000
0010
0100
,
0010
0010
0100
0100
,
0010
0000
1000
0000
0001
0010
0001
0000
,
0100
0000
0010
0000
1000
0100
1000
0000
,
1000
0000
0100
0000
0100
0010
0001
0000
,
1001
0010
1001
0010
,
0010
0100
0010
0000
0100
0000
0010
0000
,
1000
0010
1000
0000
0010
0000
0100
0000
,
0010
0100
0010
0000
1000
0000
0001
0000
,
0002
2003
3002
0200
,
0303
0000
0000
0000
;

//---------------dance-single - ----------------
#NOTES:
     dance-single:
     :
     Easy:
     2:
     0.139,0.207,0.000,0.009,0.000,108.000,0.000,1.000,0.000,0.000,0.000,0.139,0.207,0.000,0.009,0.000,108.000,0.000,1.000,0.000,0.000,0.000: // measure 0
0000
0000
0000
0000
,  // measure 1
0000
0000
0000
0000
,  // measure 2
0100
0000
0000
0000
,  // measure 3
0000
0000
0000
0000
,  // measure 4
0000
0000
0000
0000
,  // measure 5
0000
0000
0000
0000
,  // measure 6
0100
0000
0000
0000
,  // measure 7
0000
0000
0000
0000
,  // measure 8
0000
0000
0000
0000
,  // measure 9
0000
0000
0000
0001
,  // measure 10
0001
0000
0000
0000
,  // measure 11
1000
0000
0000
0000
,  // measure 12
0001
0000
1000
0000
,  // measure 13
0100
0000
0000
0000
,  // measure 14
1000
0000
0000
0000
,  // measure 15
0001
0000
0000
0000
,  // measure 16
1000
0000
0001
0000
,  // measure 17
0010
0000
0000
0000
,  // measure 18
0001
0000
0000
0000
,  // measure 19
0100
0000
0000
0000
,  // measure 20
0010
0000
0100
0000
,  // measure 21
0010
0010
1000
0001
,  // measure 22
0100
0000
0000
0000
,  // measure 23
0001
0000
0000
0000
,  // measure 24
0010
0000
0100
0000
,  // measure 25
1000
0100
1000
0010
,  // measure 26
0100
0000
0010
0000
,  // measure 27
1000
0001
1000
0001
,  // measure 28
0100
0000
0000
0000
,  // measure 29
0100
0000
0000
0000
,  // measure 30
0010
1000
0010
0100
,  // measure 31
0001
0010
0100
1000
,  // measure 32
0100
0000
0000
0000
,  // measure 33
0100
0000
0000
0000
,  // measure 34
1000
0000
0010
0000
,  // measure 35
0100
0001
0010
0000
,  // measure 36
0001
0000
1000
0000
,  // measure 37
0010
0000
0000
0000
,  // measure 38
0100
0000
0001
0000
,  // measure 39
1000
0000
0100
0000
,  // measure 40
1000
0010
0100
0001
,  // measure 41
0020
0000
0000
0030
,  // measure 42
0001
0000
0100
0000
,  // measure 43
0010
0000
1000
0000
,  // measure 44
0001
0100
0001
0010
,  // measure 45
0001
0100
0010
1000
,  // measure 46
0100
0000
1000
0000
,  // measure 47
0010
0000
0100
0000
,  // measure 48
0010
1000
0100
1000
,  // measure 49
0010
0100
0001
0010
,  // measure 50
0100
0000
0010
0000
,  // measure 51
0001
0000
1000
0000
,  // measure 52
0010
0000
0100
0000
,  // measure 53
0001
1000
0100
0010
,  // measure 54
0001
0000
0100
0000
,  // measure 55
0010
0000
1000
0000
,  // measure 56
0001
0000
0010
0000
,  // measure 57
0100
1000
0010
0100
;
