#TITLE:Engel Der Nacht;
#SUBTITLE:;
#ARTIST:Blümchen;
#TITLETRANSLIT:;
#SUBTITLETRANSLIT:;
#ARTISTTRANSLIT:;
#GENRE:;
#CREDIT:;
#BANNER:Engel Der Nacht bn.png;
#BACKGROUND:;
#LYRICSPATH:;
#CDTITLE:;
#MUSIC:Engel der nacht.ogg;
#OFFSET:0.000;
#SAMPLESTART:22.260;
#SAMPLELENGTH:14.000;
#SELECTABLE:YES;
#BPMS:0.000=165.020;
#STOPS:;
#BGCHANGES:;
#KEYSOUNDS:;

//---------------dance-single - 16ths----------------
#NOTES:
     dance-single:
     16ths:
     Edit:
     9:
     -1.000,-1.000,-1.000,-1.000,-1.000:
0000
0000
0000
0000
,
0000
0000
0000
0000
,
0000
0000
0000
0000
,
0000
0000
0000
0000
,
0000
0000
0000
0000
,
0000
0000
0000
0000
,
0000
0000
0000
0000
,
0000
0000
0000
0010
1000
0010
1000
0100
,
1000
0000
0010
0200
0000
0010
0000
0310
,
0000
0000
0000
0010
0100
0010
1000
0001
,
0010
0000
0100
0001
0000
0100
0000
1000
,
0000
0000
0000
0000
0000
0000
0000
0000
0001
0000
0000
0020
0000
0000
0100
0000
,
0130
0000
0000
0000
0000
0000
0000
0000
1000
0000
0000
0020
0000
0000
0100
0000
,
0130
0000
0100
0010
,
0200
0000
0000
0001
0000
0000
1000
0000
,
1300
0000
0000
1000
0100
0001
0010
0100
,
1000
0000
1000
0001
0000
0010
0000
0100
,
0000
0010
0000
0100
0010
0100
0001
0100
,
0010
0000
0001
0100
0000
0010
0000
1000
,
0010
0000
0000
0000
0100
0000
0000
0000
0001
0000
0000
0100
0000
0000
0001
0000
,
1000
0000
0000
0000
0100
0000
0000
0000
0010
0000
0000
0001
0000
0000
0100
0000
,
0001
0000
0000
0000
1000
0000
0000
0000
1000
0000
0000
0010
0000
0000
0100
0000
,
0001
0000
1000
0010
0000
0100
0001
0000
,
0101
0000
1000
0001
0100
0001
0010
0000
,
0001
0010
0100
0010
0001
0010
0100
0010
,
0001
0000
0010
0000
0100
0000
0010
0000
0001
0000
0010
0000
0001
0000
0001
0010
,
0100
1000
0100
1000
0001
1000
0100
1000
,
0001
0000
1000
0000
0100
0000
1000
0000
0001
0000
1000
0000
0100
0000
0010
0001
,
1000
0010
1000
0010
0100
0010
1000
0010
,
0100
0000
0010
0000
1000
0000
0010
0000
0100
0000
0010
0000
1000
0000
0010
1000
,
0001
0100
0010
0100
0001
0100
0010
0100
,
0001
0100
0010
0100
0001
0100
0010
1000
,
1000
0100
0010
0100
0010
0001
1000
0010
,
0100
0010
1000
0001
0100
0010
1000
0001
,
0001
0010
0001
0010
0001
0010
0001
1000
,
0001
0100
0001
0100
0001
0100
0010
1000
,
1000
0100
0010
0100
0010
0001
1000
0100
,
0010
0100
0010
0001
1000
0100
0010
0001
,
0001
0100
0001
0100
0001
0100
0001
1000
,
0010
0100
0010
0100
0010
0001
0010
1000
,
0100
0010
0001
1000
0010
0001
1000
0100
,
0001
1000
0010
0001
1000
0100
0001
0100
,
0010
1000
0001
0100
0001
0010
0001
0100
,
0010
1000
0010
0100
0010
1000
0100
1000
,
1000
0100
0001
1000
0010
0001
1000
0100
,
0001
1000
0010
0001
1000
0001
0001
0100
,
0001
0010
0001
0100
0010
1000
0010
0100
,
0010
1000
0100
1000
0001
0100
0010
1000
,
0001
0000
0010
0000
0001
0000
0100
0010
0100
0010
0100
0000
0010
0000
0100
0000
,
0010
0000
0100
0000
0001
0000
1000
0001
1000
0001
1000
0000
0010
0000
0100
0000
,
0010
0000
1000
0000
0100
0000
0010
0001
0010
0001
0010
0000
0001
0000
1000
0000
,
0001
0000
0100
0000
1000
0000
0100
0010
1000
0010
0100
0000
0010
0000
0100
0000
,
0010
0000
1000
0000
0001
0000
0100
0010
0100
0001
1000
0000
0100
0000
0010
0000
,
0001
0000
0100
0000
0001
0000
0010
0001
0100
0010
1000
0000
0010
0000
0100
0000
,
0010
0000
1000
0000
0010
0000
0100
0001
0100
0010
1000
0000
0001
0000
1000
0000
,
1001
0000
0000
0000
,
1000
0100
1000
0100
1000
0000
0010
0100
0010
0100
0010
0000
0100
0000
0001
0000
,
0100
0001
0100
0001
0100
0000
0001
1000
0001
1000
0001
0000
0100
0000
0001
0000
,
1000
0001
1000
0001
1000
0000
0001
0010
0001
0010
0001
0000
1000
0000
0100
0000
,
0010
0001
0100
0001
1000
0000
0001
1000
0001
1000
0001
0000
0100
0000
0010
0000
,
0100
0010
0100
0010
0100
0000
0001
0100
0001
1000
0001
0000
1000
0000
0001
0000
,
1000
0010
1000
0010
1000
0000
0001
1000
0001
0100
0001
0000
1000
0000
0001
0000
,
0100
0100
0010
0010
1000
1000
0001
0001
,
0100
0001
0100
0001
0010
0001
0020
0002
,
0000
0000
0000
0000
,
0033
0000
0000
0000
;

//---------------dance-single - ----------------
#NOTES:
     dance-single:
     :
     Hard:
     7:
     0.456,0.550,0.053,0.148,0.000:
0000
0000
0000
0000
,
0000
0000
0000
0000
,
0000
0000
0000
0000
,
0000
0000
0000
0000
,
0000
0000
0000
0000
,
0000
0000
0000
0000
,
0000
0000
0000
0000
,
0000
0000
0000
0000
,
1000
0001
0000
0001
,
0000
0001
0000
0001
,
0100
0010
0000
0010
,
0000
0010
0000
0010
,
1000
0100
0000
0100
,
0000
0100
0000
0100
,
1000
0000
0000
1000
0000
0000
1000
0000
,
2002
3003
0000
0000
,
1000
0000
0001
1000
0010
0100
0010
0000
,
0100
0000
0001
1000
0100
0001
0100
0010
,
0001
0000
0100
0000
0001
0100
1000
0000
,
0100
0000
0001
0000
0001
0010
0100
1000
,
0010
0000
0100
0000
0010
0100
0010
0000
,
0100
0000
0001
1000
0010
0100
0001
0000
,
0100
0000
1000
0100
1000
0000
0100
0000
,
0010
0000
1000
0001
1000
0001
0100
0000
,
0100
0000
0001
0010
0100
0000
0001
0010
,
0100
0000
0001
0100
0001
0100
0010
0100
,
0010
0000
0010
1000
0001
1000
0001
1000
,
0001
0000
0001
0010
0000
0001
0010
0001
,
1000
0000
0010
1000
0100
0000
0010
1000
,
0100
0000
0001
0100
0001
0100
0001
0000
,
1000
0001
1000
0001
0000
1000
0010
0000
,
0010
0000
0100
0010
1000
0010
0100
0000
,
0002
0000
0003
0000
,
0000
0000
0000
0000
,
2000
0000
0010
3010
0000
1000
0000
0000
,
0000
0000
0000
0000
,
0200
0000
0001
0301
0000
0100
0000
0000
,
0200
0000
1000
1300
0000
0010
0000
0000
,
0200
0000
0010
0310
2000
0000
0001
3001
,
0002
0000
0010
0013
0001
0000
0010
0000
,
0100
1000
0100
0000
1000
0000
0010
0100
,
0010
0000
0100
0000
0001
1000
0001
0000
,
1000
0001
1000
0001
2000
0000
3010
0000
,
0010
1000
0010
1000
0020
0000
0130
0000
,
0001
0000
1000
0100
0010
0000
0001
0000
,
0100
0010
0100
0000
0001
0000
1000
0000
,
0001
1000
0001
1000
0002
0000
0103
0000
,
0010
1001
0100
0011
,
1000
0000
1000
0100
0000
0100
0010
0100
,
0010
0000
0010
0001
0000
0001
1000
0001
,
0100
0001
0100
0001
0100
0001
0100
0001
,
0100
0110
0010
1001
,
1000
0000
1000
0001
0000
0100
0001
1000
,
0100
0000
0001
0100
0000
1000
0001
1000
,
0010
0100
0010
0100
0010
0100
0010
0100
,
0010
0000
0000
0000
,
1000
0000
0001
1000
0010
1000
0001
1000
,
0100
0000
0010
0001
1000
0001
0010
0001
,
0100
0000
0001
1000
0100
0001
0100
1000
,
0010
0000
0100
0010
0100
1000
0100
0001
,
0100
0000
0010
0100
0001
1000
0010
0100
,
0001
0000
1000
0100
0010
0001
1000
0001
,
0100
0000
0010
0100
0010
0001
0010
1000
,
0010
0000
0100
0001
1000
0001
2000
0200
,
0000
0000
0000
0000
,
3300
0000
0000
0000
;

//---------------dance-single - ----------------
#NOTES:
     dance-single:
     :
     Medium:
     5:
     0.319,0.413,0.011,0.042,0.000:
0000
0000
0000
0000
,
0000
0000
0000
0000
,
0000
0000
0000
0000
,
0000
0000
0000
0000
,
0000
0000
0000
0000
,
0000
0000
0000
0000
,
0000
0000
0000
0000
,
0000
0000
0000
0000
,
2000
0000
0000
0000
,
0000
0000
0000
0000
,
3020
0000
0000
0000
,
0000
0000
0000
0000
,
0230
0000
0000
0000
,
0000
0000
0000
0000
,
0300
0000
0000
0000
,
0110
0000
0000
0000
,
1000
0000
0010
0100
0010
0000
0100
0000
,
0010
0000
1000
0001
1000
0000
0001
0000
,
0100
0000
0001
0010
0001
0000
0100
0000
,
0010
0000
0100
0010
0100
0000
0010
0000
,
1000
0000
0001
1000
0001
0000
1000
0000
,
0010
0000
0100
0001
0100
0000
0001
0000
,
1000
0000
0001
1000
0001
0000
0100
0000
,
0010
0010
0010
0010
,
1000
0010
0100
0000
0010
0100
0010
0000
,
1000
0001
0100
0000
0001
0100
0001
0000
,
0001
0010
0100
0000
0010
0100
1000
0000
,
0001
0010
0100
0000
1000
0100
0010
0000
,
0001
0100
0010
0000
0010
0000
0010
0000
,
0100
0001
0010
0000
0010
0000
0010
0000
,
0001
1000
0100
0000
0100
0000
0100
0000
,
0100
1000
0010
0000
0010
0000
0010
0000
,
0100
0000
0000
0000
,
0000
0000
0000
0000
,
1000
0000
0000
0000
,
0000
0000
0000
0000
,
0010
0000
0000
0000
,
0001
0000
0000
0000
,
0100
0000
0010
0000
,
1000
0000
0001
0001
,
1000
0100
1000
0010
,
0100
0000
0001
0000
0010
0001
0010
0000
,
0001
0000
0100
0000
0010
0100
0010
0000
,
0100
0000
0001
0000
1000
0001
1000
0000
,
0001
0000
1000
0000
0001
1000
0001
0000
,
0100
0010
0100
0000
0010
0100
0010
0000
,
1000
0100
0010
0000
0100
0010
0001
0000
,
1000
1000
0001
0001
,
1000
0000
0000
1000
0000
0000
0010
0000
,
1000
0000
0000
1000
0000
0000
0100
0000
,
1000
0000
0000
1000
0000
0000
0100
0000
,
1000
0000
0000
1000
0000
0000
0010
0000
,
1000
0000
0000
0100
0000
0000
0010
0000
,
0100
0000
0000
0001
0000
0000
0100
0000
,
0010
0001
1000
0001
,
0100
0000
0000
0000
,
0001
0100
0001
0000
0001
0100
0001
0000
,
1000
0010
1000
0000
1000
0010
1000
0000
,
0010
0100
0010
0000
0010
0100
0010
0000
,
0100
0001
0100
0000
0100
0001
0100
0000
,
0001
0100
0001
0000
0001
1000
0001
0000
,
1000
0010
1000
0000
1000
0001
1000
0000
,
0100
0010
0100
0010
,
1000
0001
1000
0000
0001
1000
0001
0200
,
0000
0000
0000
0000
,
0300
0000
0000
0000
;

//---------------dance-single - ----------------
#NOTES:
     dance-single:
     :
     Easy:
     3:
     0.263,0.338,0.000,0.000,0.000:
0000
0000
0000
0000
,
0000
0000
0000
0000
,
0000
0000
0000
0000
,
0000
0000
0000
0000
,
0000
0000
0000
0000
,
0000
0000
0000
0000
,
0000
0000
0000
0000
,
0000
0000
0000
0000
,
0001
0000
0000
0000
,
0000
0000
0000
0000
,
0010
0000
0000
0000
,
0000
0000
0000
0000
,
0100
0000
0000
0000
,
0000
0000
0000
0000
,
1000
0000
0000
0000
,
0001
0000
0000
0000
,
1000
0001
1000
0001
,
0100
0000
0010
0100
0010
0000
1000
0000
,
0001
0010
0001
0010
,
0001
0000
1000
0010
1000
0000
0001
0000
,
0100
0010
0010
0100
,
0010
0000
0100
1000
0100
0000
0010
0000
,
0100
0001
0001
0010
,
0001
0000
0000
0000
,
0001
0100
0001
0100
,
0010
1000
0010
1000
,
0001
0010
0100
1000
,
0001
0010
0100
1000
,
0001
0100
0010
1000
,
0001
0100
0010
1000
,
0001
0100
0010
0100
,
0001
1000
0100
1000
,
0100
0000
1000
0000
,
0100
0000
1000
0000
,
0001
0000
0001
0000
,
0100
0000
0100
0000
,
0010
0000
0010
0000
,
0010
0000
0010
0000
,
1000
0000
1000
0000
,
0100
0000
0100
0000
,
0010
0001
0010
0001
,
0100
0000
0001
0000
0100
0001
0100
0000
,
0010
1000
0001
1000
,
0001
0000
0100
0000
0001
1000
0001
0000
,
0100
0100
0001
0001
,
1000
0100
0010
0001
,
1000
0100
0010
0001
,
0100
0100
0100
0100
,
0010
0000
0000
0010
,
0010
0000
0000
0100
,
0100
0000
0000
0001
,
0001
0000
0000
1000
,
1000
0000
0000
0100
,
0100
0000
0000
0010
,
0010
0001
0001
0001
,
0001
0000
0000
0000
,
1000
0000
0100
0000
0010
0001
0010
0000
,
0001
0000
0010
0000
0001
0100
0001
0000
,
1000
0000
0001
0000
1000
0001
1000
0000
,
0010
0000
0010
0000
0100
0010
0100
0000
,
0010
0000
0010
0000
0100
0001
0100
0000
,
0010
0000
0010
0000
0010
0100
0010
0000
,
0100
0100
0100
0100
,
0001
0000
0010
0000
0100
0000
0000
0010
;
