#TITLE:Dokkyun☆Heart;
#SUBTITLE:;
#ARTIST:Jessica Ushiromiya;
#TITLETRANSLIT:;
#SUBTITLETRANSLIT:;
#ARTISTTRANSLIT:;
#CREDIT:348 with Timer Rabbit;
#BANNER:;
#BACKGROUND:;
#LYRICSPATH:;
#CDTITLE:348 with Timer Rabbit.png;
#MUSIC:Dokkyun Heart.mp3;
#OFFSET:-0.569;
#SAMPLESTART:42.659;
#SAMPLELENGTH:15.000;
#SELECTABLE:YES;
#BPMS:0.000=165.000;
#STOPS:;
#BGCHANGES:;

//---------------dance-single - ----------------
#NOTES:
     dance-single:
     :
     Beginner:
     1:
     0.096,0.130,0.010,0.000,0.000: // measure 1
0000
0000
0000
0000
,  // measure 2
0000
0000
0000
0000
,  // measure 3
0000
0000
0000
0000
,  // measure 4
0000
0000
0000
0000
,  // measure 5
1000
0000
0000
0000
,  // measure 6
0100
0000
0000
0000
,  // measure 7
0010
0000
0000
0000
,  // measure 8
0001
0000
0000
0000
,  // measure 9
1000
0000
0000
0000
,  // measure 10
0010
0000
0000
0000
,  // measure 11
0100
0000
0000
0000
,  // measure 12
0001
0000
0000
0000
,  // measure 13
1000
0000
0000
0000
,  // measure 14
0001
0000
0000
0000
,  // measure 15
1000
0000
0000
0000
,  // measure 16
0001
0000
1000
0000
,  // measure 17
0001
0000
0000
0000
,  // measure 18
0100
0000
0000
0000
,  // measure 19
0010
0000
0000
0000
,  // measure 20
0100
0000
0010
0000
,  // measure 21
0100
0000
0000
0000
,  // measure 22
0001
0000
0000
0000
,  // measure 23
0000
0000
0000
0000
,  // measure 24
1000
0000
0000
0000
,  // measure 25
0000
0000
0000
0000
,  // measure 26
0010
0000
0000
0000
,  // measure 27
0000
0000
0000
0000
,  // measure 28
0100
0000
0000
0000
,  // measure 29
0100
0000
0000
0000
,  // measure 30
0001
0000
0000
0000
,  // measure 31
0010
0000
0000
0000
,  // measure 32
0100
0000
0000
0000
,  // measure 33
1000
0000
0000
0000
,  // measure 34
0001
0000
0000
0000
,  // measure 35
0100
0000
0000
0000
,  // measure 36
0010
0000
0000
0000
,  // measure 37
1000
0000
0000
0000
,  // measure 38
0001
0000
0000
0000
,  // measure 39
1000
0000
0001
0000
,  // measure 40
0100
0000
0000
0000
,  // measure 41
0010
0000
0100
0000
,  // measure 42
0001
0000
0000
0000
,  // measure 43
0010
0000
0001
0000
,  // measure 44
1000
0000
0000
0000
,  // measure 45
0100
0000
1000
0000
,  // measure 46
0010
0000
0000
0000
,  // measure 47
0100
0000
0000
0000
,  // measure 48
0010
0000
0000
0000
,  // measure 49
1000
0000
0000
0000
,  // measure 50
1000
0000
0000
0000
,  // measure 51
0100
0000
0000
0000
,  // measure 52
0100
0000
0000
0000
,  // measure 53
0010
0000
0000
0000
,  // measure 54
0010
0000
0000
0000
,  // measure 55
0001
0000
0000
0000
,  // measure 56
0001
0000
0000
0000
,  // measure 57
1000
0000
0000
0000
,  // measure 58
0001
0000
0000
0000
,  // measure 59
0100
0000
0000
0000
,  // measure 60
0010
0000
0000
0000
,  // measure 61
0100
0000
0000
0000
,  // measure 62
0010
0000
0000
0000
,  // measure 63
1000
0000
0000
0000
,  // measure 64
0001
0000
0000
0000
,  // measure 65
1000
0000
0001
0000
,  // measure 66
1000
0000
0000
0000
,  // measure 67
0010
0000
0100
0000
,  // measure 68
0010
0000
0000
0000
,  // measure 69
0000
0000
1001
0000
;

//---------------dance-single - ----------------
#NOTES:
     dance-single:
     :
     Easy:
     4:
     0.283,0.326,0.114,0.152,0.000: // measure 1
0000
0000
0000
0000
,  // measure 2
0000
0000
0000
0000
,  // measure 3
0000
0000
0000
0000
,  // measure 4
0000
0000
0000
0000
,  // measure 5
1000
0100
1000
0000
,  // measure 6
0001
0010
0001
0000
,  // measure 7
1000
0100
0010
0001
,  // measure 8
0100
0010
1000
0000
,  // measure 9
0010
1000
0010
0000
,  // measure 10
0100
0001
0100
0000
,  // measure 11
0001
0000
1000
0000
,  // measure 12
0001
1000
0001
0000
,  // measure 13
0100
0010
0100
0000
,  // measure 14
0001
0010
0001
0010
,  // measure 15
0100
1000
0100
1000
,  // measure 16
0001
1000
0001
1000
,  // measure 17
0010
0000
0100
0000
,  // measure 18
0010
1000
0010
1000
,  // measure 19
0001
0100
0001
0100
,  // measure 20
0010
0100
0010
0100
,  // measure 21
0001
0000
1000
0000
,  // measure 22
0002
0000
0000
0003
,  // measure 23
1000
0000
1001
0000
,  // measure 24
0200
0000
0000
0300
,  // measure 25
0010
0000
0110
0000
,  // measure 26
1000
0000
0010
0000
,  // measure 27
0100
0000
0001
0000
,  // measure 28
1000
0100
0010
0001
,  // measure 29
1100
0000
0011
0000
,  // measure 30
1000
0010
0100
0000
,  // measure 31
0001
0100
0010
0000
,  // measure 32
1000
0001
1000
0000
,  // measure 33
0010
0000
1010
0000
,  // measure 34
0001
0010
0100
0000
,  // measure 35
1000
0100
0010
0000
,  // measure 36
0001
1000
0001
0000
,  // measure 37
0100
0000
0101
0000
,  // measure 38
1000
0000
0001
1000
,  // measure 39
0010
0000
0100
0001
,  // measure 40
1000
0000
0100
0010
,  // measure 41
0100
0000
1001
0000
,  // measure 42
0001
0000
1000
0001
,  // measure 43
0010
0000
0100
1000
,  // measure 44
0001
0000
0010
0100
,  // measure 45
0010
0000
1001
0000
,  // measure 46
0100
0000
0010
0000
,  // measure 47
1000
1000
1000
0000
,  // measure 48
0001
0001
0001
0000
,  // measure 49
1000
0100
0010
0100
,  // measure 50
2000
0000
3001
0000
,  // measure 51
0001
0100
0010
0100
,  // measure 52
0002
0000
1003
0000
,  // measure 53
0010
1000
0001
1000
,  // measure 54
0020
0000
0130
0000
,  // measure 55
0100
0001
1000
0001
,  // measure 56
0200
0000
0310
0000
,  // measure 57
0020
0000
1030
0100
,  // measure 58
2000
0000
3001
0010
,  // measure 59
0002
0000
1003
0001
,  // measure 60
0200
0000
0301
0000
,  // measure 61
0002
0000
1003
0001
,  // measure 62
0200
0000
0301
1000
,  // measure 63
0020
0000
1030
0001
,  // measure 64
2000
0010
3010
0000
,  // measure 65
1010
0000
0101
0000
,  // measure 66
0100
0100
0100
0000
,  // measure 67
0010
0010
0010
0000
,  // measure 68
2002
0000
0000
0000
,  // measure 69
3003
0000
1001
0000
;

//---------------dance-single - ----------------
#NOTES:
     dance-single:
     :
     Medium:
     6:
     0.466,0.488,0.219,0.209,0.000: // measure 1
0000
0000
0000
0000
,  // measure 2
0000
0000
0000
0000
,  // measure 3
0000
0000
0000
0000
,  // measure 4
0000
0000
0000
0000
,  // measure 5
1000
0000
1000
0000
0100
1000
0100
0000
,  // measure 6
0010
0000
0010
0000
0001
0010
0001
0000
,  // measure 7
1000
0000
0001
0000
1000
0001
1000
0000
,  // measure 8
0010
1100
0100
0011
,  // measure 9
0001
0000
0100
0000
0100
0001
0100
0000
,  // measure 10
0010
0000
1000
0000
1000
0010
1000
0000
,  // measure 11
0001
0011
1000
1100
,  // measure 12
0001
0010
0002
1003
,  // measure 13
1000
0100
2000
3001
,  // measure 14
0001
0000
0010
0100
0010
0000
0001
0000
,  // measure 15
1000
0000
0100
0010
0100
0000
1000
0000
,  // measure 16
0010
0000
0100
0010
0100
0000
0010
0000
,  // measure 17
0100
0001
1000
1001
,  // measure 18
0100
0000
0001
1000
0001
0000
0100
0000
,  // measure 19
0010
0000
1000
0001
1000
0000
0010
0000
,  // measure 20
1000
0000
0001
1000
0001
0000
1000
0000
,  // measure 21
0010
0100
0010
0110
,  // measure 22
1000
0100
0002
0003
,  // measure 23
0001
0100
2000
3000
,  // measure 24
0001
0010
2000
3000
,  // measure 25
1000
0010
0002
0003
,  // measure 26
1000
0100
1000
0000
0001
0010
0001
0000
,  // measure 27
1000
0010
1000
0000
0001
0100
0001
0000
,  // measure 28
1000
0110
0001
0110
,  // measure 29
1000
0000
0001
1001
,  // measure 30
1000
0000
0100
0000
0100
1000
0100
0000
,  // measure 31
0010
0000
0001
0000
0001
0010
0001
0000
,  // measure 32
1000
0000
0001
0000
1000
0010
0100
0000
,  // measure 33
0001
0100
0010
0000
1000
0001
1000
0000
,  // measure 34
0001
0000
0100
0000
0100
0001
0100
0000
,  // measure 35
0010
0000
1000
0000
1000
0010
1000
0000
,  // measure 36
0010
0000
0100
0000
0001
0010
0100
0000
,  // measure 37
1000
0100
0010
0000
0010
0100
0010
0000
,  // measure 38
0002
1000
1003
1100
,  // measure 39
0010
0000
0010
0000
0100
0001
0100
0000
,  // measure 40
0020
0100
0130
0011
,  // measure 41
1000
0100
1000
0000
0010
1000
0010
0000
,  // measure 42
2000
0001
3001
0101
,  // measure 43
1000
0000
1000
0000
0010
0100
0010
0000
,  // measure 44
0200
0010
0310
1010
,  // measure 45
0001
0010
0001
0000
0100
0001
0100
0000
,  // measure 46
2002
3003
0220
0330
,  // measure 47
1000
0100
1000
0000
0100
0000
1100
0000
,  // measure 48
0001
0010
0001
0000
0010
0000
0011
0000
,  // measure 49
1000
0000
1000
0100
1000
0000
1000
0000
,  // measure 50
0001
0000
0001
0010
0001
0000
0001
0000
,  // measure 51
0100
0000
0001
1000
0001
0000
0100
0000
,  // measure 52
0001
0010
0001
0010
0002
0000
1003
0000
,  // measure 53
0010
0000
0010
1000
0010
0000
0010
0000
,  // measure 54
0100
0000
0100
0001
0100
0000
0100
0000
,  // measure 55
0001
0000
0100
0010
0100
0000
0001
0000
,  // measure 56
1000
0100
1000
0100
2000
0000
3001
0000
,  // measure 57
1000
0000
0100
0000
0001
0000
0100
1000
,  // measure 58
0100
0000
0010
0000
0001
0000
0010
0001
,  // measure 59
0010
0001
1000
0100
,  // measure 60
1000
0100
0010
0000
0010
0100
1000
0000
,  // measure 61
0001
0000
0100
0000
1000
0000
0100
0001
,  // measure 62
0100
0000
0001
0000
1000
0000
0010
1000
,  // measure 63
0010
1000
0001
0100
,  // measure 64
0001
0100
0010
0000
0010
0100
0001
0000
,  // measure 65
0220
0330
2002
3003
,  // measure 66
1000
0010
1000
0000
0010
0000
1010
0000
,  // measure 67
0001
0100
0001
0000
0100
0000
0101
0000
,  // measure 68
2002
0000
0000
0000
,  // measure 69
0000
3003
0000
0000
0110
0000
0000
0000
;

//---------------dance-single - ----------------
#NOTES:
     dance-single:
     :
     Hard:
     8:
     0.633,0.585,0.285,0.200,0.166: // measure 1
0000
0000
0000
0000
,  // measure 2
0000
0000
0000
0000
,  // measure 3
0000
0000
0000
0000
,  // measure 4
0000
0000
0000
0000
,  // measure 5
1000
0000
0100
0000
0010
0000
0001
0000
1000
0000
0000
0100
0000
0000
1000
0000
,  // measure 6
0001
0000
0010
0000
0001
0000
0100
0000
0010
0000
0000
0100
0000
0000
0010
0000
,  // measure 7
1000
0000
0001
0000
0100
0000
0001
0000
1000
0000
0000
0001
0000
0000
0010
0000
,  // measure 8
0001
0000
0010
0000
0001
0000
0010
0000
0100
0000
0000
1000
0000
0000
0001
0010
,  // measure 9
0001
0000
0100
0000
0010
0000
1000
0000
0001
0000
0000
0100
0000
0000
0010
0000
,  // measure 10
1000
0000
0001
0000
0100
0000
0010
0000
1000
0000
0000
0001
0000
0000
0100
0000
,  // measure 11
0002
0203
0320
2030
,  // measure 12
3001
0010
1000
0010
0001
0000
1001
0000
,  // measure 13
1000
0100
0001
0100
1000
0000
1001
0000
,  // measure 14
1000
0100
1000
0100
0000
0010
0001
0100
,  // measure 15
0001
1000
0001
0100
0000
0010
0100
0001
,  // measure 16
0100
0010
1000
0001
0000
0100
0001
0010
,  // measure 17
0001
1000
0001
1000
0000
0001
1001
0000
,  // measure 18
0001
0100
0001
0010
0000
0100
1000
0100
,  // measure 19
0010
0100
1000
0010
0000
1000
0100
1000
,  // measure 20
0010
0100
0010
1000
0000
0001
0100
0010
,  // measure 21
0100
0010
0100
0010
0000
0100
0110
0000
,  // measure 22
2010
0000
0000
0000
3100
0000
0000
0001
0100
0000
0000
0000
0101
0000
0000
0000
,  // measure 23
0210
0000
0000
0000
0301
0000
0000
1000
0010
0000
0000
0000
0110
0000
0000
0000
,  // measure 24
1020
0000
0000
0000
0130
0000
0000
0100
0001
0000
0000
0000
1010
0000
0000
0000
,  // measure 25
0012
0000
0000
0000
1003
0000
0000
0010
0100
0000
0000
0000
0011
0000
0000
0000
,  // measure 26
1000
0100
1000
0010
0000
0100
0001
0100
,  // measure 27
0000
0010
1000
0010
0000
0100
0001
0010
,  // measure 28
0001
0100
0010
1000
0010
0100
0001
2000
,  // measure 29
0000
3001
0010
0100
1000
0001
1001
0000
,  // measure 30
0001
0000
0100
0000
0010
0000
0100
0000
0001
0000
0000
1000
0000
0000
0010
0000
,  // measure 31
1000
0000
0100
0000
1000
0000
0010
0000
1000
0100
0000
0001
0000
0000
0100
0000
,  // measure 32
1000
0000
0010
0000
0100
0000
0010
0000
1000
0000
0000
0001
0000
0000
0100
0000
,  // measure 33
0001
0000
0010
0000
0001
0000
0100
0000
0001
0010
0000
1000
0000
0000
0010
0000
,  // measure 34
0001
0000
1000
0000
0010
0000
1000
0000
0001
0000
0000
0010
0000
0000
0001
0000
,  // measure 35
1000
0000
0001
0000
0100
0000
0001
0000
1000
0001
0000
0100
0000
0000
0010
0000
,  // measure 36
0100
0000
0001
0000
1000
0000
0010
0000
1000
0000
0000
0001
0000
0000
1000
0000
,  // measure 37
0020
0000
0000
0000
1030
0100
0010
0001
,  // measure 38
1000
0000
0100
0000
1000
0000
0100
0000
1000
0000
0000
1000
0000
0000
0001
0000
,  // measure 39
0010
0000
0001
0000
0010
0000
0001
0000
0100
0010
0000
1000
0000
0000
0001
0000
,  // measure 40
1000
0000
0010
0000
1000
0000
0010
0000
0100
0000
0000
0100
0000
0000
0010
0000
,  // measure 41
0100
0000
0001
0000
0100
0000
0001
0000
1000
0001
0000
0100
0000
0000
0010
0000
,  // measure 42
1000
0000
0100
0000
0010
0000
0100
0000
1000
0000
0000
0001
0000
0000
1000
0000
,  // measure 43
0001
0000
0010
0000
0100
0000
0010
0000
0001
0100
0000
0100
0000
0000
0001
0000
,  // measure 44
1000
0000
0001
0000
0100
0000
0010
0000
0100
0000
0000
0010
0000
0000
1000
0000
,  // measure 45
0002
0000
0000
0000
0103
0001
1000
0010
,  // measure 46
2000
3020
0230
0302
,  // measure 47
1003
0000
0010
0100
0010
0000
1000
0000
0010
0000
0000
0000
1010
0000
0000
0000
,  // measure 48
0001
0000
0100
0010
0100
0000
0001
0000
0100
0000
0000
0000
0101
0000
0000
0000
,  // measure 49
1000
0100
0001
1000
0010
0001
1000
0000
,  // measure 50
0001
0100
1000
0001
0010
1000
0001
0000
,  // measure 51
1000
0100
1000
0100
0010
0001
0010
0001
,  // measure 52
1000
0011
1100
1001
,  // measure 53
0001
0010
1000
0010
0001
0100
0001
0000
,  // measure 54
1000
0100
0001
0100
1000
0010
1000
0000
,  // measure 55
0001
0100
0001
0100
0010
1000
0010
1000
,  // measure 56
0001
1010
0101
0110
,  // measure 57
1000
0100
0001
0100
1000
0000
0001
0010
,  // measure 58
0001
0010
1000
0010
0001
0000
1000
0100
,  // measure 59
1000
0010
0100
0010
0100
0010
0100
0001
,  // measure 60
1000
0110
0110
1001
,  // measure 61
0001
0010
0001
0100
0001
0000
1000
0001
,  // measure 62
1000
0010
1000
0100
1000
0000
0001
1000
,  // measure 63
0001
0010
0100
0010
0100
0010
0100
1000
,  // measure 64
0001
1001
1001
0110
,  // measure 65
0020
2030
3002
0203
,  // measure 66
0301
0000
0010
0001
0010
0000
0001
0000
0010
0000
0000
0000
0011
0000
0000
0000
,  // measure 67
1000
0000
0100
1000
0100
0000
1000
0000
0100
0000
0000
0000
0000
0000
2002
0000
,  // measure 68
0000
0000
0000
0000
,  // measure 69
0000
3003
0000
0110
0000
0000
0000
0000
;

//---------------dance-single - ----------------
#NOTES:
     dance-single:
     :
     Challenge:
     9:
     0.731,0.651,0.228,0.171,0.509: // measure 1
0000
0000
0000
0000
,  // measure 2
0000
0000
0000
0000
,  // measure 3
0000
0000
0000
0000
,  // measure 4
0000
0000
0000
0000
,  // measure 5
1000
0000
0100
0000
0001
0000
0100
0000
1000
0010
0000
0101
0000
0000
1000
0000
,  // measure 6
0001
0000
0010
0000
1000
0000
0010
0000
0001
0010
0000
1100
0000
0000
0001
0000
,  // measure 7
1000
0000
0100
0000
0010
0000
0001
0000
1000
0001
0000
0110
0000
0000
1000
0000
,  // measure 8
0001
0000
0100
0010
0100
0000
0001
0000
1000
0000
0000
0000
1001
0000
0000
0000
,  // measure 9
0001
0000
0010
0000
0100
0000
0010
0000
0001
0200
0000
0010
0000
0000
0310
0000
,  // measure 10
0010
0000
1000
0000
0100
0000
1000
0000
0010
2000
0000
0100
0000
0000
3100
0000
,  // measure 11
2100
3010
0102
0013
,  // measure 12
1000
0000
0001
0010
0001
0000
1000
0100
2000
0000
0000
0000
3001
0000
0000
0000
,  // measure 13
0100
0000
0010
1000
0010
0000
0100
0001
0200
0000
0000
0000
0310
0000
0000
0000
,  // measure 14
1000
0000
0100
0000
0010
0000
0100
0000
1000
0000
0001
0000
0100
0000
0001
1000
,  // measure 15
0001
0000
0010
0000
0100
0000
0010
0000
0001
0000
0010
0000
0100
0000
1000
0010
,  // measure 16
1000
0000
0010
0000
1000
0000
0010
0000
0100
0000
0001
0000
0100
0000
0010
0100
,  // measure 17
0010
1000
0001
0100
0000
0010
0110
0000
,  // measure 18
0001
0000
0010
0000
0001
0000
0100
0000
0010
0000
1000
0000
0100
0000
1000
0001
,  // measure 19
1000
0000
0100
0000
0010
0000
0100
0000
1000
0000
0001
0000
0010
0000
0001
0100
,  // measure 20
0001
0000
0100
0000
0010
0000
1000
0000
0010
0000
0100
0000
0001
0000
0100
0010
,  // measure 21
0100
0001
1000
0001
0000
1000
1001
0001
,  // measure 22
2000
0000
0000
0000
0000
0000
3001
0010
0002
0000
0000
0000
0000
0000
0103
0010
,  // measure 23
0100
0011
1100
1001
,  // measure 24
0200
0000
0000
0000
0000
0000
0310
1000
0020
0000
0000
0000
0000
0000
0130
0001
,  // measure 25
0100
0101
1010
0110
,  // measure 26
0001
0010
0001
0010
0100
1000
0100
1000
,  // measure 27
0001
0100
0001
0100
0010
1000
0010
1000
,  // measure 28
0010
1000
0001
0100
0001
1000
0010
1000
,  // measure 29
0001
0110
0110
1001
,  // measure 30
1000
0000
0100
0000
1000
0000
0100
0000
1000
0100
0000
0100
1000
0000
0001
0000
,  // measure 31
0010
0000
0001
0000
0010
0000
0001
0000
0010
0001
0000
0001
0010
0000
0001
0000
,  // measure 32
0100
0000
0010
0000
0100
0000
0010
0000
0100
0010
0000
0010
0100
0000
0010
0000
,  // measure 33
1000
0100
0010
0001
0100
0010
1001
0000
,  // measure 34
1000
0000
0010
0000
1000
0000
0010
0000
1000
0010
0000
0010
1000
0000
0010
0000
,  // measure 35
0100
0000
0001
0000
0100
0000
0001
0000
0100
0001
0000
0001
0100
0000
0001
0000
,  // measure 36
1000
0000
0001
0000
1000
0000
0001
0000
1000
0001
0000
0001
1000
0000
0001
0000
,  // measure 37
0100
0001
1000
0010
0200
0000
0310
0000
,  // measure 38
1000
0000
0100
0000
0010
0000
0001
0000
1000
0100
0000
0001
0100
0000
1000
0000
,  // measure 39
0001
0000
0010
0000
0100
0000
1000
0000
0001
0010
0000
1000
0010
0000
0001
0000
,  // measure 40
1000
0000
0001
0000
0100
0000
0010
0000
0100
0001
0000
1000
0010
0000
0100
0000
,  // measure 41
0001
1000
0001
0100
0010
0100
0110
0000
,  // measure 42
1000
0000
0010
0000
0001
0000
0010
0000
1000
0010
0000
0100
0001
0000
1000
0000
,  // measure 43
0001
0000
0100
0000
1000
0000
0100
0000
0001
0100
0000
0010
1000
0000
0001
0000
,  // measure 44
0100
0000
0010
0000
1000
0000
0001
0000
1000
0001
0000
0100
0010
0000
1000
0000
,  // measure 45
0010
0100
0010
1000
0002
0000
1003
0000
,  // measure 46
1020
0130
0201
0310
,  // measure 47
0001
0000
0010
0001
0010
0000
0100
1000
0100
0000
1000
0000
0001
0000
0000
0000
,  // measure 48
1000
0000
0010
1000
0010
0000
0100
0001
0100
0000
0001
0000
1000
0000
0000
0000
,  // measure 49
0001
0000
0100
0000
0001
0000
0010
0000
0001
1000
0000
0010
0000
0100
0000
0001
,  // measure 50
0000
0000
1000
0000
0010
0000
0100
0000
0010
1000
0000
0001
0000
0100
0000
0010
,  // measure 51
0000
0000
1000
0000
0001
0000
0100
0000
0010
0100
0000
0001
0000
1000
0000
0010
,  // measure 52
1000
0100
0001
0100
1000
0100
0001
0100
,  // measure 53
1000
0000
0100
0000
1000
0000
0010
0000
0100
0001
0000
0100
0000
0010
0000
1000
,  // measure 54
0000
0000
0001
0000
0010
0000
0001
0000
0100
0001
0000
1000
0000
0100
0000
0010
,  // measure 55
0000
0000
0100
0000
1000
0000
0001
0000
0010
0001
0000
0010
0000
0100
0000
1000
,  // measure 56
0001
0010
1000
0010
0001
0010
1000
0010
,  // measure 57
0001
0000
0100
0000
0010
0000
0100
0000
0001
1000
0000
1000
0000
0001
0000
0001
,  // measure 58
0000
0000
0100
0000
0001
0000
1000
0000
0010
0100
0000
0100
0000
0010
0000
0010
,  // measure 59
0000
0000
1000
0000
0001
0000
0100
0000
0001
1000
0000
0001
0000
0001
0000
1000
,  // measure 60
0001
0010
0100
1000
0010
0100
0001
1000
,  // measure 61
0010
0000
0100
0000
0010
0000
1000
0000
0001
0100
0000
0100
0000
0001
0000
0001
,  // measure 62
0000
0000
1000
0000
0001
0000
0100
0000
0010
1000
0000
1000
0000
0010
0000
0010
,  // measure 63
0000
0000
0100
0000
0001
0000
1000
0000
0001
0100
0000
0010
0000
0010
0000
0100
,  // measure 64
0010
1000
0001
0100
0001
1000
0010
0000
,  // measure 65
1002
1003
0210
0310
,  // measure 66
1000
0000
0001
0010
0100
0000
0100
0010
0001
0000
1000
0001
1000
0000
0000
0000
,  // measure 67
0001
0000
1000
0100
0010
0000
0010
0100
1000
0000
0001
0000
1000
0000
0220
0000
,  // measure 68
0000
0000
0000
0000
,  // measure 69
0000
0000
0330
0000
0000
0000
1000
0001
1000
0000
0000
0000
0000
0000
0000
0000
;
