#TITLE:Crystal Ship;
#SUBTITLE:;
#ARTIST:RenegadeMasterz;
#TITLETRANSLIT:;
#SUBTITLETRANSLIT:;
#ARTISTTRANSLIT:;
#CREDIT:348 with Timer Rabbit;
#BANNER:Crystal Ship Banner.png;
#BACKGROUND:Crystal Ship Background.png;
#LYRICSPATH:;
#CDTITLE:348 with Timer Rabbit.png;
#MUSIC:Crystal Ship.mp3;
#OFFSET:-0.621;
#SAMPLESTART:26.692;
#SAMPLELENGTH:15.000;
#SELECTABLE:YES;
#BPMS:0.000=143.781,16.000=145.409;
#STOPS:;
#BGCHANGES:;

//---------------dance-single - ----------------
#NOTES:
     dance-single:
     :
     Beginner:
     1:
     0.099,0.114,0.000,0.000,0.000: // measure 1
0000
0000
0000
0000
,  // measure 2
0000
0000
0000
0000
,  // measure 3
0000
0000
0000
0000
,  // measure 4
0000
0000
0000
0000
,  // measure 5
1000
0000
0000
0000
,  // measure 6
1000
0000
0000
0000
,  // measure 7
0001
0000
0000
0000
,  // measure 8
0001
0000
0000
0000
,  // measure 9
0100
0000
0000
0000
,  // measure 10
0100
0000
0000
0000
,  // measure 11
0010
0000
0000
0000
,  // measure 12
0010
0000
0000
0000
,  // measure 13
1000
0000
0000
0000
,  // measure 14
0100
0000
0000
0000
,  // measure 15
0010
0000
0000
0000
,  // measure 16
0001
0000
0000
0000
,  // measure 17
1000
0000
0001
0000
,  // measure 18
1000
0000
0000
0000
,  // measure 19
0010
0000
0100
0000
,  // measure 20
0010
0000
0000
0000
,  // measure 21
1000
0000
0100
0000
,  // measure 22
0010
0000
0000
0000
,  // measure 23
0001
0000
0010
0000
,  // measure 24
0100
0000
0000
0000
,  // measure 25
1000
0000
0000
0000
,  // measure 26
0001
0000
0001
0000
,  // measure 27
0100
0000
0000
0000
,  // measure 28
0010
0000
0010
0000
,  // measure 29
1000
0000
0000
0000
,  // measure 30
0100
0000
0100
0000
,  // measure 31
0010
0000
0000
0000
,  // measure 32
0001
0000
0001
0000
,  // measure 33
1000
0000
0000
0000
,  // measure 34
0001
0000
0000
0000
,  // measure 35
1000
0000
0001
0000
,  // measure 36
1000
0000
0000
0000
,  // measure 37
0010
0000
0000
0000
,  // measure 38
0100
0000
0000
0000
,  // measure 39
0010
0000
0100
0000
,  // measure 40
0010
0000
0000
0000
,  // measure 41
1000
0000
0000
0000
,  // measure 42
1000
0000
1000
0000
,  // measure 43
0001
0000
0000
0000
,  // measure 44
0001
0000
0001
0000
,  // measure 45
0010
0000
0000
0000
,  // measure 46
0010
0000
0010
0000
,  // measure 47
0100
0000
0000
0000
,  // measure 48
0100
0000
0100
0000
,  // measure 49
1000
0000
0000
0000
,  // measure 50
1000
0000
0000
0000
,  // measure 51
0100
0000
0000
0000
,  // measure 52
0100
0000
0000
0000
,  // measure 53
0010
0000
0000
0000
,  // measure 54
0010
0000
0000
0000
,  // measure 55
0001
0000
0000
0000
,  // measure 56
0001
0000
0000
0000
,  // measure 57
1000
0000
0000
0000
,  // measure 58
0001
0000
1000
0000
,  // measure 59
0001
0000
0000
0000
,  // measure 60
1000
0000
0100
0000
,  // measure 61
1000
0000
0000
0000
,  // measure 62
0001
0000
0010
0000
,  // measure 63
0001
0000
0000
0000
,  // measure 64
1000
0000
0000
0000
,  // measure 65
0001
0000
0000
0000
;

//---------------dance-single - ----------------
#NOTES:
     dance-single:
     :
     Easy:
     2:
     0.174,0.199,0.018,0.053,0.000: // measure 1
0000
0000
0000
0000
,  // measure 2
0000
0000
0000
0000
,  // measure 3
0000
0000
0000
0000
,  // measure 4
0000
0000
0000
0000
,  // measure 5
1000
0000
0100
0000
,  // measure 6
2000
0000
3000
0000
,  // measure 7
0001
0000
0010
0000
,  // measure 8
0002
0000
0003
0000
,  // measure 9
1000
0000
0100
0000
,  // measure 10
0100
0000
0000
0000
,  // measure 11
0010
0000
0001
0000
,  // measure 12
0001
0000
0000
0000
,  // measure 13
1000
0000
0001
0000
,  // measure 14
1000
0000
0000
0000
,  // measure 15
0010
0000
0100
0000
,  // measure 16
0010
0000
0000
0000
,  // measure 17
1000
0000
0100
0000
,  // measure 18
0010
0001
0010
0000
,  // measure 19
0001
0000
0100
0000
,  // measure 20
0010
1000
0010
0000
,  // measure 21
1000
0000
0001
0000
,  // measure 22
1000
0001
1000
0000
,  // measure 23
0010
0000
0100
0000
,  // measure 24
0010
0100
0010
0000
,  // measure 25
1000
0000
0001
0010
,  // measure 26
0001
0000
1000
0000
,  // measure 27
0001
0000
1000
0100
,  // measure 28
1000
0000
0001
0000
,  // measure 29
0100
0000
0001
1000
,  // measure 30
0001
0000
0100
0000
,  // measure 31
0010
0000
1000
0001
,  // measure 32
1000
0000
0010
0000
,  // measure 33
2000
0000
3100
0000
,  // measure 34
0020
0000
0031
0000
,  // measure 35
1000
0000
0001
0000
,  // measure 36
1000
0000
0110
0000
,  // measure 37
0002
0000
0013
0000
,  // measure 38
0200
0000
1300
0000
,  // measure 39
0010
0000
0100
0000
,  // measure 40
0010
0000
1001
0000
,  // measure 41
1000
0000
0000
0000
,  // measure 42
0001
0000
0000
0000
,  // measure 43
1000
0000
0100
0000
,  // measure 44
0010
0000
0001
0000
,  // measure 45
0100
0000
0000
0000
,  // measure 46
0010
0000
0000
0000
,  // measure 47
0100
0000
0001
0000
,  // measure 48
1000
0000
0010
0000
,  // measure 49
1000
1000
1000
0000
,  // measure 50
0001
0000
0001
0000
,  // measure 51
0100
0100
0100
0000
,  // measure 52
0010
0000
0010
0000
,  // measure 53
0010
0010
0010
0000
,  // measure 54
0100
0000
0100
0000
,  // measure 55
0001
0001
0001
0000
,  // measure 56
1000
0000
1000
0000
,  // measure 57
0001
0000
1000
0010
,  // measure 58
1000
0000
0001
0100
,  // measure 59
0001
0000
1000
0001
,  // measure 60
1000
0000
0010
0000
,  // measure 61
0100
0000
0010
1000
,  // measure 62
0010
0000
0100
0001
,  // measure 63
0100
0000
0010
0100
,  // measure 64
0010
0000
1000
0000
,  // measure 65
0001
0000
0000
0000
;

//---------------dance-single - ----------------
#NOTES:
     dance-single:
     :
     Medium:
     5:
     0.366,0.370,0.276,0.125,0.000: // measure 1
0000
0000
0000
0000
,  // measure 2
0000
0000
0000
0000
,  // measure 3
0000
0000
0000
0000
,  // measure 4
0000
0000
0000
0000
,  // measure 5
1000
0100
0010
0001
,  // measure 6
0020
0000
0031
1000
,  // measure 7
0001
0100
0010
1000
,  // measure 8
0002
0000
0103
0010
,  // measure 9
0100
0000
0001
0000
1000
0010
1000
0000
,  // measure 10
0001
0000
1000
1001
,  // measure 11
1000
0000
0010
0000
0100
0001
0100
0000
,  // measure 12
0010
0000
0100
0110
,  // measure 13
0001
0000
1000
0100
1000
0000
0001
0000
,  // measure 14
2000
0000
0010
3010
,  // measure 15
0100
0000
0010
1000
0010
0000
0100
0000
,  // measure 16
0002
0000
0100
0103
,  // measure 17
0001
0010
0011
0000
,  // measure 18
0100
1000
1100
0000
,  // measure 19
1000
0001
1100
0011
,  // measure 20
1000
0001
1001
0000
,  // measure 21
0001
0100
0101
0000
,  // measure 22
0010
1000
1010
0000
,  // measure 23
0010
0100
0101
1010
,  // measure 24
0010
0100
0110
0000
,  // measure 25
0001
0000
1000
0100
1000
0000
0000
0000
,  // measure 26
0001
0000
1000
0010
1000
0000
0000
0000
,  // measure 27
0001
0000
1000
0001
1000
0000
0010
0100
,  // measure 28
0010
0100
0110
1001
,  // measure 29
1000
0000
0001
0010
0001
0000
0000
0000
,  // measure 30
1000
0000
0001
0100
0001
0000
0000
0000
,  // measure 31
1000
0000
0001
1000
0001
0000
0100
0010
,  // measure 32
0100
0010
1001
0110
,  // measure 33
0002
0000
1000
1003
,  // measure 34
0200
0000
0010
0310
,  // measure 35
0010
0000
0100
0000
0001
0010
0001
0000
,  // measure 36
1000
0101
1100
0001
,  // measure 37
2000
0000
0001
3001
,  // measure 38
0020
0000
0100
0130
,  // measure 39
1000
0000
0010
0000
0100
0001
0100
0000
,  // measure 40
0001
0011
1010
1000
,  // measure 41
0001
0000
0001
0000
0001
0010
0000
0000
,  // measure 42
0100
0000
0100
0000
0100
0000
1000
0001
,  // measure 43
1000
0000
0001
0000
1000
0000
0010
0100
,  // measure 44
0010
0200
0310
0000
,  // measure 45
1000
0000
1000
0000
1000
0100
0000
0000
,  // measure 46
0010
0000
0010
0000
0010
0000
0001
0010
,  // measure 47
0001
0000
1000
0000
0001
0000
1000
0100
,  // measure 48
1000
0020
0130
0000
,  // measure 49
0001
0010
0001
1010
,  // measure 50
1000
0100
1000
0101
,  // measure 51
0001
0000
1000
0000
0001
0010
0001
0000
,  // measure 52
1000
0000
0110
0000
0001
0000
1000
0100
,  // measure 53
1000
0010
0100
0011
,  // measure 54
0001
0100
0010
1100
,  // measure 55
0010
0000
0100
0000
0010
0100
0010
0000
,  // measure 56
0100
0000
1001
0000
0010
0000
0100
0010
,  // measure 57
0100
0001
2000
3100
,  // measure 58
0010
0001
2000
3010
,  // measure 59
1000
0000
0110
0000
0001
0000
0100
0010
,  // measure 60
0100
0001
1001
1000
,  // measure 61
0001
0100
0002
1003
,  // measure 62
0010
1000
0002
0103
,  // measure 63
0100
0000
1001
0000
0010
0000
1000
0001
,  // measure 64
1000
0010
0110
0100
,  // measure 65
1001
0000
0000
0000
;

//---------------dance-single - ----------------
#NOTES:
     dance-single:
     :
     Hard:
     7:
     0.473,0.456,0.570,0.125,0.000: // measure 1
0000
0000
0000
0000
,  // measure 2
0000
0000
0000
0000
,  // measure 3
0000
0000
0000
0000
,  // measure 4
0000
0000
0000
0000
,  // measure 5
1000
0000
0001
0000
0010
0001
0010
0000
,  // measure 6
0002
0000
0100
1003
,  // measure 7
0010
0000
0100
0000
0010
1000
0010
0000
,  // measure 8
2000
0100
0010
3001
,  // measure 9
0002
0013
0200
1300
,  // measure 10
0012
0000
1000
1003
,  // measure 11
2000
3100
0020
0031
,  // measure 12
2100
0000
0001
3001
,  // measure 13
0001
0000
1000
0100
0010
0000
0100
0000
,  // measure 14
1000
0000
0001
0100
0010
0000
0100
0000
,  // measure 15
0001
0000
1000
0001
1000
0000
0010
0000
,  // measure 16
2002
3003
0110
1001
,  // measure 17
1000
0000
1000
0000
1000
0010
0000
0010
,  // measure 18
0100
0000
0100
0000
0100
0001
0000
0001
,  // measure 19
0010
0000
0011
0000
1100
0000
0001
1000
,  // measure 20
0001
0110
1001
0110
,  // measure 21
0001
0000
0001
0000
0001
0010
0000
0010
,  // measure 22
0100
0000
0100
0000
0100
1000
0000
1000
,  // measure 23
0010
0000
1010
0000
0101
0000
0100
0010
,  // measure 24
0100
1001
0110
1001
,  // measure 25
1000
0000
1000
0100
0010
0000
0001
0000
,  // measure 26
0001
0000
0001
0010
0100
0000
1000
0000
,  // measure 27
2000
0000
3001
0000
0110
0000
0001
0100
,  // measure 28
0010
0000
1010
0000
0101
0000
1000
0010
,  // measure 29
0100
0000
0100
0001
1000
0000
0010
0000
,  // measure 30
0010
0000
0010
1000
0001
0000
0100
0000
,  // measure 31
0020
0000
0130
0000
1001
0000
0001
0010
,  // measure 32
0100
0000
0011
0000
1100
0000
0010
0100
,  // measure 33
1000
0000
1000
0100
0001
0000
0001
0100
,  // measure 34
1000
0000
0001
0100
0001
0000
1010
0000
,  // measure 35
0101
0000
1001
0000
1000
0100
0010
0100
,  // measure 36
1000
0000
0011
0000
1100
0000
0001
0010
,  // measure 37
0001
0000
0001
0010
1000
0000
1000
0010
,  // measure 38
0001
0000
1000
0010
1000
0000
1100
0000
,  // measure 39
0011
0000
0110
0000
0001
0100
0010
0100
,  // measure 40
0001
0000
1001
0000
0110
0000
1000
0100
,  // measure 41
1000
0000
0001
0010
0100
2000
0000
0000
,  // measure 42
3001
0000
1000
0010
0100
0000
0001
0000
,  // measure 43
1000
1100
0001
0011
,  // measure 44
1000
0010
0100
0000
1001
0000
0010
0100
,  // measure 45
0001
0000
1000
0100
0010
0002
0000
0000
,  // measure 46
1003
0000
0001
0100
0010
0000
1000
0000
,  // measure 47
0010
1010
0100
0101
,  // measure 48
0001
0010
0100
0000
0110
0000
0010
0100
,  // measure 49
1000
0000
0001
1000
0100
1000
0001
0000
,  // measure 50
0100
0000
0010
1000
0001
1000
0010
0000
,  // measure 51
1100
1010
0101
0011
,  // measure 52
1001
0000
0100
0010
0100
0000
1001
0000
,  // measure 53
0001
0000
1000
0001
0010
0001
1000
0000
,  // measure 54
0010
0000
0100
0001
1000
0001
0100
0000
,  // measure 55
0011
1010
1100
0101
,  // measure 56
0110
0000
0001
1000
0001
0000
0110
0000
,  // measure 57
1000
0000
1100
0000
1010
0000
1000
0001
,  // measure 58
0010
0000
0011
0000
0101
0000
0001
1000
,  // measure 59
0010
0000
0010
1000
0001
0000
1000
0001
,  // measure 60
1000
0110
1001
0110
,  // measure 61
0001
0000
0011
0000
0101
0000
0001
1000
,  // measure 62
0100
0000
1100
0000
1010
0000
1000
0001
,  // measure 63
0100
0000
0100
0001
1000
0000
0010
0100
,  // measure 64
0010
1001
0110
1001
,  // measure 65
1001
0000
0000
0000
;

//---------------dance-single - ----------------
#NOTES:
     dance-single:
     :
     Challenge:
     9:
     0.604,0.570,0.347,0.053,0.369: // measure 1
0000
0000
0000
0000
,  // measure 2
0000
0000
0000
0000
,  // measure 3
0000
0000
0000
0000
,  // measure 4
0000
0000
0000
0000
,  // measure 5
1100
0000
0000
0000
1010
0000
0000
0001
0010
0000
0100
0000
0010
0000
0000
0000
,  // measure 6
0011
0000
0000
0000
0101
0000
0000
1000
0010
0000
0100
0000
0010
0000
0000
0000
,  // measure 7
1001
0000
0000
0000
0110
0000
0000
0010
1000
0000
0001
0000
0100
0000
0000
0000
,  // measure 8
0110
0000
0000
0000
1001
0000
0000
0100
0010
0000
1000
0000
0001
0000
1000
0000
,  // measure 9
0100
0000
0010
0000
0001
0000
0000
0001
1000
0000
0100
0000
1000
0000
0000
0000
,  // measure 10
0001
0000
0100
0000
0010
0000
0000
0010
0100
0000
0001
0000
1000
0000
0000
0000
,  // measure 11
0010
0000
1000
0000
0010
0000
0000
0010
0100
0000
0001
0000
0100
0000
0000
0000
,  // measure 12
0001
0000
0010
0000
1000
0000
0000
1000
0010
0000
0001
0000
1000
0000
0000
0000
,  // measure 13
0001
0000
0010
0000
0100
0000
1000
0001
1000
0000
0001
0000
0100
0000
0000
0000
,  // measure 14
0001
0000
1000
0000
0100
0000
0010
0100
0010
0000
0001
0000
1000
0000
0000
0000
,  // measure 15
0001
0000
1000
0100
1000
0000
0000
0000
1000
0000
0001
0010
0001
0000
0000
0000
,  // measure 16
1000
0000
0001
0100
0001
0000
1000
0010
1000
0000
0001
1000
0001
0000
0100
0000
,  // measure 17
0001
0000
0000
0000
1001
0000
0000
0000
1000
0100
0000
0000
1001
0000
0000
0000
,  // measure 18
0100
0000
0000
0000
0110
0000
0000
0000
0010
0100
0000
0000
0110
0000
0000
0000
,  // measure 19
0101
0000
0000
0000
0100
0001
0000
0000
1010
0000
0000
0000
1000
0010
0000
0000
,  // measure 20
1000
0100
0000
0000
0010
0001
0000
0000
1100
0000
0000
0000
0001
0000
0010
0000
,  // measure 21
0001
0000
0000
0000
1000
0000
0001
0010
0001
0000
0000
0000
1100
0000
0000
0000
,  // measure 22
0010
0000
0000
0000
1000
0000
0010
0100
0010
0000
0000
0000
0101
0000
0000
0000
,  // measure 23
0001
1000
0000
0000
0010
0100
0000
0000
0011
0000
0000
0000
1100
0000
0000
0000
,  // measure 24
0010
1000
0000
0000
0001
0100
0000
0000
1001
0000
0000
0000
1000
0000
0100
0000
,  // measure 25
1000
0000
0000
0000
0001
0000
0100
0001
0100
0000
0001
0000
0010
0000
0100
0000
,  // measure 26
0010
0000
0000
0000
0001
0000
1000
0100
1000
0000
0010
0000
0100
0000
0001
0000
,  // measure 27
2000
0000
0000
0000
3001
0000
0000
0010
0001
0000
0100
0000
0010
0000
1000
0000
,  // measure 28
0002
0000
0000
0000
1003
0000
0000
0100
1000
0000
0001
0000
0010
0000
0001
0000
,  // measure 29
1000
0000
0100
0000
1000
0000
0010
1000
0010
0000
0000
0000
1100
0000
0000
0000
,  // measure 30
0001
0000
0010
0000
0001
0000
0100
0001
0100
0000
0000
0000
0011
0000
0000
0000
,  // measure 31
1000
0100
0000
0000
0100
1000
0000
0000
0001
0010
0000
0000
0010
0001
0000
0000
,  // measure 32
1001
0000
0000
0000
0001
0000
1000
0100
1000
0000
0000
0110
0000
0000
0001
0000
,  // measure 33
1000
0000
0100
0000
0020
0000
0000
0031
1000
0000
0001
0000
0100
0000
0000
0000
,  // measure 34
0010
0000
1000
0000
0200
0000
0000
1300
0001
0000
0010
0000
0100
0000
0000
0000
,  // measure 35
0010
0001
0100
1000
0100
0001
0010
0001
,  // measure 36
1000
0010
0000
0000
0100
0001
0000
0000
0110
0000
0000
0000
1000
0000
0001
0000
,  // measure 37
1000
0000
0100
0000
0010
0000
0001
1000
0010
0000
0100
0000
0001
0000
1000
0000
,  // measure 38
0100
0000
0010
0000
0001
0000
1000
0001
0100
0000
0010
0000
0100
0000
0001
0000
,  // measure 39
0100
0001
0000
0000
1000
0010
0000
0000
1000
0000
0100
0000
1000
0000
0010
0000
,  // measure 40
1000
0001
0000
0000
0100
0010
0000
0000
0100
0000
0001
0000
0100
0000
0010
0000
,  // measure 41
0100
0000
0000
0001
0010
0000
1000
0000
0010
0000
0001
0000
1000
0000
0000
0000
,  // measure 42
0110
0000
0000
1000
0100
0000
0001
0000
0100
0000
1000
0000
0001
0000
0000
0000
,  // measure 43
1100
0000
0000
0001
0010
0000
0000
0000
0011
0000
0000
0100
1000
0000
0000
0000
,  // measure 44
1001
0000
0000
0000
0001
0000
0100
0010
0100
0000
0000
0000
0010
0000
1000
0001
,  // measure 45
1000
0000
0000
0100
1000
0000
0100
0000
0010
0000
0100
0000
1000
0000
0001
0000
,  // measure 46
0011
0000
0000
1000
0010
0000
0100
0000
0010
0000
1000
0000
0001
0000
0100
0000
,  // measure 47
0001
1000
0000
0000
0110
0000
0000
0000
0010
0100
0000
0000
1001
0000
0000
0000
,  // measure 48
0110
0000
0000
0000
1000
0000
0001
0010
0100
0000
0010
0000
0001
0000
1000
0000
,  // measure 49
0002
0000
0010
0000
1000
1000
1000
0000
,  // measure 50
0100
0000
0010
0000
0100
0100
0103
0000
,  // measure 51
0100
0000
0001
1000
0010
0000
0000
0000
0100
0000
0010
1000
0100
0000
0000
0000
,  // measure 52
1000
0001
0000
0000
0001
1000
0000
0000
1001
0000
0000
0000
1000
0000
0001
0000
,  // measure 53
2000
0000
0100
0100
0100
0000
0001
0000
,  // measure 54
0010
0000
0001
0001
0001
0000
3100
0000
,  // measure 55
0001
0000
1000
0100
0010
0000
0000
0000
0100
0000
1000
0001
0100
0000
0000
0000
,  // measure 56
0010
0000
0100
0010
0100
0000
0001
0000
0100
0000
0000
1001
0000
0000
0010
0000
,  // measure 57
1000
0000
0000
0001
0010
0000
0100
0000
0010
0000
0100
0000
0010
0000
0001
0000
,  // measure 58
0100
0000
0000
0010
1000
0000
0100
0000
1000
0000
0100
0000
1000
0000
0010
0000
,  // measure 59
1000
0000
0001
1000
0100
0000
0000
0000
0010
0000
0001
1000
0001
0000
0000
0000
,  // measure 60
1000
0100
0000
0000
0010
0001
0000
0000
1001
0000
0000
0000
1000
0000
0001
0010
,  // measure 61
0001
0000
0000
1000
0100
0000
0010
0000
0100
0000
0010
0000
0100
0000
1000
0000
,  // measure 62
0001
0000
0000
0100
0001
0000
0010
0000
0001
0000
0010
0000
0001
0000
0100
0000
,  // measure 63
0101
0000
0000
0000
0001
0100
0000
0000
1010
0000
0000
0000
1000
0010
0000
0000
,  // measure 64
1001
0000
0000
1000
0001
0000
0000
0100
0010
0000
0000
0010
0100
0000
0000
1000
,  // measure 65
0001
0000
0000
0000
;
