#TITLE:Break the Rule;
#SUBTITLE:;
#ARTIST:kors k feat.ЯIRE;
#TITLETRANSLIT:Break the Rule;
#SUBTITLETRANSLIT:;
#ARTISTTRANSLIT:kors k feat.RIRE;
#CREDIT:hooky;
#MENUCOLOR:#FF00FF;
#BANNER:Break the Rule.png;
#BACKGROUND:Break the Rule-bg.png;
#LYRICSPATH:;
#CDTITLE:;
#MUSIC:Break the Rule.ogg;
#OFFSET:-0.100;
#SAMPLESTART:14.860;
#SAMPLELENGTH:12.760;
#SELECTABLE:YES;
#BPMS:0.000=130.000;
#STOPS:;
#BGCHANGES:;

//---------------dance-single - ----------------
#NOTES:
     dance-single:
     hooky:
     Easy:
     3:
     0.230,0.266,0.042,0.050,0.000: // measure 1
0000
0000
0000
0000
,  // measure 2
0000
0000
0000
0000
,  // measure 3
0000
0000
0000
0000
,  // measure 4
0000
0000
0000
0000
,  // measure 5
1000
0001
1000
0001
,  // measure 6
0010
0100
0010
0100
,  // measure 7
1000
0000
0001
0000
,  // measure 8
0100
0000
0000
0000
,  // measure 9
0010
1000
0100
0100
,  // measure 10
1000
0010
0100
0000
,  // measure 11
0001
0010
0100
0100
,  // measure 12
0010
0001
0100
0000
,  // measure 13
1000
0100
0010
0010
,  // measure 14
0100
0001
1000
0000
,  // measure 15
0010
0100
0010
0010
,  // measure 16
1000
0100
1000
0000
,  // measure 17
0001
1000
0010
0000
,  // measure 18
0100
0001
1000
0000
,  // measure 19
0100
1000
0010
0010
,  // measure 20
1000
0000
0100
0000
,  // measure 21
0001
0010
0100
0000
,  // measure 22
1000
0100
0010
0000
,  // measure 23
0001
1000
0001
0100
,  // measure 24
0010
0010
1000
0100
,  // measure 25
1100
0000
0011
0000
,  // measure 26
0001
0100
0010
0000
,  // measure 27
1000
0000
0100
0000
,  // measure 28
1000
0000
0010
0000
,  // measure 29
0100
0000
0000
0000
,  // measure 30
0001
0000
0000
0000
,  // measure 31
1000
0000
0100
0000
,  // measure 32
2002
0000
0000
3003
,  // measure 33
0010
0001
1000
0000
,  // measure 34
0100
0010
1000
0000
,  // measure 35
1000
0100
1000
0000
,  // measure 36
0010
0001
0010
0000
,  // measure 37
0001
0100
0010
0000
,  // measure 38
0010
0100
1000
0000
,  // measure 39
1000
0100
1000
0000
,  // measure 40
0001
0100
1000
0000
,  // measure 41
0010
0100
1000
0000
,  // measure 42
0010
0001
1000
0000
,  // measure 43
0100
0001
0010
0000
,  // measure 44
1000
0001
0100
0000
,  // measure 45
0100
0001
1000
0000
,  // measure 46
0010
0100
1000
0000
,  // measure 47
0100
0001
0010
0100
,  // measure 48
0220
0000
0000
0330
,  // measure 49
0001
1000
0100
0100
,  // measure 50
1000
0010
0100
0000
,  // measure 51
0001
1000
0100
0010
,  // measure 52
1000
0001
0100
0000
,  // measure 53
0010
1000
0100
0100
,  // measure 54
0010
0001
1000
0000
,  // measure 55
0100
0100
0010
1000
,  // measure 56
0001
0100
0001
0000
,  // measure 57
0010
0001
1000
1000
,  // measure 58
0100
0010
1000
0000
,  // measure 59
0001
0100
0010
0010
,  // measure 60
1000
0100
1000
0000
,  // measure 61
0001
0100
0010
0010
,  // measure 62
1000
0001
0100
0000
,  // measure 63
0001
0010
0001
1000
,  // measure 64
0010
0100
2002
0000
,  // measure 65
3003
0000
0000
0000
;

//---------------dance-single - Copied from----------------
#NOTES:
     dance-single:
     hooky:
     Medium:
     7:
     0.379,0.399,0.058,0.058,0.000:
0000
0000
0000
0000
,
0000
0000
0000
0000
,
0000
0000
0000
0000
,
0000
0000
0000
0000
,
1000
0000
0100
0000
1000
0100
1000
0000
,
0010
0000
0100
0000
0001
0100
0001
0000
,
0010
0000
0010
0000
,
1000
0100
1000
0000
,
0010
0000
1000
0000
0001
1000
0001
0000
,
0100
0010
1000
0000
0100
0000
0100
0000
,
1000
0001
0100
0010
1000
0000
1000
0000
,
0100
1000
0010
0100
0001
0000
0001
0000
,
0001
1000
0010
1000
0100
0000
0100
0000
,
0100
1000
0100
0001
0010
0000
0010
0000
,
0001
0100
0001
1000
0001
0100
0010
0000
,
1000
0100
1000
0010
0100
0001
0010
0000
,
1000
0000
0010
0000
1000
0001
0100
0000
,
0010
0000
0010
0000
1000
0100
1100
0000
,
0002
0003
0101
0101
,
1000
0010
0100
0000
1000
0010
1000
0000
,
0100
0000
0010
0000
1000
0100
0010
0000
,
0001
0000
0100
0000
0001
0100
0010
0000
,
0001
1000
0001
1000
,
0010
0100
0010
0100
,
1000
0100
1000
0000
0010
0000
0010
0000
,
0001
0010
0001
0000
0100
0000
0100
0000
,
0001
0100
0001
0000
0010
0000
0010
0000
,
0010
1000
0100
0000
0100
0010
0001
0000
,
0100
0000
0100
0000
0010
1000
0001
0000
,
0100
0001
0010
0000
0001
0100
0010
0000
,
1000
1000
0100
0100
,
0220
0000
0000
0330
,
0100
0000
0100
0000
0001
0100
0001
0000
,
1000
0000
1000
0000
1000
0100
1000
0000
,
0010
0100
0010
0000
1000
0000
0100
1000
,
0100
0010
0110
0000
,
0001
0000
1000
0000
0100
1000
0100
0000
,
0010
0000
1000
0000
0001
0100
0001
0000
,
0001
0010
0001
0100
0010
0000
0010
0000
,
0010
1000
0100
1000
0010
0000
0010
0000
,
0100
0001
0100
0001
0010
0000
0010
0000
,
1000
0000
0100
1000
0010
0000
0010
0000
,
0100
0001
1000
0000
0100
0000
0100
0000
,
0010
0100
0110
0010
,
2000
0000
0001
3000
,
0002
0000
1000
0003
,
0100
0000
0010
0000
1000
0100
1000
0000
,
1002
0000
1000
1003
,
1000
0000
0001
0000
1000
0010
0100
0000
,
0001
0010
0001
0010
0001
0000
0100
0000
,
0001
1000
0010
1000
0100
0000
0100
0000
,
0100
1000
0010
0100
0001
0000
0001
0000
,
0001
1000
0100
0010
0010
0000
1000
0000
,
0100
1000
0010
0100
0001
0000
0001
0000
,
1000
0100
1000
1000
0010
0100
0001
0000
,
1000
0010
0100
0001
0010
0000
0010
0000
,
0001
1000
0100
0010
1000
0000
1000
0000
,
0001
0100
0001
0010
0001
0000
1000
0000
,
1000
0100
0010
1000
0001
0001
0010
0000
,
0100
0001
1000
0010
0100
0000
0100
0000
,
0001
1000
0010
0100
1000
0000
1000
0000
,
0100
0010
1000
0001
0100
0000
0100
0000
,
0001
0010
0001
1000
0010
0000
0100
0000
,
0010
0000
0100
0000
2000
0000
0000
3001
;

//---------------dance-single - Copied from----------------
#NOTES:
     dance-single:
     hooky:
     Hard:
     8:
     0.491,0.452,0.067,0.058,0.275:
0000
0000
0000
0000
,
0000
0000
0000
0000
,
1000
0100
1000
0100
,
0010
0001
0010
0001
,
1000
0100
1000
0000
0010
0100
0010
0000
,
0010
0001
0010
0000
0100
0010
0100
0000
,
1000
0100
1000
0000
1000
0001
0010
0000
,
0010
0100
0010
0000
2000
0000
3001
0000
,
1000
0000
1000
0100
1000
0000
0010
0000
0001
0000
0000
0001
0000
0000
0100
0010
,
0100
0000
0010
0000
0100
0000
0000
0000
0010
0000
0000
1000
0000
0000
0001
0000
,
0000
0000
0001
0010
0001
0000
0100
0000
1000
0000
0000
1000
0000
0000
0010
0100
,
0010
0000
0100
0000
0010
0000
0000
0000
0100
0000
0000
0001
0000
0000
1000
0000
,
0000
0000
1000
0100
1000
0000
0010
0000
0001
0000
0000
1000
0000
0000
0010
0100
,
0010
0000
0100
0000
0001
0000
0000
0000
1000
0000
0000
0010
0000
0000
0001
0000
,
0000
0000
0001
0010
0001
0000
0100
0000
1000
0000
0000
0001
0000
0000
0100
0010
,
0100
0000
0010
0000
1000
0000
0000
0000
0001
0000
0000
0100
0000
0000
1000
0000
,
0100
0000
0100
0000
0010
0100
0010
0100
,
1000
0100
1000
0100
0010
0000
0010
0001
,
0200
0001
0000
0002
0000
0303
0100
1000
,
0100
0000
0010
0000
1000
0100
1000
0000
,
0010
0001
0010
0000
0100
0010
0100
0001
,
0010
0001
0010
0100
0000
0100
0010
0000
,
0110
0000
1000
0100
0000
0010
0001
0100
,
0110
1001
1100
0011
,
1000
0100
0010
0100
0001
0000
0100
0000
,
1000
0100
0100
1000
0010
0100
0001
0000
,
0100
0010
0001
0000
1000
0100
1000
0000
,
0010
0100
0010
0000
0001
0010
0001
0000
,
0100
0000
0100
0000
0010
0100
0010
0000
,
1000
0000
1000
0000
0001
1000
0001
0000
,
1100
0010
0110
0001
,
2002
0000
0000
3003
,
1000
0000
0100
0000
1000
0100
0000
0010
0000
0000
0000
0000
0100
0000
0001
0000
,
0010
0000
0100
0010
0000
0010
0000
0001
0000
0000
0100
0000
1000
0000
0100
0000
,
1000
0100
0010
0001
0010
0001
0100
1000
,
0100
0010
0100
0010
0100
0000
0001
0000
,
0001
0000
0010
0000
0001
0010
0000
0100
0000
0000
0000
0000
0010
0000
1000
0000
,
0100
0000
0010
0100
0000
0100
0000
1000
0000
0000
0100
0000
0001
0000
0010
0000
,
0001
0000
0010
0000
0100
0010
0000
0100
0000
0000
0010
0000
0100
0000
1000
0000
,
0010
0100
1000
0100
0010
0000
0100
1000
,
0001
0000
1000
0100
0000
0010
0000
0001
0000
0000
0100
0000
0010
0000
0100
0000
,
0010
0000
0001
0010
0000
0100
0000
1000
0000
0000
0100
0000
0010
0000
0100
0000
,
1000
0000
0100
0000
0010
0100
0000
0010
0000
0000
0100
0000
1000
0000
0100
0000
,
0010
0001
0010
0001
0010
0100
0010
0100
,
0002
1000
0100
1003
,
0200
0010
1000
0301
,
0100
0010
1000
0100
0010
0100
1000
0010
,
0001
0000
1000
1000
,
0001
0000
0001
0010
0001
0000
0100
0000
1000
0000
0000
1000
0000
0000
0010
0100
,
0010
0000
0100
0000
0010
0000
0000
0000
0100
0000
0000
0001
0000
0000
1000
0000
,
0000
0000
1000
0100
1000
0000
0010
0000
0001
0000
0000
0001
0000
0000
0100
0010
,
0100
0000
0010
0000
0100
0000
0000
0000
0010
0000
0000
1000
0000
0000
0001
0000
,
0000
0000
0001
0010
0001
0000
0100
0000
1000
0000
0000
0001
0000
0000
0100
0010
,
0100
0000
0010
0000
1000
0000
0000
0000
0001
0000
0000
0100
0000
0000
1000
0000
,
0000
0000
1000
0100
1000
0000
0010
0000
0001
0000
0000
1000
0000
0000
0010
0100
,
0010
0000
0100
0000
0001
0000
0000
0000
1000
0000
0000
0010
0000
0000
0100
0000
,
0000
0000
1000
0100
1000
0000
0010
0000
0001
0000
0000
0100
0000
0000
0010
0001
,
0010
0000
0001
0000
0010
0000
0100
0000
0010
0000
0000
0100
0000
0000
1000
0000
,
0000
0000
0100
0010
0100
0000
0001
0000
0010
0000
0000
0100
0000
0000
1000
0000
,
0100
0000
0010
0000
0100
0000
0001
0000
1000
0000
0000
0100
0000
0000
0001
0000
,
0000
0000
0100
0010
1000
0000
0100
0000
0010
0000
0000
0001
0000
0000
0010
0001
,
0010
0000
0100
0000
0010
0000
0000
0000
0100
0000
0000
0010
0000
0000
0001
0000
,
0000
0000
1000
0100
1000
0000
0010
0000
0100
0000
0000
0010
0000
0000
0010
0000
,
0100
0000
1000
0000
0100
0000
0010
0000
0001
0000
0000
1000
0000
0000
0001
0000
;

//---------------dance-single - Copied from----------------
#NOTES:
     dance-single:
     hooky:
     Beginner:
     1:
     0.130,0.185,0.017,0.000,0.000:
0000
0000
0000
0000
,
0000
0000
0000
0000
,
0000
0000
0000
0000
,
0000
0000
0000
0000
,
1000
0000
1000
0000
,
0001
0000
0001
0000
,
0100
0000
0000
0000
,
0010
0000
0000
0000
,
1000
0000
1000
0000
,
0001
0000
0000
0000
,
0100
0000
0100
0000
,
0010
0000
0000
0000
,
1000
0000
0100
0000
,
1000
0000
0000
0000
,
0010
0000
0001
0000
,
0010
0000
1000
1000
,
1000
0000
0001
0000
,
0100
0000
0010
0000
,
1000
0000
0000
0000
,
0001
0000
0000
0000
,
0100
0000
0010
0000
,
0100
0000
0000
0000
,
1000
0000
0001
0000
,
1000
0000
0000
0000
,
0010
0000
0100
0000
,
0010
0000
0100
0000
,
1000
0000
0001
0000
,
0010
0000
0000
0000
,
0100
0000
0000
0000
,
0001
0000
0000
0000
,
1000
0000
0100
0000
,
1000
0000
0000
0000
,
0010
0000
0010
0000
,
0100
0000
0000
0000
,
0001
0000
0001
0000
,
1000
0000
0000
0000
,
0100
0000
0100
0000
,
1000
0000
0000
0000
,
0010
0000
0010
0000
,
0100
0000
0000
0000
,
0001
0000
1000
0000
,
0001
0000
0000
0000
,
0010
0000
0100
0000
,
0010
0000
0000
0000
,
1000
0000
0000
0000
,
0001
0000
0000
0000
,
0100
0010
0100
1000
,
1001
0000
0000
0000
,
0100
0000
0100
0000
,
0001
0001
0001
0000
,
1000
0000
0100
0000
,
1000
1000
1000
0000
,
0001
0000
0100
0000
,
0001
0001
0001
0000
,
0010
0000
0001
0000
,
1000
1000
1000
0000
,
0010
0000
0100
0000
,
0001
0001
0001
0000
,
0001
0000
1000
0000
,
0100
0000
1000
1000
,
1000
0000
0001
0000
,
0100
0000
0010
0000
,
0100
0000
1000
0000
,
0001
0000
1001
0000
;
