#TITLE:Alfarshear;
#SUBTITLE:The Legend Of Silver Wings;
#ARTIST:TERRA;
#TITLETRANSLIT:;
#SUBTITLETRANSLIT:;
#ARTISTTRANSLIT:;
#CREDIT:;
#BANNER:bn.PNG;
#BACKGROUND:bg.PNG;
#LYRICSPATH:;
#CDTITLE:;
#MUSIC:Alfarshear, The Legend Of Silver Wings.mp3;
#OFFSET:-0.060;
#SAMPLESTART:39.540;
#SAMPLELENGTH:17.220;
#SELECTABLE:YES;
#BPMS:0.000=170.020,224.000=170.000;
#STOPS:224.000=1.079
;
#BGCHANGES:;

//---------------dance-single - ----------------
#NOTES:
     dance-single:
     :
     Hard:
     8:
     0.614,0.628,0.108,0.660,0.063:
0000
0000
0000
0000
,
0000
0000
0000
0000
,
0000
0000
0000
0000
,
0000
0000
0000
0000
0000
0000
1000
0001
,
0020
0001
0100
0031
,
2000
0010
0100
3010
,
0200
0001
0010
0301
,
2000
0000
0010
0000
3100
0000
1000
0001
,
0200
0010
1000
0310
,
2000
0001
0010
3001
,
0020
0001
0100
0031
,
1001
0000
0000
0000
0110
0010
1000
0001
,
1000
0000
0010
1000
0000
0001
0010
0001
,
0200
0320
2030
3200
,
0302
0000
0103
1000
0010
0100
0001
0000
,
1000
0000
0010
1000
0100
0010
0001
0000
,
1001
0000
1000
0100
0000
0010
0001
0100
,
0020
2030
3002
0023
,
0032
0000
0103
0010
2000
0000
3100
0000
,
0010
0001
1000
0010
0100
0001
0010
0001
,
0200
0000
0010
0000
1000
0000
0310
1000
,
0002
0000
0010
0000
0103
0000
1000
0001
,
0010
0000
0001
0100
0000
0010
1000
0000
,
0100
0000
0002
0000
0203
1000
0300
1000
,
0020
0000
0100
0000
0130
0001
0000
0010
,
0200
0000
1000
0000
1300
0001
0010
0001
,
1000
0000
0010
1000
0000
0100
0001
0000
,
0100
1000
0010
0200
0000
0000
0300
0000
,
0002
0023
0230
2300
,
3010
0100
0001
0100
0010
0000
0110
0000
,
0020
2030
3002
0023
,
0130
1000
0001
0010
0001
0000
0101
0000
,
0100
0000
0010
1000
0000
0100
0001
0000
,
0100
0000
1000
0000
0010
1000
0001
0010
,
0001
0000
0100
0010
0000
1000
0100
0000
,
0001
0000
0100
0000
1000
0010
0100
0001
,
0020
0032
0203
0320
,
1030
0100
0001
0100
1000
0000
1001
0000
,
2000
3020
0230
0302
,
1003
0010
0001
0010
1000
0000
1001
0000
,
1000
0000
0000
0000
0100
0000
1000
0000
0010
0000
0000
0100
0000
0000
0001
0000
,
0010
0000
0000
0000
0001
0000
1000
0000
0010
0000
0000
1000
0000
0000
0001
0000
,
0010
0000
0100
1000
0000
0010
0100
0000
,
0001
0010
0100
1000
0010
0100
0001
0000
,
1001
0000
1000
0010
1000
0001
0010
0000
,
0001
0000
0100
0001
0100
0000
0010
1000
,
0100
1000
0001
0000
0010
0000
0001
0100
,
0010
0000
1000
0100
0001
0100
1000
0000
,
0010
0000
0100
0001
0010
0000
0100
1000
,
0001
0010
0001
0000
0011
0000
0110
0000
,
0100
1000
0010
1000
0100
0000
0010
0001
,
0100
0001
0010
0000
0100
1000
0001
0010
,
0001
0000
1000
0010
0100
0001
0010
0000
,
0001
0100
0010
1000
0100
0000
0001
0100
,
1000
0010
0100
0000
0001
0010
1000
0010
,
0001
0100
0010
1000
0100
0010
0001
1000
,
0002
2000
0000
0000
0003
0000
0000
0000
0000
0000
0000
0000
0000
0000
0000
0000
3002
0000
0000
0000
0000
0000
0000
0000
0000
0000
0000
0000
0000
0000
0000
0000
0023
0000
0000
0000
0000
0000
0000
0000
0000
0000
0000
0000
0000
0000
0000
0000
0032
0000
0000
0000
0000
0000
0000
0000
0000
0000
0000
0000
0000
0000
0000
0000
,
0203
0000
0310
1000
0200
0000
0301
0000
,
0200
2300
3020
0230
,
0302
0000
0013
0001
0200
0000
0310
0000
,
2000
0000
3001
0020
0000
0031
0200
0000
,
0320
0000
1030
0000
0100
0001
0100
1000
,
0020
0000
0130
0002
0000
0013
0002
0000
,
2003
0000
3010
0000
0100
0001
0100
0010
,
2000
3200
0320
0032
,
1003
0010
0100
0001
0100
0000
0101
0000
,
0200
0320
2030
3002
,
0013
0001
1000
0010
0100
0000
0110
0000
,
0100
0000
0000
0000
0001
0000
0010
0000
0100
0000
0000
1000
0000
0000
0010
0000
,
1000
0000
0000
0000
0100
0000
0010
0000
0001
0000
0000
0010
0000
0000
0100
0000
,
1000
0000
0010
0100
0000
0001
0010
0000
,
0100
1000
0010
0100
0001
1000
0010
0100
,
0002
0000
0000
0003
,
1000
0000
1000
0010
0000
0010
0100
0000
0100
0001
0000
0001
,
0010
0000
0010
0100
0000
0100
1000
0000
1000
0010
0000
0010
,
0200
0000
0000
0000
,
0000
0000
0000
0000
0300
0000
0001
1000
0002
0000
0000
0000
0000
0000
0000
0000
,
0000
0003
0000
0000
;

//---------------dance-single - ----------------
#NOTES:
     dance-single:
     :
     Beginner:
     2:
     0.133,0.207,0.036,0.000,0.000:
0000
0000
0000
0000
,
0000
0000
0000
0000
,
0000
0000
0000
0000
,
0000
0000
0000
0000
,
1000
0000
0000
0000
,
0001
0000
0001
0000
,
0001
0000
0000
0000
,
0010
0000
0000
0000
,
0100
0000
0000
0000
,
1000
0000
1000
0000
,
1000
0000
0000
0000
,
1001
0000
0000
0000
,
0001
0000
0000
0000
,
0010
0000
0000
0000
,
0001
0000
0000
0000
,
1000
0000
1000
0000
,
1000
0000
0000
0000
,
0010
0000
0000
0000
,
0100
0000
0000
0000
,
0001
0000
0001
0000
,
0001
0000
0000
0000
,
1000
0000
0000
0000
,
0010
0000
0010
0000
,
0010
0000
0000
0000
,
0100
0000
0000
0000
,
0001
0000
0000
0000
,
1000
0000
1000
0000
,
1000
0000
0000
0000
,
0001
0000
0000
0000
,
0010
0000
0010
0000
,
0010
0000
0000
0000
,
0100
0000
0100
0000
,
0100
0000
0000
0000
,
1000
0000
0000
0000
,
0010
0000
0000
0000
,
0100
0000
0000
0000
,
0001
0000
0000
0000
,
0010
0000
0010
0000
,
0010
0000
0000
0000
,
0001
0000
0001
0000
,
0001
0000
0000
0000
,
1000
0000
0000
0000
,
0100
0000
0100
0000
,
0100
0000
0000
0000
,
0010
0000
0000
0001
,
0000
0000
1000
0000
,
0000
0100
0000
0000
,
0010
0000
0000
0001
,
0000
0000
0100
0000
,
0000
0010
0000
0000
,
1000
0000
0000
0001
,
0000
0000
1000
0000
,
0000
0010
0000
0000
,
0100
0000
0000
0001
,
0000
0000
0010
0000
,
0000
0001
0000
0000
,
1001
0000
0000
0000
,
1000
0000
0000
0000
,
0001
0000
0000
0000
,
0010
0000
0000
0000
,
0100
0000
0100
0000
,
0100
0000
0000
0000
,
1000
0000
1000
0000
,
1000
0000
0000
0000
,
0001
0000
0000
0000
,
0010
0000
0010
0000
,
0010
0000
0000
0000
,
0001
0000
0001
0000
,
0001
0000
0000
0000
,
1000
0000
0000
0000
,
0010
0000
0010
0000
,
0010
0000
0000
0000
,
0100
0000
0000
0000
,
0001
0001
0001
0001
,
0001
0001
0001
0001
,
1001
0000
0000
0000
,
0000
0000
1001
0000
;

//---------------dance-single - ----------------
#NOTES:
     dance-single:
     :
     Easy:
     4:
     0.280,0.311,0.027,0.009,0.000:
0000
0000
0000
0000
,
0000
0000
0000
0000
,
0000
0000
0000
0000
,
0000
0000
0000
1000
,
0001
0000
0010
0000
,
0001
0100
0001
0100
,
0010
0000
1000
0000
,
0100
0000
0001
0100
,
0001
0000
0100
0000
,
0010
1000
0100
1000
,
0010
0000
0100
0000
,
0001
0010
0100
1000
,
0010
0000
0100
0000
,
0001
0010
0001
1000
,
0010
0000
1000
0000
,
0100
0000
0001
0100
,
0001
0000
0100
0000
,
1000
0010
1000
0001
,
0010
0000
0001
0000
,
0100
0010
1000
0100
,
0010
0000
0001
0010
,
0001
0000
1000
0010
,
1000
0000
0001
0100
,
0001
0000
1000
0100
,
0001
0000
1000
0010
,
0001
0000
1000
0010
,
0100
0000
0001
0010
,
0100
1000
0002
0003
,
0010
0001
0100
0001
,
0010
0000
0100
0000
,
1000
0010
1000
0100
,
0010
0000
0001
0000
,
1000
0000
0010
1000
,
0010
0000
0100
0000
,
0001
0000
0010
0001
,
0010
0000
0001
0000
,
1000
0100
1000
0001
,
0010
0000
0001
0000
,
0100
0001
0100
0010
,
1000
0000
0100
0000
,
0010
0000
0001
0100
,
0001
0000
1000
0100
,
1000
0000
0001
0010
,
0001
0000
1000
0000
,
0010
0000
0100
0100
,
0000
0001
0001
0000
,
0010
0010
0000
0100
,
0100
0000
1000
1000
,
0000
0010
0010
0000
,
0100
0001
0100
0010
,
1000
1000
1000
0001
,
0001
0001
0010
0010
,
0010
0001
0001
0001
,
0100
0100
0100
0010
,
0010
0010
1000
0001
,
0010
0001
1000
0010
,
1000
0001
0010
0001
,
1000
0000
0010
0000
,
1000
0100
0001
0100
,
1000
0000
0010
0000
,
0100
0000
0001
0010
,
0001
0000
1000
0000
,
0010
0000
0100
0001
,
0100
0000
0010
0000
,
1000
0100
0010
0001
,
1000
0000
0010
0000
,
0100
0001
0100
0010
,
1000
0000
0001
0000
,
0010
0000
0001
0100
,
0001
0000
1000
0100
,
1000
0000
0001
0010
,
0001
0000
1000
0000
,
1001
0000
0000
0000
,
1000
0010
0100
0001
,
1000
0100
0010
0001
,
1001
0000
0000
0000
,
0000
0000
0110
0000
;

//---------------dance-single - ----------------
#NOTES:
     dance-single:
     :
     Medium:
     6:
     0.436,0.449,0.108,0.018,0.023: // measure 1
0000
0000
0000
0000
,  // measure 2
0000
0000
0000
0000
,  // measure 3
0000
0000
0000
0000
,  // measure 4
0000
0000
0000
0000
0000
0000
1000
0001
,  // measure 5
1000
0001
0010
0001
,  // measure 6
1000
0010
1000
0001
,  // measure 7
0100
0000
0001
0100
0001
0000
0100
0000
,  // measure 8
0010
0000
1000
0100
1000
0000
0001
0000
,  // measure 9
1001
0001
0010
1000
,  // measure 10
0010
0001
0100
0010
,  // measure 11
1000
0100
0010
0001
,  // measure 12
1000
0001
0000
1000
0000
0001
0000
1000
,  // measure 13
0010
0000
0100
0001
0000
0100
0010
0000
,  // measure 14
1000
0100
0001
0100
,  // measure 15
1000
0000
0010
0100
0010
0000
0100
0000
,  // measure 16
0001
0000
0010
0100
0010
0000
0001
0000
,  // measure 17
1000
0000
0010
0100
0000
0010
0100
0000
,  // measure 18
0010
0100
0001
0010
,  // measure 19
1000
0000
0010
0001
0010
0000
0001
0000
,  // measure 20
0100
0000
0010
0000
1000
0000
0100
1000
,  // measure 21
0100
0000
0010
0000
0001
0000
1000
0010
,  // measure 22
1000
0000
0010
0000
0100
0000
0001
1000
,  // measure 23
0001
0000
0000
1000
0000
0000
0010
0000
,  // measure 24
0100
0000
0001
0000
0001
0010
0000
0010
,  // measure 25
0100
0000
1000
0000
0010
1000
0000
1000
,  // measure 26
0001
0000
0010
0000
0001
0000
1000
0010
,  // measure 27
1000
0000
0000
0001
0000
0000
0010
0000
,  // measure 28
0001
0100
0010
2000
0000
0000
3000
0000
,  // measure 29
0001
0010
0100
1000
,  // measure 30
0010
0000
0100
0001
0100
0000
0110
0000
,  // measure 31
0010
1000
0001
0010
,  // measure 32
0001
0000
1000
0010
1000
0000
1010
0000
,  // measure 33
0010
0000
0000
0100
0000
0000
0001
0000
,  // measure 34
0010
0000
0100
0000
1000
0000
0001
1000
,  // measure 35
0001
0000
0000
1000
0000
0000
0010
0000
,  // measure 36
0100
0000
0001
0000
0010
0100
1000
0001
,  // measure 37
0010
0001
0100
0010
,  // measure 38
1000
0000
0001
0010
0001
0000
0011
0000
,  // measure 39
0010
0100
1000
0010
,  // measure 40
0100
0000
0001
1000
0001
0000
1001
0000
,  // measure 41
1000
0000
0100
1000
0100
0000
0010
0000
,  // measure 42
0001
0000
0100
0001
0100
0000
0010
0000
,  // measure 43
1000
0000
0000
0001
0000
0000
0010
0000
,  // measure 44
0001
0100
0010
1000
,  // measure 45
1001
0000
1000
0000
0001
0010
0001
0000
,  // measure 46
1000
0000
0010
1000
0010
0000
0100
0000
,  // measure 47
0001
1000
0001
0000
1000
0000
0100
1000
,  // measure 48
0100
0000
0010
0000
0001
0100
0001
0000
,  // measure 49
0100
0000
0010
1000
0010
0000
1000
0000
,  // measure 50
0001
1000
0001
0000
1001
0000
1001
0000
,  // measure 51
1000
0010
1000
0000
0001
0000
0010
0001
,  // measure 52
0010
0000
0001
0000
0100
0001
0100
0000
,  // measure 53
0001
0000
1000
0100
1000
0000
0100
0000
,  // measure 54
0010
0001
0010
0000
0001
0000
0100
0010
,  // measure 55
0100
0000
0010
0000
1000
0100
1000
0000
,  // measure 56
0001
0000
0010
0001
0010
0000
0001
0000
,  // measure 57
1001
1000
0000
0000
0000
0000
0000
0000
0000
0000
0000
0000
0000
0000
0000
0000
0001
0000
0000
0000
0000
0000
0000
0000
0000
0000
0000
0000
0000
0000
0000
0000
0010
0000
0000
0000
0000
0000
0000
0000
0000
0000
0000
0000
0000
0000
0000
0000
0100
0000
0000
0000
0000
0000
0000
0000
0000
0000
0000
0000
0000
0000
0000
0000
,  // measure 58
1000
0000
0000
1000
0010
0000
0000
0000
,  // measure 59
0100
0001
0010
0001
,  // measure 60
1000
0000
0000
1000
0001
0000
0000
0000
,  // measure 61
0010
0000
0000
0001
0000
0000
0100
0000
,  // measure 62
0010
1000
0001
0010
,  // measure 63
0001
0000
0000
0100
0000
0000
0010
0000
,  // measure 64
1000
0000
0100
0000
0010
0000
0001
0010
,  // measure 65
0001
0100
0010
1000
,  // measure 66
0001
0000
0010
0001
0010
0000
0011
0000
,  // measure 67
0010
0100
1000
0001
,  // measure 68
0010
0000
0001
0100
0001
0000
0101
0000
,  // measure 69
0100
0000
0010
1000
0010
0000
1000
0000
,  // measure 70
0100
0000
0010
0001
0010
0000
0001
0000
,  // measure 71
1000
0000
0000
0010
0000
0000
0100
0000
,  // measure 72
0001
0010
0100
1000
,  // measure 73
1001
0000
0000
0000
,  // measure 74
1000
0000
0000
0010
0000
0010
0100
0000
0000
0001
0000
0001
,  // measure 75
0010
0000
0000
0100
0000
0100
1000
0000
0000
0001
0000
0001
,  // measure 76
2000
0000
0000
0000
,  // measure 77
0000
0000
3000
0001
1000
0000
0000
0000
;
