#TITLE:6 Rainbow;
#SUBTITLE:;
#ARTIST:BeForU;
#TITLETRANSLIT:;
#SUBTITLETRANSLIT:;
#ARTISTTRANSLIT:;
#CREDIT:;
#BANNER:bn.png;
#BACKGROUND:bg.png;
#LYRICSPATH:;
#CDTITLE:;
#MUSIC:6 Rainbow.mp3;
#OFFSET:-0.080;
#SAMPLESTART:45.780;
#SAMPLELENGTH:15.620;
#SELECTABLE:YES;
#BPMS:0.000=131.050;
#STOPS:;
#BGCHANGES:;

//---------------dance-single - ----------------
#NOTES:
     dance-single:
     :
     Hard:
     7:
     0.490,0.507,0.171,0.514,0.065:
0000
0000
0000
0000
,
0000
0000
0000
0000
,
0000
0000
0000
0000
,
0000
0000
0000
0000
0000
0000
0000
0000
1000
0000
0000
0001
0000
0000
0010
0000
,
0002
0000
0103
0010
2000
0000
3010
0100
,
0002
0000
0013
0001
2000
0000
3100
1000
,
0010
1000
0001
0010
0001
1000
0100
1000
,
0001
0010
0001
0100
0010
0000
0110
0000
,
0010
1000
0100
1000
0010
0000
0100
0000
,
0001
0010
0001
1000
0002
0000
1003
0000
,
0010
1000
0100
0001
0100
0000
1000
0010
,
0100
0100
0000
0001
0010
0010
0000
0000
,
0001
0000
1000
0000
0100
0000
1000
0000
0001
0000
0000
0001
0000
0000
0010
0000
,
0001
0100
0010
1000
0010
0000
1000
0100
,
0001
0000
0100
1000
0000
0010
1000
0000
,
1001
1001
0000
1000
0001
0010
0001
0100
,
0010
0000
1000
0001
0000
0010
0001
0000
,
0100
0000
0010
0000
1000
0100
0001
0100
,
1000
0000
0010
0100
0000
0001
0010
0000
,
0001
0000
1000
0000
0100
1000
0001
0010
,
0001
0000
0100
0010
0000
1000
0100
0000
,
0002
0203
2300
3020
,
0130
0000
0001
0010
0000
0001
1000
0000
,
1001
0000
0001
0010
0000
0010
0100
0000
,
2000
0000
0000
0000
0000
3001
0010
0000
,
0110
0200
2300
3020
,
2030
0000
3002
0000
0023
0000
0031
0100
,
0002
0000
1000
0000
0103
1000
0010
0100
,
0001
0020
0032
2003
,
3010
0000
0100
0000
0001
0100
0001
0000
,
2000
0000
3200
0000
0320
0000
0031
1000
,
0010
1000
0001
0000
0010
0001
0100
0010
,
1000
0100
0001
0100
0000
1000
0010
0000
,
0110
0200
0302
0023
,
0032
0000
2003
0000
3020
0000
1030
0001
,
0200
0000
0001
0000
0310
0001
0100
0010
,
1000
0000
0000
0000
0001
0000
0000
0000
0010
0000
0000
0001
0000
0000
0100
0000
,
0210
0000
0000
0300
0010
0000
1000
0010
1000
0000
0000
0000
0010
0000
0100
0000
,
0201
0000
0000
0000
0301
0000
0010
0001
0010
0000
0000
0000
0001
0000
0100
0000
,
0110
0010
1000
0001
,
2002
0000
0000
0000
0000
0000
3003
0000
1000
0000
0000
0010
0000
0000
0100
0000
,
0102
0000
0000
0000
0103
0000
0010
1000
0020
0000
0000
0000
1030
0000
0100
0000
,
0210
0000
0000
0000
0310
0000
0001
1000
0002
0000
0000
0000
1003
0000
0010
0000
,
1010
0020
0230
0302
,
0023
0000
0032
0000
2003
0000
3010
1000
,
0200
0000
0001
0000
1300
0100
1000
0010
,
0200
0000
0000
0000
0010
0000
0300
0000
1000
0000
0000
0010
0000
0000
0100
0000
,
0102
0000
0000
0000
0103
0000
0010
1000
0020
0000
0000
0000
1030
0000
0100
0000
,
2100
0000
0000
0000
3100
0000
0010
0001
0020
0000
0000
0000
0031
0000
0100
0000
,
0010
1000
0100
0010
0001
0100
0010
1000
,
0001
0010
0001
1000
1001
0000
0110
0000
,
0010
1000
0001
2000
0000
0000
0000
0000
0000
0000
0000
0000
,
0000
0000
0000
0000
,
3000
0000
0000
0000
;

//---------------dance-single - ----------------
#NOTES:
     dance-single:
     :
     Beginner:
     1:
     0.101,0.129,0.010,0.010,0.000:
0000
0000
0000
0000
,
0000
0000
0000
0000
,
0000
0000
0000
0000
,
0000
0000
1000
0000
,
1000
0000
0000
0000
,
0001
0000
0000
0000
,
0010
0000
0000
0000
,
0001
0000
0001
0000
,
0001
0000
0000
0000
,
1000
0000
0000
0000
,
0010
0000
0000
0000
,
0100
0000
0100
0000
,
0100
0000
0000
0000
,
0001
0000
0000
0000
,
0010
0000
0000
0000
,
0001
0000
0001
0000
,
0001
0000
0000
0000
,
1000
0000
0000
0000
,
0010
0000
0000
0000
,
0100
0000
0000
0000
,
0001
0000
0000
0000
,
0010
0000
0000
0000
,
0001
0000
0000
0000
,
1000
0000
1000
0000
,
2000
0000
0000
3000
,
0001
0000
0001
0000
,
0010
0000
0010
0000
,
0100
0000
0000
0000
,
1000
0000
0000
0000
,
0010
0000
0010
0000
,
1000
0000
1000
0000
,
0001
0000
0000
0000
,
0010
0000
0010
0000
,
0001
0000
0001
0000
,
0100
0000
0100
0000
,
0010
0000
0000
0000
,
1000
0000
0000
0000
,
0001
0000
0001
0000
,
1000
0000
1000
0000
,
0001
0000
0000
0000
,
1000
0000
0000
0000
,
0010
0000
0010
0000
,
0100
0000
0100
0000
,
0001
0000
0000
0000
,
1000
0000
0000
0000
,
0100
0000
0000
0000
,
0010
0000
0000
0000
,
0001
0000
0001
0000
,
1000
0000
1000
0000
,
0010
0000
0010
0000
,
0100
0000
0100
0000
,
0000
1001
0000
0000
;

//---------------dance-single - ----------------
#NOTES:
     dance-single:
     :
     Easy:
     3:
     0.242,0.258,0.131,0.020,0.000:
0000
0000
0000
0000
,
0000
0000
0000
0000
,
0000
0000
0000
0000
,
0000
0000
1000
0100
,
1000
0001
0010
0000
,
0001
1000
0010
0000
,
1000
0001
0010
0001
,
1000
0010
1000
1001
,
1000
0100
0010
0000
,
0001
0100
0010
1000
,
0001
0010
0001
0000
,
1001
0000
0110
0000
,
1000
0010
0100
0000
,
0001
0010
0100
1000
,
0001
0000
0010
0001
,
0100
0000
0010
1000
,
0100
0000
0010
0100
,
0010
0000
0001
0010
,
0001
0000
0100
0001
,
0100
0000
0010
1000
,
0010
0000
1000
0100
,
1000
0000
0010
0100
,
0010
0000
0100
0001
,
0100
0000
0001
0010
,
0002
0000
0000
1003
,
1001
1000
0010
0100
,
0001
0010
0001
1000
,
0001
1000
0100
0001
,
0100
1000
0010
0000
,
0001
0010
1000
0100
,
0010
0001
0100
0010
,
1000
0000
0001
0000
,
0010
0001
0100
0010
,
1010
0010
1000
0100
,
0001
0100
1000
0010
,
0100
0000
0001
0010
,
0100
0000
1000
0010
,
0110
0000
0100
0000
,
0101
0000
0001
0000
,
0010
0100
1000
0001
,
0020
0000
0001
0031
,
0011
0000
0010
0000
,
0110
0000
0100
1000
,
1010
0010
0100
0001
,
0010
0001
1000
0010
,
0100
0000
0001
0010
,
1000
0000
0010
0001
,
0101
0000
0100
0000
,
0110
0000
0010
0000
,
1000
0010
0100
0001
,
0010
0100
1000
0001
,
0000
1001
0000
0000
;

//---------------dance-single - ----------------
#NOTES:
     dance-single:
     :
     Medium:
     5:
     0.388,0.427,0.131,0.332,0.000: // measure 1
0000
0000
0000
0000
,  // measure 2
0000
0000
0000
0000
,  // measure 3
0000
0000
0000
0000
,  // measure 4
0000
0000
0000
0000
1000
0000
0100
1000
,  // measure 5
0200
0000
0010
0000
0310
0000
0001
0100
,  // measure 6
0002
0100
0103
0010
,  // measure 7
1000
0000
1000
0010
0000
0010
0100
0000
,  // measure 8
0100
0001
0000
0001
1000
0000
1001
0000
,  // measure 9
0001
0000
0010
0001
0010
0000
0001
0000
,  // measure 10
0100
0010
0100
0000
0010
0000
1000
0000
,  // measure 11
0100
0000
0001
0100
0001
0000
0100
0000
,  // measure 12
1000
1000
0000
0000
0001
0001
0000
0000
,  // measure 13
1000
0000
0010
0100
0010
0000
0100
0000
,  // measure 14
0001
0010
0001
0000
1000
0000
0010
0100
,  // measure 15
0010
0000
0000
0100
0000
0000
0001
0000
,  // measure 16
0010
0010
0000
0000
0001
0100
0010
1000
,  // measure 17
0001
0000
0000
0010
0000
0000
0001
0000
,  // measure 18
0100
0000
0010
0000
1000
0100
1000
0100
,  // measure 19
0010
0000
0000
0001
0000
0000
1000
0000
,  // measure 20
0010
0000
0100
0000
0001
0100
0001
0100
,  // measure 21
0010
0000
0000
1000
0000
0000
0001
0000
,  // measure 22
0010
0001
1000
0100
,  // measure 23
0001
0000
0000
0100
0000
0000
1000
0000
,  // measure 24
0010
0100
0010
0000
1000
0001
1000
0000
,  // measure 25
2002
0000
0000
3003
,  // measure 26
1001
0002
0023
2030
,  // measure 27
3020
0000
0032
0000
0203
0000
0310
1000
,  // measure 28
0100
0000
0010
0000
0001
1000
0010
1000
,  // measure 29
0001
0020
0032
0203
,  // measure 30
0320
0000
1030
0000
0001
0010
0001
0000
,  // measure 31
0200
0000
0320
0000
2030
0000
3001
0010
,  // measure 32
0001
0000
0100
0000
0010
1000
0010
0000
,  // measure 33
1000
0100
1000
0100
0000
0010
0001
0000
,  // measure 34
0011
0002
0203
0320
,  // measure 35
2030
0000
3002
0000
0023
0000
0031
0100
,  // measure 36
0002
0000
1003
0000
0100
1000
0010
1000
,  // measure 37
0100
0010
0001
1000
,  // measure 38
1001
0000
0001
0010
0001
0000
1000
0000
,  // measure 39
1001
0000
1000
0010
1000
0000
0010
0000
,  // measure 40
0110
0100
0001
0010
,  // measure 41
0120
0000
0100
0130
,  // measure 42
0110
0000
0100
1000
0010
0000
0100
0000
,  // measure 43
0101
0000
0001
0010
0100
0000
1000
0001
,  // measure 44
1001
0002
0023
2030
,  // measure 45
3020
0000
0032
0000
0203
0000
0310
1000
,  // measure 46
0100
0000
0010
0000
0001
0000
1000
0010
,  // measure 47
1000
0000
0001
0000
0010
0000
0001
0100
,  // measure 48
0010
0000
1000
0100
0001
0000
0100
0000
,  // measure 49
1100
0000
1000
0010
0100
0000
0001
0000
,  // measure 50
1000
0000
0010
1000
0000
0001
0010
0000
,  // measure 51
0001
1000
0000
0100
1000
0000
0001
0000
,  // measure 52
0100
0220
0000
0000
,  // measure 53
0000
0000
0000
0000
,  // measure 54
0330
0000
0000
0000
;
