#TITLE:THE 7 JUMP;
#SUBTITLE:;
#ARTIST:KEN D;
#TITLETRANSLIT:;
#SUBTITLETRANSLIT:;
#ARTISTTRANSLIT:;
#CREDIT:;
#BANNER:THE 7 JUMP.png;
#BACKGROUND:THE 7 JUMP-bg.png;
#LYRICSPATH:;
#CDTITLE:./CDTITLES/DANCEMANIA 17.PNG;
#MUSIC:THE 7 JUMP.mp3;
#OFFSET:-0.289;
#SAMPLESTART:59.430;
#SAMPLELENGTH:12.000;
#SELECTABLE:YES;
#DISPLAYBPM:138.000;
#BPMS:0.000=137.900;
#STOPS:;
#BGCHANGES:0.000=jump2.avi=1.000=1=1=0,
200.000=THE 7 JUMP-bg.png=1.000=0=0=1,
99999=-nosongbg-=1.000=0=0=0 // don't automatically add -songbackground-
;

//---------------dance-single - ----------------
#NOTES:
     dance-single:
     :
     Hard:
     7:
     0.585,0.572,0.252,0.538,0.166: // measure 1
0000
0000
0000
0000
,  // measure 2
0000
0000
0000
0000
,  // measure 3
1001
0001
0000
0001
0000
0001
0000
0001
,  // measure 4
0010
0100
0000
0000
0000
0000
1000
0000
0000
0000
1000
0000
0000
0000
1000
0000
,  // measure 5
0001
0100
0000
0000
0000
0000
0100
0000
0000
0000
0100
0000
0000
0000
0100
0000
,  // measure 6
0010
1000
0000
0000
0002
0000
0000
0000
2003
0000
0000
0000
3010
0000
0000
0000
,  // measure 7
1010
0000
1000
0001
1000
0001
0100
0010
,  // measure 8
2000
3020
0230
0302
,  // measure 9
1003
0010
1000
0001
0100
0001
0010
0100
,  // measure 10
2000
3002
0203
0320
,  // measure 11
1030
0001
1000
0010
0100
0001
1000
0001
,  // measure 12
0020
0230
2300
3001
,  // measure 13
1002
0000
0000
0100
0103
0000
0000
0000
,  // measure 14
2001
0000
0000
0010
3010
0010
0100
0001
,  // measure 15
1001
0000
1000
0100
0010
0001
1000
0010
,  // measure 16
0100
0001
0100
0010
1000
0010
0100
0001
,  // measure 17
1000
0000
0100
0000
0020
0000
0001
0002
,  // measure 18
0000
0033
0002
1003
,  // measure 19
1001
0000
0100
0000
0010
0000
0100
0000
1000
0000
0000
0001
0000
0000
0100
0000
,  // measure 20
0010
1000
0010
0000
0100
0000
0001
0000
1000
0000
0000
1000
0000
0000
0001
0000
,  // measure 21
0100
0010
0100
0000
0001
0000
1000
0000
0010
0000
0000
0100
0000
0000
0001
0000
,  // measure 22
1000
0001
1000
0001
1000
0000
0010
0000
2002
0000
0000
0000
3003
0000
1000
0000
,  // measure 23
0020
0000
0000
0100
0000
0000
0130
0000
0002
0000
0000
0100
0000
0000
0103
0000
,  // measure 24
0020
0000
2030
0000
3002
0000
1003
0100
,  // measure 25
2000
0000
0000
0010
0000
0000
3010
0000
0200
0000
0000
0001
0000
0000
0301
0000
,  // measure 26
2000
0000
3020
0000
0230
0000
0301
0001
,  // measure 27
1001
0000
1000
0100
1000
0100
0010
0001
,  // measure 28
0011
0000
0001
1000
0001
0100
0010
0100
,  // measure 29
0110
0000
0001
1000
0100
0010
0001
0100
,  // measure 30
0101
0000
0001
1000
0010
0100
0001
0100
,  // measure 31
0101
0000
0001
1000
0100
0010
0001
1000
,  // measure 32
1001
0000
0001
0100
0010
1000
0010
1000
,  // measure 33
2010
0000
3002
0000
,  // measure 34
1003
0000
0000
0010
1000
0000
0100
0000
1000
0000
0000
0000
0200
0000
0300
0000
,  // measure 35
0010
0001
0010
0000
0100
0000
1000
0000
0001
0000
0000
0001
0000
0000
0100
0000
,  // measure 36
0010
1000
0010
1000
0010
0000
0100
0000
0001
0000
0000
0100
0000
0000
0010
0000
,  // measure 37
1000
0001
1000
0001
1000
0000
0100
0000
0010
0000
0000
0001
0000
0000
0100
0000
,  // measure 38
0001
1000
0001
1000
0001
0000
1000
0000
0010
0000
0000
0000
0000
0000
0000
0000
,  // measure 39
2010
0000
0000
0010
0000
0000
3010
0000
0200
0000
0000
0010
0000
0000
0310
0000
,  // measure 40
2000
0000
3002
0000
2003
0000
3010
0100
,  // measure 41
0002
0000
0000
0010
0000
0000
0013
0000
2000
0000
0000
0010
0000
0000
3010
0000
,  // measure 42
0002
0000
0023
0000
0230
0000
1300
0001
,  // measure 43
1001
0000
1000
0010
1000
0010
0100
0001
,  // measure 44
0101
0000
0001
0010
1000
0010
0001
1000
,  // measure 45
1001
0000
1000
0010
0100
0001
0100
0001
,  // measure 46
0101
0000
0001
0010
0100
1000
0100
0010
,  // measure 47
1001
0000
0100
0010
0001
0010
0100
1000
,  // measure 48
1100
0000
0001
0100
1000
0100
0001
0010
,  // measure 49
0002
0000
0200
0303
,  // measure 50
2020
0000
0000
0000
,  // measure 51
3030
0000
0000
0000
;

//---------------dance-single - Copied from----------------
#NOTES:
     dance-single:
     Copied from:
     Medium:
     5:
     0.334,0.457,0.320,0.343,0.000:
0000
0000
0000
0000
,
0000
0000
0000
0000
,
1001
0000
0000
0000
,
0100
0000
0000
0000
,
0010
0000
0000
0000
,
0100
0001
1000
0001
,
2002
0000
3003
0000
0000
0100
0010
0001
,
0020
0230
2300
3001
,
2002
0000
3003
0000
0000
1000
0010
0100
,
0002
2003
3020
0130
,
2002
0000
3003
0000
0000
0000
1000
0100
,
1000
0010
0100
0001
,
2000
0000
0000
0001
3001
0000
0000
0000
,
0200
0000
0000
0010
0310
0000
1000
0000
,
1001
0000
0100
0000
0010
0000
0100
0010
,
0000
0000
0000
0001
,
1001
0000
0100
0000
0010
0000
0100
0010
,
0000
0000
0001
1000
,
0110
0001
1000
0100
,
0010
0001
0100
0010
,
1010
1010
0101
0101
,
1001
1001
0110
0000
,
2000
0000
3002
0000
,
0100
0100
0103
0000
,
2000
0000
3020
0000
,
0100
0000
0100
0000
0130
0000
0001
1000
,
0001
0000
0000
0000
0000
0000
0100
0010
,
0100
0000
0000
0001
,
1001
0000
0000
0000
0000
0100
1000
0100
,
0010
0000
0000
0001
,
2000
0000
0000
3001
,
0200
0000
0000
0000
0000
0000
0000
0000
0000
0000
0000
0000
0000
0000
0000
0000
0000
0000
0000
0000
0000
0000
0000
0000
0000
0000
0000
0000
0000
0000
0000
0000
0000
0000
0000
0000
0000
0000
0000
0000
0000
0000
0000
0000
0000
0000
0000
0000
0000
0000
0000
0000
0000
0000
0000
0000
0000
0000
0000
0000
0000
0000
0000
0000
0000
0000
0000
0000
0000
0000
0000
0000
0000
0000
0000
0000
0000
0000
0000
0000
0000
0000
0000
0000
0000
0000
0000
0000
0000
0000
0000
0000
0000
0000
0000
0000
0000
0300
0000
0000
0000
0000
0000
0000
0000
0000
0000
0000
0000
0000
0000
0000
0000
0000
0000
0000
0000
0000
0000
0000
0010
0000
0000
0000
0000
0000
0000
0000
0000
0000
0000
0000
0000
0000
0000
0000
0000
0000
0000
0000
0000
0000
0000
0000
1000
0000
0000
0000
0000
0000
0000
0000
0000
0000
0000
0000
0000
0000
0000
0000
0000
0000
0000
0000
0000
0000
0000
0000
0010
0000
0000
0000
0000
0000
0000
0000
0000
0000
0000
0000
0000
0000
0000
0000
0000
0000
0000
0000
0000
0000
0000
0000
,
2000
0000
3002
0000
,
2003
0000
3000
1001
,
0100
0010
0100
0010
0100
0000
0010
0001
,
0010
0001
1000
0001
,
0101
0101
1010
1010
,
1001
1001
0101
0000
,
2001
0000
3002
0000
,
0100
0000
0100
0000
0100
0003
0000
0000
,
0020
0000
2030
0000
,
0001
0001
3001
0000
,
1001
0000
0000
0000
0000
0000
0100
1000
,
0100
0000
0000
0010
,
1001
0000
0000
0000
0000
0100
0010
0100
,
1000
0000
0000
0001
,
1001
0000
0000
0100
,
1001
0000
0000
0000
0000
1000
0100
0010
,
0002
0000
2003
0000
,
0020
0000
0000
0000
0000
0000
0000
3030
;

//---------------dance-single - ----------------
#NOTES:
     dance-single:
     :
     Challenge:
     10:
     0.767,0.916,0.252,0.240,0.647:
0000
0000
0000
0000
,
0000
0000
0000
0000
0000
0000
0000
0000
1000
0100
1000
0100
0010
0001
0010
0001
,
1M00
0000
0001
0010
0001
0000
0010
0001
0010
0000
0100
1000
0100
0000
1000
0100
,
1000
0001
1000
0100
1000
0000
0001
0100
0001
0000
1000
0100
1000
0000
0001
0100
,
0001
0100
0010
1000
0010
0000
0100
0001
0100
0000
0010
1000
0010
0000
0100
0000
,
0010
1000
0001
0010
0001
0010
0100
1000
0100
0010
0001
0010
0001
1000
0010
1000
,
0M1M
0000
1000
0001
1000
0001
0100
0010
,
2000
0020
0200
3331
,
1000
0010
1000
0001
0100
0001
0010
0100
,
2000
0200
0020
3331
,
1000
0001
1000
0010
0100
0001
1000
0001
,
0020
0200
0002
1333
,
0210
0000
0000
0010
0310
0000
MMMM
0000
,
2001
0000
0000
0010
3010
0010
0100
0001
,
1001
0000
0001
0000
1000
0010
0100
0010
1000
0010
0100
0010
1000
0001
0100
0001
,
0100
0010
0100
0001
0100
0010
1000
0010
1000
0001
0100
0001
0100
0001
0010
0001
,
1000
0100
0010
0001
1000
0100
1000
0001
0010
0100
1000
0001
0100
0001
1000
0100
,
0010
0001
0000
0010
0000
0000
0010
0000
0100
0000
0000
0000
1MM1
0000
0000
0000
,
0001
1000
0100
0000
0010
0000
0001
0000
1000
0000
0000
1000
0010
0000
0100
0000
,
0001
1000
0001
0000
0100
0000
0001
0000
1000
0000
0000
1000
0100
0000
0010
0000
,
0001
0010
0001
0000
0001
0000
1000
0000
0010
0000
0000
0100
0001
0000
1000
0000
,
0100
0010
0001
0010
0100
0000
1000
0000
2002
0000
0000
0000
3003
0000
1000
0000
,
1010
0000
0000
0010
0000
0000
1000
0000
1001
0000
0000
0100
0000
0000
0100
0000
,
0110
0000
0000
0010
1000
0000
0000
1000
0001
0000
0000
0001
1000
0000
0100
0000
,
1100
0000
0000
1000
0000
0000
0010
0000
1010
0000
0000
0100
0000
0000
0001
0000
,
0001
0000
0000
0001
0010
0000
0000
0010
0100
0000
0000
0100
1000
0100
0010
0001
,
1000
0001
1000
0100
1000
0100
0010
0001
,
0011
0001
0010
0100
1000
0100
0010
0100
,
0110
0010
0001
1000
0100
0010
0001
0100
,
0101
0001
0100
0010
1000
0100
0010
0001
,
0101
0010
1000
0010
0100
0001
0100
0010
,
1000
0001
1000
0100
0010
0001
1000
0100
1000
0001
0100
0001
0010
0100
1000
0001
,
1000
0100
1000
0100
0010
0001
0010
0001
1000
0010
1000
0010
0100
0001
1000
0001
,
1000
0000
0000
0010
1000
0000
0100
0000
1000
0000
0000
0000
2200
0000
3300
0000
,
0010
0001
0010
0100
1000
0000
0100
0000
0010
0000
0000
0001
0010
0000
0100
0000
,
1000
0010
1000
0010
0100
0000
0001
0000
0100
0000
0000
0010
1000
0000
0010
0000
,
0100
0001
1000
0001
0100
0000
0001
0000
0010
0000
0000
0001
0100
0000
0010
0000
,
1000
0100
0010
0001
1000
0000
0010
0000
1010
0000
0000
0000
0000
0000
1000
0000
,
2000
0000
0000
0100
0200
0000
0000
0010
,
0020
0000
0001
0000
3331
0000
0001
0001
,
0002
0000
0000
0100
0200
0000
0000
0010
,
0010
1000
1313
0000
,
1001
0000
1000
0010
1000
0010
0100
0001
,
1001
1000
0001
0010
1000
0010
0001
1000
,
1001
0001
1000
0010
0100
0001
0100
0001
,
0101
0010
1000
0010
0100
0001
0100
0010
,
0110
0100
0010
0100
0001
0010
0100
1000
,
0001
0010
0100
1000
0100
0010
0100
1000
0100
1000
0100
0010
0001
0010
0001
0010
,
0001
0010
0100
1000
0100
0010
0001
0100
0010
1000
0001
0100
0010
1000
0001
0100
,
0020
0000
000M
MM0M
,
MM3M
0000
0000
0000
;

//---------------dance-single - ----------------
#NOTES:
     dance-single:
     :
     Easy:
     3:
     0.222,0.252,0.137,0.195,0.000:
0000
0000
0000
0000
,
0000
0000
0000
0000
,
1001
0000
0000
0000
,
1000
0000
0000
0000
,
0001
0000
0000
0000
,
0100
0000
0010
0000
,
0110
0000
0000
0100
,
0010
1000
0010
0100
,
0002
0000
0000
1003
,
0010
0100
0001
1000
,
0002
0000
0000
1003
,
1000
0100
0001
0100
,
2000
0000
3020
0000
,
0230
0000
0301
0000
,
1001
0000
0100
0000
,
0010
0000
1000
0001
,
0100
0010
1000
0000
,
0001
0000
1000
0000
,
1001
0000
0100
0010
,
1000
0001
1000
0000
,
0001
1000
0001
0010
,
0100
0010
0100
0000
,
0002
0000
2003
0000
,
0100
0100
3100
0000
,
0002
0000
0203
0000
,
0010
0010
0310
0000
,
1001
0000
0000
0000
,
0100
0000
0000
0000
,
0010
0000
0000
0000
,
0100
0000
0000
0000
,
0010
0000
0000
0000
,
1000
0000
0000
0000
,
0002
0000
2003
0000
,
3100
0000
0000
0000
,
1001
0000
0001
1000
,
0100
0100
0010
0010
,
0001
0001
0100
0100
,
0010
0010
1000
0000
,
0002
0000
2003
0000
,
0100
0100
3100
0000
,
0020
0000
0230
0000
,
0001
0001
0301
0000
,
1000
0000
0001
0000
,
1001
0000
0100
0000
,
0110
0000
1000
0000
,
1001
0000
0100
0000
,
0110
0000
0001
0000
,
1001
0000
0000
0000
,
0002
0000
2000
3003
,
0110
0000
0000
0000
;

//---------------dance-single - ----------------
#NOTES:
     dance-single:
     :
     Beginner:
     2:
     0.159,0.196,0.298,0.000,0.000:
0000
0000
0000
0000
,
0000
0000
0000
0000
,
1001
0000
0000
0000
,
0100
0000
0000
0000
,
0010
0000
0000
0000
,
0100
0000
0000
0000
,
1001
0000
0000
0000
,
1000
0000
0100
0000
,
0110
0000
0000
0000
,
0001
0000
1000
0000
,
0110
0000
0000
0000
,
1000
0000
1000
0000
,
0001
0000
0000
0000
,
0100
0000
0000
0000
,
0110
0000
0000
0000
,
1001
0000
0000
0000
,
0110
0000
0000
0000
,
1001
0000
0000
0000
,
0110
0000
0100
0000
,
0010
0000
0010
0000
,
0100
0000
0010
0000
,
0100
0000
0110
0000
,
1000
0000
0001
0000
,
1000
1000
1000
0000
,
0100
0000
0010
0000
,
0100
0100
0100
0000
,
1001
0000
0000
0000
,
0110
0000
0000
0000
,
1001
0000
0000
0000
,
1001
0000
0000
0000
,
0110
0000
0000
0000
,
1001
0000
0000
0000
,
0001
0000
0000
0000
,
0110
0000
0000
0000
,
1001
0000
0000
0000
,
0001
0000
1000
0000
,
0100
0000
0010
0000
,
0001
0000
0110
0000
,
1000
0000
0001
0000
,
0100
0100
0100
0000
,
0010
0000
1000
0000
,
0100
0100
0100
0000
,
0110
0000
0000
0000
,
1001
0000
0000
0000
,
0110
0000
0000
0000
,
1001
0000
0000
0000
,
0110
0000
0000
0000
,
1001
0000
0000
0000
,
0100
0000
0001
0000
,
0110
0000
0000
0000
;
