#TITLE:What Will Come of Me;
#SUBTITLE:;
#ARTIST:Black Rose Garden;
#TITLETRANSLIT:;
#SUBTITLETRANSLIT:;
#ARTISTTRANSLIT:;
#CREDIT:;
#BANNER:What Will come of Me.png;
#BACKGROUND:What Will Come of Me-bg.png;
#LYRICSPATH:;
#CDTITLE:./CDTITLES/DanceDanceRevolution X2.png;
#MUSIC:What Will Come of Me.mp3;
#OFFSET:2.015;
#SAMPLESTART:42.540;
#SAMPLELENGTH:15.000;
#SELECTABLE:YES;
#DISPLAYBPM:140.000;
#BPMS:0.000=140.078,4.000=140.004;
#STOPS:;
#BGCHANGES:;

//---------------dance-single - ----------------
#NOTES:
     dance-single:
     :
     Hard:
     12:
     0.756,1.000,0.408,0.328,0.590:
0000
0000
0000
0000
,
0000
0000
0000
0000
,
1001
1000
0000
0001
2000
3200
0000
0000
,
0320
0000
0000
0230
0000
0000
2300
0000
0000
3000
0000
0000
1000
0010
1000
0010
1000
0010
1000
0010
1000
0010
1000
0010
,
1000
0010
1000
0010
1000
0010
1000
0001
0100
0001
0100
0001
0100
0001
0100
0001
0100
0001
0100
0001
1000
0001
0100
0001
,
1000
0010
1000
0010
1000
0010
0100
0001
0100
0002
0000
0000
0000
0000
0000
0000
0000
0000
0000
0000
0000
0000
0000
0000
,
1003
1000
1000
1001
0001
1000
0100
0010
,
0100
0000
0000
0010
0000
0000
0001
0010
0001
0010
0001
0010
0001
0010
0001
0010
0001
0010
0001
0000
0000
1000
0000
0000
,
0100
0000
0000
0100
0000
0000
0010
0000
0000
0010
0000
0000
0001
1000
0001
1000
0001
1000
0001
1000
0010
1000
0010
1000
,
0002
0000
0003
1000
1000
0000
0000
0001
,
1001
1000
0100
1000
0200
0000
0010
0310
,
0000
0001
0000
0101
0100
0000
0000
0001
,
1001
1000
0100
0010
0200
0000
0010
0010
,
0000
1300
0000
1001
0020
0000
0000
1030
,
0100
1000
0100
0010
0200
0000
0310
2000
,
0000
0001
3000
0110
0010
0000
0000
0001
,
1000
0100
0010
0200
0000
2300
0000
0100
,
3200
0000
0000
0000
0000
0000
0000
0000
0000
1300
0000
0000
0000
0000
0000
1000
0000
0000
1001
0000
0000
1000
0100
1000
,
0100
0100
0010
0010
1001
0000
1000
0200
,
0000
0320
0000
0100
0130
0000
0001
1000
,
1000
0010
0010
0100
0002
0000
1000
2003
,
0000
3100
0000
0110
0020
0000
0000
0031
,
0100
1000
0100
0010
2000
0000
0100
0100
,
0000
3010
0000
0110
0010
0000
1000
0100
,
0010
0100
0010
0100
1000
0100
0010
0001
,
0100
0000
0010
0000
1000
0000
0001
0000
1001
0000
0100
0000
0100
0001
1000
0000
,
0001
0000
0000
0100
0000
0000
0000
0000
0000
0010
0100
1000
0001
0000
0000
0010
0000
0000
0100
0000
0000
1000
0000
0000
,
0100
0000
1000
0000
0001
0010
0100
0000
1000
0000
0001
0000
0010
0000
0001
0000
,
0010
0001
0100
0001
1001
1000
0010
1000
,
0001
0000
0000
0000
0000
0000
1000
0000
0000
0010
0000
0000
1000
0000
0000
0000
0000
0000
0001
0000
0100
0000
0001
0000
1000
0000
0000
0000
0000
0000
1000
0000
0000
0000
0000
0000
0000
0000
0000
0000
0000
0000
1000
0000
0000
0000
0000
0000
,
0010
0000
0000
0010
0000
0000
0000
0000
0000
1000
0001
0010
0100
0000
0000
0010
0000
0000
0000
0000
0000
1001
0000
0000
,
1000
0000
0001
0000
1000
0100
1000
0000
1100
0000
0100
0000
0010
0000
0001
0000
,
0010
0100
1000
0100
1001
0100
0000
0010
,
0001
0000
1000
0100
0010
0000
0001
0000
0202
0000
0000
0000
0300
0000
0103
0010
,
1000
0100
1000
0100
0110
0010
0100
0100
,
0000
0000
0100
0000
0010
0000
0100
0000
0110
0000
0010
0000
0000
0000
0010
0001
,
0010
1000
0001
1000
1001
0001
1000
1000
,
0100
0000
0010
0000
0001
0000
1000
0000
0001
0000
1000
0000
0100
0000
1000
0001
,
1000
0100
0100
0010
0011
0001
0010
0001
,
0000
0000
0001
0000
1000
0000
0001
0000
1001
0000
1000
0000
0000
0000
0001
0100
,
0010
1000
0100
0010
0110
0000
0011
0011
,
0000
0000
0000
0001
0000
0000
1000
0000
0000
0000
0000
0000
0001
0000
1000
0000
0001
0000
1001
0000
0000
0000
0000
0000
,
1000
0000
0000
0010
0000
0000
1000
0000
0000
0001
0000
0000
0100
0000
0000
0001
0000
0000
1000
0000
0010
0000
0100
0000
0001
0000
0000
0000
0000
0000
1000
0000
0000
0000
0000
0000
0100
0000
0000
0000
0000
0000
0010
0000
0000
0000
0000
0000
,
0001
0000
0010
0000
0100
1000
0100
0000
1100
0000
0010
0000
0000
0000
1000
0000
,
1000
0100
0010
0100
0110
0100
0000
0000
,
0000
0000
0000
0000
0000
0000
0001
0000
0000
0100
0000
0000
0001
0000
0000
0000
0000
0000
1000
0000
0010
0000
1000
0000
0001
0000
0000
0000
0000
0000
1000
0000
0000
0000
0000
0000
0001
0000
0000
0000
0000
0000
0100
0000
0000
0000
0000
0000
,
0001
0000
0000
1000
0000
0000
0100
0000
0000
1000
0001
1000
0001
0000
0000
0100
0000
0000
0010
0000
0000
0100
0000
0000
,
0000
0000
0100
0000
0010
0001
0010
0000
0011
0000
1001
0000
0000
0000
0001
0000
,
1000
0100
0010
0001
0010
0100
1000
0000
0001
0000
1000
0000
0001
0000
0100
0000
,
0010
1000
0001
0100
0010
1000
0001
0100
0010
0100
0001
0010
0001
0010
0002
0000
,
1000
1000
1000
1000
1003
0010
1000
1010
,
0100
0101
2020
0000
3030
0000
1100
0110
,
0011
1001
1100
1100
1001
0000
0000
1100
,
0000
0011
0110
0000
0000
0000
1100
1100
,
1000
0100
0010
0001
0010
0100
1000
0000
0000
0000
0000
0000
0001
0100
0001
1000
0001
0100
0001
0000
0000
0000
0000
0000
,
0010
0100
1000
0100
0010
0001
1000
0000
0000
0000
0000
0000
0001
0010
0100
1000
0100
0010
0001
0010
0100
0000
0000
0000
,
0001
0010
0001
0100
0010
1000
0001
0100
0010
1000
0001
0100
0010
1000
0010
0100
0010
1000
0010
0100
0010
1000
0001
0100
,
0010
0100
0001
0100
0001
1000
0010
0100
0001
0100
0001
1000
0001
0000
0010
0000
0001
0000
1000
0000
0001
0000
1000
0000
,
0002
0000
0000
2003
0000
0000
0100
0000
,
3020
0000
0000
0230
0000
0000
0302
0000
,
0103
0010
0010
2000
0000
0000
3002
0000
,
2003
0000
0000
3200
0000
0000
0301
0000
,
2020
0000
0000
0000
,
0000
0000
0000
0000
,
0000
0000
0000
0000
,
0000
0000
0000
3030
0000
0000
0000
0000
0000
0000
0000
0000
0000
0000
0000
0000
;

//---------------dance-single - Copied from----------------
#NOTES:
     dance-single:
     Copied from:
     Challenge:
     13:
     0.906,1.000,0.399,0.257,1.000: // measure 1
0000
0000
0000
0000
,  // measure 2
0000
0000
0000
0000
,  // measure 3
1001
0000
0000
1000
0000
0000
0000
0000
0000
0001
0000
0000
1000
0100
1000
0200
0000
0000
0000
0000
0000
0000
0000
0000
,  // measure 4
0310
0001
0010
0100
0000
0000
2000
0000
0000
3000
0000
0000
1000
0010
0100
0001
0100
0001
1000
0001
1000
0001
0100
0010
,  // measure 5
0100
0010
1000
0001
1000
0001
0100
0010
0100
0010
1000
0010
1000
0010
0100
0001
0100
0001
1000
0001
0100
0001
0100
0001
,  // measure 6
1000
0010
1000
0010
1000
0010
0100
0001
0100
0002
0000
0000
0000
0000
0000
0000
0000
0000
0000
0000
0000
0000
0000
0000
,  // measure 7
1003
0000
0000
1000
0000
0000
1000
0000
0000
1001
0000
0000
0001
0010
0100
1000
0001
0010
0001
0010
0100
0010
0001
0010
,  // measure 8
0100
0010
0100
1000
0001
1000
0001
1000
0010
1000
0010
0100
0001
0100
0001
1000
0010
1000
0010
0100
0001
0100
0001
0100
,  // measure 9
0010
0100
0010
0100
0001
0100
0001
0100
0010
1000
0010
0100
0001
1000
0001
1000
0001
1000
0010
1000
0001
0100
0001
1000
,  // measure 10
0002
0000
0003
1000
1000
0000
0000
0001
,  // measure 11
1001
1000
0100
1000
0200
0000
0010
0310
,  // measure 12
0000
0001
0000
0101
0100
0000
0000
0001
,  // measure 13
1001
1000
0100
0001
0200
0000
0010
0010
,  // measure 14
0000
0301
0000
1001
0020
0000
0000
1030
,  // measure 15
0100
0001
0100
0010
0200
0000
0310
2000
,  // measure 16
0000
0001
3000
0110
0010
0000
0000
0001
,  // measure 17
1001
0100
0010
0200
0000
0302
0000
0100
,  // measure 18
0103
0000
0000
0000
0000
0000
0000
0000
0000
0001
0000
0000
0100
0000
0000
0001
0000
0000
0101
0000
0000
0000
0000
0000
0000
0000
0000
0000
0000
0000
1000
0000
0000
0000
0000
0000
1001
0000
0000
0000
0000
0000
1000
0000
0100
0000
1000
0000
,  // measure 19
0100
0010
0001
0000
0001
1000
0100
0000
1001
0000
0000
0000
1000
0000
0200
0000
,  // measure 20
0000
0320
0000
0100
0130
0000
0001
1000
,  // measure 21
1000
0010
0010
0100
0002
0000
1000
2003
,  // measure 22
0000
3100
0000
0110
0020
0000
0000
0031
,  // measure 23
0100
1000
0100
0010
2000
0000
0100
0100
,  // measure 24
0000
3010
0000
0110
0010
0000
1000
0100
,  // measure 25
0001
0100
0010
0100
1000
0100
0010
0001
,  // measure 26
0100
0000
0010
0000
1000
0000
0001
0000
1001
0000
0100
0000
0100
0001
1000
0000
,  // measure 27
0001
0000
0000
0100
0000
0000
0000
0000
0000
0010
0100
1000
0001
0000
0000
1010
0000
0000
0100
0000
0000
0001
0000
0000
,  // measure 28
1000
0000
0001
0000
1000
0010
0100
0000
0101
0000
0001
0000
0010
0000
1000
0000
,  // measure 29
0010
0001
0100
0001
1001
1000
0010
1000
,  // measure 30
0001
0000
0000
0000
0000
0000
1000
0000
0000
0010
0000
0000
1000
0000
0000
0000
0000
0000
0001
0000
0100
0000
0001
0000
1000
0000
0000
0000
0000
0000
1001
0000
0000
0000
0000
0000
0000
0000
0000
0000
0000
0000
1001
0000
0000
0000
0000
0000
,  // measure 31
0010
0000
0000
0010
0000
0000
0000
0000
0000
1000
0001
0010
0100
0000
0000
0110
0000
0000
0000
0000
0000
1001
0000
0000
,  // measure 32
1000
0000
0001
0000
1000
0100
1000
0000
0001
0000
0100
0000
1000
0000
0100
0000
,  // measure 33
0001
1000
0000
0100
1001
0100
0000
0010
,  // measure 34
0001
0000
0000
0000
0000
0000
1000
0000
0000
0100
0000
0000
0010
0000
0000
0000
0000
0000
0001
0000
0100
0000
0010
0000
0200
0000
0000
0000
0000
0000
0000
0000
0000
0000
0000
0000
0000
0000
0000
0000
0000
0000
0301
0000
0000
0001
0000
0000
,  // measure 35
1000
0100
1000
0100
0110
0010
0100
0100
,  // measure 36
0000
0000
0100
0000
0010
0000
0100
0000
0110
0000
0010
0000
0000
0000
0010
0001
,  // measure 37
0010
1000
0001
1000
0110
0001
1000
1000
,  // measure 38
0100
0000
0010
0000
0001
0000
1000
0000
0001
0000
1000
0000
0100
0000
1000
0001
,  // measure 39
1000
0100
0100
0010
0110
0001
0010
0001
,  // measure 40
0000
0000
0001
0000
1000
0000
0001
0000
1001
0000
1000
0000
0000
0000
0001
0100
,  // measure 41
0010
1000
0100
0010
0110
0010
0011
0001
,  // measure 42
0000
0000
0000
0001
0000
0000
1000
0000
0000
0000
0000
0000
0011
0000
0110
0000
1100
0000
0110
0000
0000
0000
0000
0000
,  // measure 43
1000
0000
0000
0010
0000
0000
1000
0000
0000
0001
0000
0000
0100
0000
0000
0001
0000
0000
1000
0000
0010
0000
0100
0000
0001
0000
0000
0000
0000
0000
1001
0000
0000
0000
0000
0000
1000
0000
0000
0000
0000
0000
0100
0000
0000
0000
0000
0000
,  // measure 44
0011
0000
0001
0000
0010
0001
0010
0000
0110
0000
0010
0000
0000
0000
1000
0000
,  // measure 45
1000
0100
0010
0100
0110
0100
0000
0000
,  // measure 46
0000
0000
0000
0000
0000
0000
0001
0000
0000
0100
0000
0000
0001
0000
0000
0000
0000
0000
1000
0000
0010
0000
1000
0000
0001
0000
0000
0000
0000
0000
1001
0000
0000
0000
0000
0000
0001
0000
0000
0000
0000
0000
0100
0000
0000
0000
0000
0000
,  // measure 47
0001
0000
0000
1000
0000
0000
0100
0000
0000
1000
0001
1000
1001
0000
0000
0100
0000
0000
0010
0000
0000
0100
0000
0000
,  // measure 48
0000
0000
0100
0000
0010
0001
0010
0000
0011
0000
1100
0000
0000
0000
0001
0000
,  // measure 49
1000
0100
0010
0001
0010
0100
1000
0000
0001
0000
1000
0000
0001
0000
0100
0000
,  // measure 50
0010
0000
0000
1000
0000
0000
0001
0000
0000
0100
0000
0000
0010
0000
0000
1000
0000
0000
0001
0000
0000
0100
0000
0000
1000
0000
0000
0100
0000
0000
0001
0000
0000
0010
0000
0000
1000
0000
0000
0010
0000
0000
0001
0000
0100
0000
0001
0000
,  // measure 51
1000
0001
0100
0010
1000
0001
1000
0010
1000
0100
0010
0001
1000
0100
0010
0001
1000
0100
0010
0001
0010
0100
1000
0001
,  // measure 52
0010
0100
1000
0010
1000
0010
1000
0100
0010
0001
0010
0001
0010
0001
1000
0001
1000
0001
1000
0010
1000
0010
1000
0100
,  // measure 53
0010
0100
0010
0001
1000
0001
1000
0010
1000
0010
1000
0100
0010
0001
0010
0100
1000
0100
0010
0001
0010
0100
1000
0010
,  // measure 54
1000
0010
0100
0001
0100
0001
1000
0010
1000
0010
0100
0001
0100
0001
1000
0100
0010
0001
0010
0100
1000
0100
0010
0001
,  // measure 55
1000
0001
1000
0001
1000
0100
0010
0001
0010
0100
1000
0100
0010
0001
0010
0100
1000
0001
1000
0010
1000
0010
0100
0001
,  // measure 56
0100
0001
1000
0010
1000
0010
0100
0001
0100
0001
1000
0100
0010
0001
0010
0100
1000
0100
0010
0001
0100
0010
1000
0010
,  // measure 57
1000
0000
0001
0100
0010
1000
0001
0100
0010
1000
0001
0100
0010
1000
0010
0100
0010
1000
0010
0100
0010
1000
0001
0100
,  // measure 58
0010
0100
0001
0100
0001
1000
0010
0100
0001
0100
0001
1000
1001
0000
0011
0000
1100
0000
1000
0000
0001
0000
1000
0000
,  // measure 59
0002
0000
0000
2003
0000
0000
0100
0000
,  // measure 60
3020
0000
0000
0230
0000
0000
0302
0000
,  // measure 61
0103
0010
0010
2000
0000
0000
3002
0000
,  // measure 62
2003
0000
0000
3200
0000
0000
0301
0000
,  // measure 63
2020
0000
0000
0000
,  // measure 64
0000
0000
0000
0000
,  // measure 65
0000
0000
0000
0000
,  // measure 66
0000
0000
0000
3030
0000
0000
0000
0000
0000
0000
0000
0000
0000
0000
0000
0000
;

//---------------dance-single - Copied from----------------
#NOTES:
     dance-single:
     Copied from:
     Medium:
     10:
     0.638,0.983,0.355,0.301,0.253:
0000
0000
0000
0000
,
0000
0000
0000
0000
,
1001
1000
0000
0001
2000
3200
0000
0000
,
0320
0230
2300
3000
0001
1000
0010
0001
,
0010
1000
0001
0001
0100
1000
0100
0001
,
0010
1000
0010
0002
0000
0000
0000
0000
,
1003
0100
1000
0001
0001
1000
0100
0010
,
0100
0010
0001
1000
0001
0100
0010
1000
,
0001
0010
0100
1000
1000
0010
0100
0001
,
2000
0000
0000
0001
3001
0000
0000
0000
,
1001
1000
0100
1000
0200
0000
0010
0310
,
0000
0001
0000
0101
0100
0000
0000
0001
,
0010
0100
1000
0100
0020
0000
0031
0010
,
0000
0100
0000
1100
0001
0000
0000
1000
,
0100
1000
0100
0010
0200
0000
0310
2000
,
0000
0001
3000
0110
0010
0000
0000
0001
,
1000
0100
0010
0200
0000
2300
0000
0100
,
3100
0000
0000
0010
0000
0000
0001
0000
0000
0011
0000
0000
0000
0000
0000
1000
0000
0000
0001
0000
0000
1000
0100
1000
,
0100
0010
0001
1000
1001
0000
1000
0200
,
0000
0320
0000
0100
0130
0000
0001
1000
,
1000
0010
0010
0100
0002
0000
1000
2003
,
0000
3100
0000
0110
0020
0000
0000
0031
,
0100
0010
0100
0010
2000
0000
3100
0010
,
0000
0001
0000
0011
0010
0000
0100
1000
,
0010
0100
0010
0100
1000
0100
0010
0001
,
0100
0000
0010
0000
1000
0000
0001
0000
1001
0000
0000
0000
0001
1000
0001
0000
,
0001
0000
0000
0100
0000
0000
0000
0000
0000
0010
1000
0010
1000
0000
0000
0010
0000
0000
0100
0000
0000
0001
0000
0000
,
0100
0002
0000
2003
0000
3000
0100
0010
,
0001
0010
0100
0000
0110
0010
0001
0010
,
0001
0000
0000
1000
0000
0000
1000
0000
0000
0001
0010
0001
0010
0000
0000
0100
0000
0000
0000
0000
0000
1000
0000
0000
,
0010
0000
0000
0100
0000
0000
0001
0000
0000
1000
0010
1000
0010
0000
0000
0100
0000
0000
0000
0000
0000
1001
0000
0000
,
1000
0000
0001
0000
1000
0100
1000
0000
0100
0000
0100
0000
0010
0000
0001
0000
,
0010
0100
1000
0100
1000
0100
0000
0010
,
0001
0000
1000
0100
0010
0000
0001
0000
0101
0000
0000
0000
0000
0000
0001
0010
,
0100
1000
0100
0010
0001
0010
0100
0100
,
0000
0000
0100
0000
0010
0000
0100
0000
0010
0000
0010
0000
0000
0000
0010
0001
,
0010
0100
1000
0001
1000
1000
0100
0100
,
0001
0100
0010
0001
0100
1000
0100
0001
,
1000
0100
0010
0001
0010
0001
0010
1000
,
0000
0000
0100
0000
0010
0000
0001
0000
0001
0000
1000
0000
0000
0000
0001
0100
,
0010
1000
0100
0010
0110
0000
0011
0011
,
0000
0000
0000
0001
0000
0000
1000
0000
0000
0000
0000
0000
0001
0000
1000
0000
0001
0000
1000
0000
0000
0000
0000
0000
,
1000
0010
1000
0001
0100
0001
1000
0000
1100
0000
0000
0000
0100
0000
0010
0000
,
0001
0000
0010
0000
0100
1000
0100
0000
1000
0000
1000
0000
0000
0000
1000
0000
,
0010
0100
0010
1000
0001
0100
0000
0000
,
0000
0000
0000
0000
0000
0000
0001
0000
0000
0100
0000
0000
0001
0000
0000
0000
0000
0000
1000
0000
0001
0000
1000
0000
0001
0000
0000
0000
0000
0000
1000
0000
0000
0000
0000
0000
0001
0000
0000
0000
0000
0000
0100
0000
0000
0000
0000
0000
,
0001
0000
0000
1000
0000
0000
0100
0000
0000
1000
0001
1000
0001
0000
0000
0100
0000
0000
0010
0000
0000
0001
0000
0000
,
0000
0000
0001
0000
0010
0001
0010
0000
0100
0000
0100
0000
0000
0000
0001
0000
,
1000
0100
0010
0001
0010
0100
1000
0000
0001
0000
1000
0000
0001
0000
0100
0000
,
0010
1000
0001
0100
0010
1000
0001
0100
0010
0100
0001
0010
0001
0010
0001
0000
,
0011
0011
0011
0110
1001
0000
0000
1001
,
0000
1100
2020
0000
3030
0000
1100
0110
,
0011
1001
1100
1100
1001
0000
0000
1100
,
0000
0011
0110
0000
0000
0000
1100
1100
,
1000
0100
0010
0100
0110
0000
0010
0001
,
0000
0000
0001
0000
1000
0000
0000
0000
1001
0000
1000
0000
0000
0000
0001
1000
,
0001
0000
0000
0010
0000
0000
0010
0000
0000
0000
0000
0000
0001
1000
0001
1000
0001
1000
0001
1000
0001
1000
0001
1000
,
0001
1000
0001
1000
0001
1000
0001
1000
0001
1000
0001
1000
0001
0000
0010
0000
0001
0000
1000
0000
0001
0000
1000
0000
,
0002
0000
0000
2003
0000
0000
0100
0000
,
3020
0000
0000
0230
0000
0000
0302
0000
,
0103
0010
0010
2000
0000
0000
3002
0000
,
2003
0000
0000
3200
0000
0000
0301
0000
,
2020
0000
0000
0000
,
0000
0000
0000
0000
,
0000
0000
0000
0000
,
0000
0000
0000
3030
0000
0000
0000
0000
0000
0000
0000
0000
0000
0000
0000
0000
;

//---------------dance-single - ----------------
#NOTES:
     dance-single:
     :
     Easy:
     5:
     0.290,0.398,0.177,0.142,0.000:
0000
0000
0000
0000
,
0000
0000
0000
0000
,
2000
0000
0000
0000
,
3002
0000
0000
0000
,
0103
0000
0000
1001
1001
0000
2000
0000
,
3200
0300
0200
0300
,
0100
0000
0000
1001
1001
0000
0000
0000
,
0200
0000
0000
0302
,
0003
0000
0000
1001
1001
0000
0000
0000
,
1000
0000
0000
0001
0001
0000
0000
1000
,
1001
0000
0000
0000
0100
0000
0000
0010
,
0000
0010
0000
0100
0010
0000
0000
0000
,
0001
0000
1000
0000
0010
0000
0100
0001
,
0000
0001
0000
1000
0000
0000
0000
0000
,
0001
0000
1000
0000
0100
0000
0000
0010
,
0000
0010
0000
0010
0000
0000
0000
0000
,
0001
1000
0100
0010
,
0001
1000
0001
0000
,
1001
0000
1001
0000
0100
0000
0000
0100
,
0000
0100
0000
0000
1001
0000
0000
0000
,
0100
0000
0100
0000
1001
0000
0000
0100
,
0000
0100
0000
0000
1001
0000
0000
0000
,
0100
0000
0100
0000
0010
0000
0000
0100
,
0000
0100
0000
0000
0010
0000
0000
0000
,
1000
0010
0100
0001
,
1000
0001
1000
0001
,
1000
0000
0001
1000
1001
0000
0100
0000
,
0010
0000
0000
0100
0000
0000
0010
0001
,
0010
0001
0010
0000
0000
0001
1000
0001
,
0000
0001
1000
0000
0100
0000
0010
0000
,
0001
1000
0001
1000
0000
1000
0000
1000
,
0000
1000
0100
0000
0010
0000
0001
0000
,
0001
0000
0000
1000
,
1001
0000
0000
0100
0000
0000
0010
0000
,
1000
0000
1000
0000
0100
0000
0000
0010
,
0000
0001
0001
0000
,
0000
1000
0100
1000
0000
0001
0000
0001
,
0000
1000
0100
1000
0000
0001
0000
0001
,
0000
0100
0001
0100
0001
0000
0001
1000
,
0000
1000
0100
1000
0100
0000
0000
0000
,
0100
0100
0010
0010
,
0100
0100
1000
0001
,
1001
0000
0100
0000
0110
0000
0001
1000
,
0000
0100
0010
0001
,
1000
0001
1001
0100
,
0010
0100
0110
0001
,
1000
0000
0001
0000
1000
0000
0100
1000
,
0000
0010
0000
1000
0000
0000
0001
0000
,
1000
0100
1000
0000
0001
0000
0100
0000
,
0001
1000
0100
0010
0001
0010
0001
1000
,
0002
0000
0000
0000
,
2003
0000
0000
0000
,
3200
0000
0000
0000
,
0320
0000
0000
0000
,
0031
0000
1001
0000
,
0100
0000
0010
0000
,
1001
0000
0100
0000
,
0010
0000
0100
0000
,
0002
0000
0000
0000
,
2003
0000
0000
0000
,
3200
0000
0000
0000
,
0320
0000
0000
0000
,
0002
0030
0000
0000
0000
0000
0000
0000
,
0000
0000
0000
0000
,
0000
0003
0000
0000
0000
0000
0000
0000
;

//---------------dance-single - ----------------
#NOTES:
     dance-single:
     :
     Beginner:
     2:
     0.144,0.285,0.142,0.018,0.000:
0000
0000
0000
0000
,
0000
0000
0000
0000
,
1001
0000
0000
0000
,
0100
0000
0000
0000
,
0010
0000
0000
0000
,
0100
0000
0000
0000
,
0010
0000
0000
0000
,
0100
0000
0000
0000
,
0010
0000
0000
0000
,
0100
0000
0000
0000
,
1001
0000
0000
0000
,
0000
0000
1001
0000
,
0100
0000
0000
0000
,
0000
0000
0000
0000
,
1001
0000
0000
0000
,
0000
0000
0000
0000
,
0100
0000
0000
0000
,
0000
0000
0000
0000
,
0010
0010
0010
0000
,
0000
0000
0000
0000
,
0100
0100
0100
0000
,
0000
0000
0000
0000
,
1001
0000
1000
0000
,
0001
0000
1000
0000
,
0100
0000
0010
0000
,
0100
0000
0010
0000
,
0001
0000
1001
0000
,
0100
0000
0010
0000
,
1000
1000
0000
0000
,
0001
0001
0001
0000
,
1000
0000
0100
0000
,
0010
0000
0100
0000
,
0010
0000
0100
0000
,
0010
0000
1001
0000
,
0100
0100
0100
0000
,
0010
0000
1000
0000
,
0001
0000
0100
0000
,
0010
0000
1000
0000
,
0001
0001
0001
0000
,
0100
0000
0010
0000
,
0100
0000
1001
0000
,
0100
0000
1001
1001
,
1001
0000
0100
0000
,
0010
0000
0110
0000
,
0001
0000
1001
0000
,
1000
0000
1001
0000
,
0100
0100
0100
0000
,
1001
0000
0100
0000
,
0010
0000
0100
0000
,
0010
0000
0000
0000
,
0100
0000
0000
0000
,
0010
0000
0000
0000
,
0100
0000
0000
0000
,
0010
0000
0000
0000
,
1000
0000
0001
0000
,
1000
0000
0100
0000
,
0010
0000
0001
0000
,
1000
0000
0100
0000
,
0010
0000
0000
0000
,
0001
0000
0000
0000
,
1000
0000
0000
0000
,
0100
0000
0000
0000
,
2002
0000
0000
0000
,
0000
0000
0000
0000
,
0000
0000
0000
3003
0000
0000
0000
0000
;

//---------------dance-double - ----------------
#NOTES:
     dance-double:
     :
     Hard:
     9:
     0.588,0.796,0.222,0.355,0.231:
00000000
00000000
00000000
00000000
,
00000000
00000000
00000000
00000000
,
00011000
00010000
00000000
00001000
00020000
00030200
00000000
00000000
,
02000300
00000000
03000000
00002000
00000000
00000000
02003000
00000000
00000000
03000000
00000000
00000000
00020000
00000000
00000000
00000000
00000000
00000000
00000000
00000000
00000000
00000000
00000000
00000000
,
00000000
00000000
00000000
10000000
10000000
00000000
00000000
00000000
,
00000000
00030000
00000000
00000000
,
00010000
01000000
00001000
00020000
00000100
00000000
00000000
00000000
,
00000000
00000000
00000000
00000000
,
00000000
00000000
00000000
00000100
00000100
00000000
00030000
00000000
,
00002000
00000000
00000000
00100000
00103000
00000000
00000000
00001000
,
00011000
00001000
01000000
00010000
02000000
00000000
00001000
03001000
,
00000000
00010000
00000000
00011000
00010000
00000000
00000000
00001000
,
00011000
00010000
00000100
00001000
00000020
00000000
00001000
00001030
,
00000000
00000001
00000000
00001001
00002000
00000000
00000000
00003010
,
00000100
00000001
00000100
00000010
00002000
00000000
00103000
00002000
,
00000000
00013000
00000000
00101000
00001000
00000000
00000000
00010000
,
00000100
00010000
00000100
00020000
00000000
00030200
00000000
00010000
,
00010300
00000000
00000000
00000000
00000000
00000000
00000000
00000000
00000000
00001010
00000000
00000000
00000000
00000000
00000000
00000001
00000000
00000000
00001000
00000000
00000000
00000001
00001000
00000001
,
00001000
00000100
00000010
00000010
00001001
00000000
00000001
00002000
,
00000000
00003200
00000000
00010000
00010300
00000000
00001000
01000000
,
01000000
00100000
00100000
01000000
00020000
00000000
10000000
20030000
,
00000000
31000000
00000000
01100000
00200000
00000000
00000000
00310000
,
01000000
10000000
01000000
00100000
20000000
00000000
01000000
01000000
,
00000000
30100000
00000000
01001000
00001000
00000000
01000000
00001000
,
00100000
00000100
00010000
00000100
00100000
00001000
00100000
00010000
,
01000000
00000000
00000000
00100000
00000000
00000000
10000000
00000000
00000000
00010000
10000000
00010000
10000000
00000000
00000000
01000000
00000000
00000000
00100000
00000000
00000000
00001000
00000000
00000000
,
00010000
00000000
00000000
00000100
00000000
00000000
00010000
00000000
00000000
00001000
00010000
00001000
00010000
00000000
00000000
00000100
00000000
00000000
00100000
00000000
00000000
00001000
00000000
00000000
,
00100000
00001000
00100000
00000100
00010000
00010000
00000010
00010000
,
00000010
00001000
00000010
00000100
00000001
00000100
00001000
00000100
,
00000010
00000000
00000000
00000000
00000000
00000000
00001000
00000000
00000000
00000100
00000000
00000000
00010000
00000000
00000000
00000000
00000000
00000000
00001000
00000000
00010000
00000000
00001000
00000000
01000000
00000000
00000000
00000000
00000000
00000000
00010000
00000000
00000000
00000000
00000000
00000000
00000000
00000000
00000000
00000000
00000000
00000000
01000000
00000000
00000000
00000000
00000000
00000000
,
00100000
00000000
00000000
10000000
00000000
00000000
00000000
00000000
00000000
10000000
00010000
00100000
00010000
00000000
00000000
01000000
00000000
00000000
00000000
00000000
00000000
10010000
00000000
00000000
,
10000000
00000000
00010000
00000000
10000000
01000000
10000000
00000000
00010000
00000000
01000000
00000000
10000000
00000000
01000000
00000000
,
00010000
10000000
00000000
00010000
01010000
01000000
00000000
00001000
,
00010000
00000000
00000000
00000000
00000000
00000000
00010000
00000000
00000000
00000000
00000000
00000000
00000100
00000000
00000000
00000000
00000000
00000000
00001000
00000000
00000100
00000000
00001000
00000000
00000100
00000000
00000000
00000000
00000000
00000000
00000000
00000000
00000000
00000000
00000000
00000000
00000000
00000000
00000000
00000000
00000000
00000000
00000001
00000000
00000000
00000010
00000000
00000000
,
00000001
00000010
00000100
00000010
00000110
00000000
00000001
00000100
,
00000000
00000010
00010000
00001000
00011000
00000000
00000000
00000000
,
00000000
10000000
01000000
20000000
00000000
30020000
00000000
00230000
,
00000000
00300100
00000100
00020000
00000000
00030200
00000000
00020300
,
00000000
00031000
01000000
00100000
02000000
00000000
03010000
10000000
,
00000000
00000000
00100000
00000000
01000000
00000000
00100000
00000000
01100000
00000000
01000000
00000000
00000000
00000000
00010000
01000000
,
00100000
10000000
01000000
00100000
00000000
00100000
00001000
00100000
,
00000000
00000000
00000000
00010000
00000000
00000000
10000000
00000000
00000000
00000000
00000000
00000000
10000000
00000000
00100000
00000000
01000000
00000000
00001000
00000000
00000000
00000000
00000000
00000000
,
00010000
00000000
00000000
00001000
00000000
00000000
00010000
00000000
00000000
00001000
00000000
00000000
00100000
00000000
00000000
00001000
00000000
00000000
01000000
00000000
00001000
00000000
01000000
00000000
00001000
00000000
00000000
00000000
00000000
00000000
01000000
00000000
00000000
00000000
00000000
00000000
00010000
00000000
00000000
00000000
00000000
00000000
10000000
00000000
00000000
00000000
00000000
00000000
,
01000000
00000000
00100000
00000000
00001000
00100000
00001000
00000000
00100000
00000000
00000100
00000000
00000000
00000000
00000001
00000000
,
00001000
00000010
00001000
00000001
00000100
00001001
00000000
00000000
,
00000000
00000000
00000000
00000000
00000000
00000000
00001000
00000000
00000000
00010000
00000000
00000000
00001000
00000000
00000000
00000000
00000000
00000000
00100000
00000000
00010000
00000000
00100000
00000000
00010000
00000000
00000000
00000000
00000000
00000000
10000000
00000000
00000000
00000000
00000000
00000000
00010000
00000000
00000000
00000000
00000000
00000000
01000000
00000000
00000000
00000000
00000000
00000000
,
00010000
00000000
00000000
10000000
00000000
00000000
01000000
00000000
00000000
10000000
00010000
10000000
00010000
00000000
00000000
01000000
00000000
00000000
00000100
00000000
00000000
00100000
00000000
00000000
,
00000000
00000000
00001000
00000000
00100000
00001000
00100000
00000000
00011000
00000000
00011000
00000000
00000000
00000000
00001000
00000000
,
01000000
00001000
00100000
00001000
01000000
00001000
00010000
00000000
00001000
00000000
01000000
00000000
00010000
00000000
10000000
00000000
,
00100000
10000000
00010000
01000000
00100000
10000000
00010000
00100000
01000000
10000000
01000000
00100000
01000000
00100000
00010000
00000000
,
00110000
00000000
00101000
00000000
00010100
00000000
00000000
01010000
,
00000000
11000000
10010000
00000000
10000000
01000000
00010000
00001000
,
00000100
00000001
00000100
00010000
01000000
10000000
00100000
00010000
,
00001000
00000010
00000001
00000010
00001000
00010000
00100000
01000000
,
00100000
10000000
00100000
01000000
00001000
00010000
00000100
00001000
,
00000010
00010000
00001000
01000000
00010000
10000000
01000000
00100000
,
10000000
00010000
00100000
01000000
00010000
01000000
00010000
00100000
,
00001000
00010000
00001000
00010000
00001000
00010000
00001000
00010000
00001000
00010000
00001000
00010000
00000100
00000000
00001000
00000000
00000001
00000000
00000100
00000000
00000010
00000000
00000100
00000000
,
00000002
00000000
00000000
00002003
00000000
00000000
00003020
00000000
,
00200030
00000000
00000000
02300000
00000000
00000000
03020000
00000000
,
01030000
00100000
00100000
20000000
00000000
00000000
30020000
00000000
,
20030000
00000000
00000000
32000000
00000000
00000000
03010000
00000000
,
00022000
00000000
00000000
00000000
,
00000000
00000000
00000000
00000000
,
00000000
00033000
00000000
00000000
00000000
00000000
00000000
00000000
;
