#TITLE:Venus;
#SUBTITLE:;
#ARTIST:Bananarama;
#TITLETRANSLIT:;
#SUBTITLETRANSLIT:;
#ARTISTTRANSLIT:;
#CREDIT:;
#BANNER:Venus.png;
#BACKGROUND:Venus-bg.png;
#LYRICSPATH:;
#CDTITLE:./CDTITLES/DanceDanceRevolution 2010.png;
#MUSIC:Venus.mp3;
#OFFSET:1.581;
#SAMPLESTART:34.373;
#SAMPLELENGTH:15.000;
#SELECTABLE:YES;
#BPMS:0.000=125.630;
#STOPS:;
#BGCHANGES:;

//---------------dance-single - ----------------
#NOTES:
     dance-single:
     :
     Hard:
     8:
     0.510,0.470,0.107,0.058,0.155:
0000
0000
0000
0000
,
0000
0000
0000
0000
,
0000
0000
0000
0000
,
0000
0000
0000
0000
,
0000
0000
0000
0000
,
1000
0100
1000
0100
1000
0000
0001
0100
0000
0001
0100
0000
0000
0000
0000
0000
,
0001
0100
0001
0100
0001
0000
1000
0100
0000
1000
0100
0000
0000
0000
0000
0000
,
1000
0010
0100
0000
0100
0010
1000
0000
,
1000
0001
0100
0000
0100
0001
1000
0000
,
1000
0100
0010
0000
0010
0001
0100
0000
,
0100
0010
1000
0000
1000
0001
0010
0000
,
0010
0001
0100
0010
0100
0001
1000
0100
,
1000
0010
0100
0000
0100
0010
1000
0000
,
1000
0001
0100
0001
0010
0100
1000
0010
,
0100
0001
0010
0000
0010
0001
0100
0000
,
0100
0010
1000
0001
0100
0010
1000
0001
,
0010
0100
1000
0000
1000
0001
0100
0000
,
0100
0010
1000
0100
1000
0001
0010
0000
,
0010
0001
0200
0010
0010
0310
1000
0100
,
1000
0001
0100
0000
0001
1000
1001
0000
,
0100
0010
1000
0100
1000
0010
0200
0000
,
0301
0000
0010
0000
0001
0000
0000
0000
1000
0100
1000
0100
1000
0000
0000
0000
,
0001
0000
0100
0000
0001
0000
0000
0000
1000
0010
1000
0010
1000
0000
0000
0000
,
0100
1000
0010
0100
0001
0010
0001
0100
,
0010
1000
0100
0010
0100
1000
0001
0100
,
0010
0000
0100
0000
0001
0000
0000
0000
0100
0000
0001
0100
0000
0100
0010
0000
,
1000
0000
0100
0000
1000
0000
0000
0000
0001
0000
0100
0001
0000
0001
0010
0000
,
0100
1000
0001
0100
0001
1000
0010
0100
,
0010
1000
0100
0010
0001
0100
0010
1000
,
0001
0000
0100
0000
0010
0000
0000
0000
0100
0000
0001
1000
0000
1000
0100
0000
,
1000
0000
0010
0000
0100
0000
0000
0000
0010
0000
1000
0100
0000
0100
1000
0000
,
0001
0100
0001
1000
0100
1000
0010
0100
,
0001
1000
0100
0000
0100
1000
0010
0000
,
0010
0100
0001
0100
0010
0100
0001
1000
,
0100
1000
0010
0000
0010
0100
0001
0000
,
0001
1000
0100
0010
0001
0010
0001
0100
,
0010
1000
0100
0000
0100
1000
0001
0000
,
0001
0100
0010
1000
0100
1000
0010
0000
,
0100
0001
2000
0100
0100
3100
0010
0001
,
1000
0010
0100
0000
0001
1000
1100
0000
,
1000
0010
0100
0010
1000
0001
0020
0000
,
0031
0000
1000
0000
0100
0000
0000
0000
1000
0010
1000
0010
1000
0000
0000
0000
,
0001
0000
1000
0000
0010
0000
0000
0000
1000
0100
1000
0100
1000
0000
0000
0000
,
0001
0100
0010
0100
0001
1000
0100
1000
,
0010
0100
0001
1000
0100
1000
0010
0100
,
0010
0000
1000
0000
0100
0000
0000
0000
1000
0000
0001
0100
0000
0100
0001
0000
,
1000
0000
0100
0000
1000
0000
0000
0000
0010
0000
1000
0100
0000
0100
1000
0000
,
0001
0100
0010
0100
0001
1000
0100
0010
,
0001
0100
0010
1000
0100
1000
0010
0100
,
0001
0000
0010
0000
0001
0000
0000
0000
0010
0000
0100
1000
0000
1000
0100
0000
,
1000
0000
0001
0000
0100
0000
0000
0000
0001
0000
1000
0010
0000
0010
1000
0000
,
1100
1001
0011
1001
,
1010
1001
0101
1001
,
0220
0000
0000
0330
;

//---------------dance-single - ----------------
#NOTES:
     dance-single:
     :
     Medium:
     5:
     0.366,0.365,0.175,0.146,0.010:
0000
0000
0000
0000
,
0000
0000
0000
0000
,
0000
0000
0000
0000
,
0000
0000
0000
0000
,
0000
0000
0000
0000
,
1000
0000
0000
0000
0001
0000
0000
1000
0000
0000
0001
0000
0000
0000
0000
0000
,
0001
0000
0000
0000
1000
0000
0000
0001
0000
0000
1000
0000
0000
0000
0000
0000
,
0100
1000
0001
0010
,
0001
0100
1000
0010
,
1000
0100
0001
0010
,
0001
0100
1000
0010
,
1000
0100
1000
0000
0001
0100
0001
0000
,
1000
1000
0010
0010
,
0100
0001
0100
0000
0001
1000
0001
0000
,
1000
1000
0100
0100
,
0010
0001
0010
0000
0100
1000
0100
0000
,
0010
0010
0001
0001
,
0100
0001
0100
0000
0001
1000
0001
0000
,
2002
0000
0000
3003
,
1000
1010
0001
0011
,
2000
0100
0001
3100
,
0001
0000
0101
0000
1000
0100
1000
0000
,
0001
0000
0011
0000
1000
0010
1000
0000
,
0001
0100
0010
0100
0001
0100
0010
0000
,
1000
0010
0100
0010
1000
0010
0100
0000
,
1000
0001
0100
1001
,
0010
0001
0100
1001
,
1000
0001
0100
0001
1000
0001
0100
0000
,
0001
1000
0100
1000
0001
1000
0100
0000
,
1000
0010
0100
1001
,
0010
0001
0100
1001
,
0100
1000
0001
0000
0010
0001
1000
0000
,
0100
0100
1000
1000
,
0010
1000
0100
0000
1000
0001
0100
0000
,
0001
0001
0010
0010
,
0100
1000
0010
0000
0100
0010
1000
0000
,
0100
0100
1000
1000
,
0001
0100
0010
0000
0100
0001
0010
0000
,
2002
0000
0000
3003
,
0100
1010
0001
0110
,
0002
1000
0010
1003
,
0100
0000
1001
0000
0100
1000
0001
0000
,
0010
0000
1001
0000
0010
0001
0100
0000
,
0010
1000
0100
1000
0010
1000
0100
0000
,
0010
0001
0100
0001
0010
0001
0100
0000
,
0001
1000
0001
0110
,
1000
0001
1000
0110
,
0001
0010
0001
0100
0001
1000
0001
0000
,
1000
0100
1000
0010
1000
0001
1000
0000
,
0100
1000
0001
0110
,
1000
0001
1000
0110
,
0002
0023
0230
2300
,
3002
2003
3020
0230
,
0002
0000
0000
0303
;

//---------------dance-single - ----------------
#NOTES:
     dance-single:
     :
     Easy:
     3:
     0.333,0.339,0.223,0.563,0.000:
0000
0000
0000
0000
,
0000
0000
0000
0000
,
0000
0000
0000
0000
,
0000
0000
0000
0000
,
0000
0000
0000
0000
,
1000
0001
1000
0000
,
0001
1000
0001
0000
,
1000
0000
1001
0000
,
0001
0000
1001
0000
,
1000
0000
1010
0000
,
0001
0000
0011
0000
,
2000
3002
0203
0320
,
1030
0000
1001
0000
,
0020
0032
2003
3200
,
0310
0000
0110
0000
,
0020
0032
2003
3002
,
0103
0000
0110
0000
,
2000
3200
0320
0032
,
0100
0100
1000
1003
,
1001
0100
1000
0000
,
1001
0010
0001
0000
,
1000
0100
1100
0101
,
0010
0001
0101
1100
,
2000
3002
0203
0000
,
0302
2003
3200
0000
,
1300
0001
0010
0010
,
0001
1000
0010
0010
,
2000
3002
0203
0000
,
0320
2030
3002
0000
,
1003
0010
0100
0100
,
0001
1000
0100
0100
,
2000
3002
0023
0032
,
0103
0000
0110
0000
,
0020
2030
3200
2300
,
3100
0000
0110
0000
,
0020
0230
2300
3002
,
0103
0000
0110
0000
,
0200
0302
2003
3200
,
0010
0010
1000
1300
,
1001
0100
0010
0000
,
1001
0010
0100
0000
,
1000
0001
1100
0101
,
0001
1000
0011
1010
,
2000
3200
0320
0000
,
0032
0203
0320
0000
,
1030
0001
0100
0100
,
0001
1000
0010
0010
,
0200
0302
2003
0000
,
3200
0320
0032
0000
,
1003
0010
0100
0100
,
0001
0010
0100
0100
,
1000
0100
0001
0010
,
1000
0100
0001
0010
,
2002
0000
0000
3003
;

//---------------dance-single - ----------------
#NOTES:
     dance-single:
     :
     Beginner:
     1:
     0.133,0.182,0.029,0.155,0.000: // measure 1
0000
0000
0000
0000
,  // measure 2
0000
0000
0000
0000
,  // measure 3
0000
0000
0000
0000
,  // measure 4
0000
0000
0000
0000
,  // measure 5
0000
0000
0000
0000
,  // measure 6
2002
0000
3003
0000
,  // measure 7
0220
0000
0330
0000
,  // measure 8
1000
0000
1000
0000
,  // measure 9
0001
0000
0001
0000
,  // measure 10
0100
0000
0100
0000
,  // measure 11
0010
0000
0010
0000
,  // measure 12
1000
0000
0001
0000
,  // measure 13
1000
0000
0000
0000
,  // measure 14
0100
0000
0010
0000
,  // measure 15
0100
0000
0000
0000
,  // measure 16
0001
0000
1000
0000
,  // measure 17
0001
0000
0000
0000
,  // measure 18
0010
0000
0100
0000
,  // measure 19
0020
0000
0030
0000
,  // measure 20
1000
0000
0000
0000
,  // measure 21
0001
0000
0100
0000
,  // measure 22
0001
0000
0000
0000
,  // measure 23
1000
0000
0010
0000
,  // measure 24
2000
0000
3000
0000
,  // measure 25
0002
0000
0003
0000
,  // measure 26
0010
0000
0001
0000
,  // measure 27
0100
0000
1000
0000
,  // measure 28
0002
0000
0003
0000
,  // measure 29
2000
0000
3000
0000
,  // measure 30
0100
0000
0001
0000
,  // measure 31
0010
0000
1000
0000
,  // measure 32
0100
0000
1000
0000
,  // measure 33
0100
0000
0000
0000
,  // measure 34
1000
0000
0010
0000
,  // measure 35
1000
0000
0000
0000
,  // measure 36
0001
0000
0010
0000
,  // measure 37
0001
0000
0000
0000
,  // measure 38
0100
0000
0001
0000
,  // measure 39
0200
0000
0300
0000
,  // measure 40
0010
0000
0000
0000
,  // measure 41
0100
0000
0001
0000
,  // measure 42
1000
0000
0000
0000
,  // measure 43
0010
0000
1000
0000
,  // measure 44
0002
0000
0003
0000
,  // measure 45
2000
0000
3000
0000
,  // measure 46
0100
0000
1000
0000
,  // measure 47
0010
0000
0001
0000
,  // measure 48
2000
0000
3000
0000
,  // measure 49
0002
0000
0003
0000
,  // measure 50
0010
0000
0001
0000
,  // measure 51
0100
0000
1000
0000
,  // measure 52
0100
1000
0100
0000
,  // measure 53
1000
0010
1000
0000
,  // measure 54
2002
0000
3003
0000
;
