#TITLE:TWILIGHT ZONE;
#SUBTITLE:(R-C Extended Club MIX);
#ARTIST:2 UNLIMITED;
#TITLETRANSLIT:00TWILIGHT ZONE;
#SUBTITLETRANSLIT:;
#ARTISTTRANSLIT:;
#CREDIT:;
#BANNER:TWILIGHT ZONE (R-C Extended Club MIX).png;
#BACKGROUND:TWILIGHT ZONE (R-C Extended Club MIX)-bg.png;
#LYRICSPATH:;
#CDTITLE:Dance Dance Revolution Max.png;
#MUSIC:TWILIGHT ZONE (R-C Extended Club MIX).mp3;
#OFFSET:-1.797;
#SAMPLESTART:15.680;
#SAMPLELENGTH:14.000;
#SELECTABLE:YES;
#DISPLAYBPM:138.000;
#BPMS:0.000=138.020;
#STOPS:;
#BGCHANGES:;

//---------------dance-single - ----------------
#NOTES:
     dance-single:
     :
     Beginner:
     1:
     0.157,0.240,0.157,0.000,0.000:
0000
0000
0000
0000
,
0000
0000
0000
0000
,
0000
0000
0000
0000
,
0000
0000
0000
0000
,
0001
0000
0000
0000
,
1000
0000
0000
0000
,
0001
0000
0000
0000
,
1000
0000
0000
0000
,
0100
0000
0000
0000
,
0010
0000
0000
0000
,
0110
0000
0000
0000
,
1001
0000
0000
0000
,
0001
0001
0000
0000
,
1000
1000
0000
0000
,
0001
0001
0000
0000
,
1000
1000
0000
0000
,
0100
0100
0000
0000
,
0010
0010
0000
0000
,
0110
0110
0000
0000
,
1001
1001
0000
0000
,
0001
0000
0001
0000
,
0001
0000
0001
0000
,
1000
0000
1000
0000
,
1000
0000
1000
0000
,
0100
0000
0000
0000
,
0010
0000
0000
0000
,
1001
0000
1001
0000
,
1001
0000
1001
0000
,
0100
0100
0100
0000
,
0010
0010
0010
0000
,
0100
0100
0100
0000
,
0010
0010
0010
0000
,
1000
1000
1000
0000
,
0001
0001
0001
0000
,
1001
0000
0000
0000
,
1001
1001
1001
0000
,
1000
0000
0000
0000
,
1000
0000
0100
0100
,
0100
0000
0000
0000
,
0100
0000
0001
0001
,
0001
0000
0000
0000
,
0001
0000
0010
0010
,
0010
0000
0000
0000
,
0010
0000
1000
1000
,
1000
0000
1000
0000
,
0100
0000
0100
0000
,
0001
0000
0001
0000
,
0010
0000
0010
0000
;

//---------------dance-single - ----------------
#NOTES:
     dance-single:
     :
     Easy:
     3:
     0.212,0.320,0.157,0.292,0.000:
0000
0000
0000
0000
,
0000
0000
0000
0000
,
0000
0000
0000
0000
,
0000
0000
0000
0000
,
0100
0000
0000
0001
,
1000
0000
0000
0001
,
0010
0000
0000
0000
,
0100
0000
1000
0010
,
1000
0000
0000
0001
,
0100
0000
0000
0001
,
2000
0000
0000
3000
,
0010
0000
0100
0001
,
0100
0000
0000
0010
,
0100
0000
0001
1000
,
0002
0000
0000
0003
,
1000
0000
0100
0010
,
0100
0000
0000
1000
,
0001
0000
0000
0000
,
2002
0000
0000
3003
,
2002
0000
3003
0100
,
0020
0000
0000
1030
,
0002
0000
0000
0103
,
0020
0000
0000
0030
,
0200
0000
0300
0010
,
2000
0000
0000
3010
,
0200
0000
0000
0301
,
0020
0000
0000
0030
,
0002
0000
0003
0100
,
0022
0000
0033
0100
,
2020
0000
3030
0100
,
0202
0000
0000
0303
,
2200
0000
3300
0001
,
0220
0000
0330
1000
,
0220
0000
0330
0100
,
0011
0000
1100
0000
,
1010
0000
0101
0000
,
1000
0000
1000
0000
,
0001
0000
1000
1000
,
0001
0000
0001
0000
,
1000
0000
0001
0001
,
0100
0000
0001
0001
,
1000
0000
0010
0010
,
1000
0000
0001
0000
,
0100
0000
0001
0010
,
0001
0000
1000
1000
,
0001
0000
0100
0100
,
1001
0000
1001
0000
,
0100
0010
0010
0000
;

//---------------dance-single - ----------------
#NOTES:
     dance-single:
     :
     Medium:
     5:
     0.392,0.561,0.584,0.382,0.000:
0000
0000
0000
0000
,
0000
0000
0000
0000
,
0000
0000
0000
0000
,
0000
0000
0000
0000
,
1000
1000
0000
0011
,
0001
0001
0000
1010
,
0100
0100
0000
1001
,
0100
1000
0001
0010
,
0001
0001
0000
1100
,
1000
1000
0000
0101
,
0010
0010
0000
1001
,
1000
0100
0010
0001
,
1100
1001
0000
1010
,
0101
1001
0000
0011
,
0110
0110
0000
1001
,
1100
0011
0101
1010
,
0110
2002
3003
0110
,
1001
0220
0330
1001
,
0101
2200
3300
1001
,
0110
0000
1001
0000
0110
0000
0100
1000
,
0020
0000
0000
0000
0030
0000
0100
0001
,
0020
0000
0000
0000
0030
0000
0001
1000
,
2002
0000
0000
0000
,
0000
0000
0000
0000
3003
0000
0010
0001
,
0020
0000
0000
0000
0030
0000
0100
1000
,
0020
0000
0000
0000
0030
0000
1000
0001
,
0022
0000
0033
2200
0000
3300
2020
0000
,
3030
0202
0000
0303
1001
0000
0010
1000
,
0200
0000
0000
0000
0300
0000
0010
1000
,
0200
0000
0000
0000
0300
0000
0010
0100
,
0220
0000
0000
0000
,
0000
0000
0000
0000
0330
0000
0010
1000
,
0002
0000
0000
0000
0003
0000
1000
0100
,
0020
0000
0000
0000
0030
0000
0001
1000
,
2200
0000
3300
2020
0000
3030
0022
0000
,
0033
0202
0000
0303
0110
0000
1001
0000
,
0100
1000
0100
0000
0100
0001
0100
0000
,
0100
0010
0100
0000
1001
0000
1001
0000
,
0100
0001
0100
0000
0100
1000
0100
0000
,
0110
0000
0000
0000
,
0010
1000
0010
0000
0010
0001
0010
0000
,
0010
0100
0010
0000
1001
0000
1001
0000
,
0010
0001
0010
0000
0010
1000
0010
0000
,
0010
0100
0010
0000
1001
0000
1001
0000
,
0100
0001
0010
0000
0100
1000
0010
0000
,
0100
0001
0010
0000
0100
1000
0010
0000
,
0010
1000
0100
0000
0010
0001
0100
0000
,
0010
1000
0100
0000
0110
0000
0000
0000
;

//---------------dance-single - ----------------
#NOTES:
     dance-single:
     :
     Hard:
     9:
     0.657,0.613,0.101,0.000,0.798:
0000
0000
0000
0000
,
0000
0000
0000
0000
,
0000
0000
0000
0000
,
0000
0000
0000
0000
,
0001
0010
0000
0010
0001
0000
0001
1000
0000
1000
0001
0000
0100
0000
0100
0000
,
0100
0001
0000
0001
1000
0000
1000
0010
0000
0010
0100
0000
0001
0000
0001
0000
,
0001
0010
0000
0010
0001
0000
0001
1000
0000
1000
0001
0000
0100
0000
0100
0000
,
0100
0000
0001
0000
1001
0000
1000
0010
0000
0000
0000
0000
0000
0000
0000
0000
,
1000
0010
0000
0010
1000
0000
1000
0001
0000
0001
1000
0000
0100
0000
0100
0000
,
0100
1000
0000
1000
0001
0000
0001
0010
0000
0010
0100
0000
1000
0000
1000
0000
,
1000
0010
0000
0010
1000
0000
1000
0001
0000
0001
1000
0000
0100
0000
0100
0000
,
0100
0000
1000
0000
1001
0000
0001
0010
0000
0000
0000
0000
0000
0000
0000
0000
,
0001
1000
0000
1000
0010
0000
0010
0100
0000
0100
0001
0000
1000
0000
1000
0000
,
1000
0001
0000
0001
0010
0000
0010
0100
0000
0100
1000
0000
0001
1000
0001
0000
,
0100
0010
0000
0010
1000
0000
1000
0001
0000
0001
0100
0000
0010
0000
0010
0000
,
0010
0000
0100
0000
0101
0000
0001
1000
0000
0000
0010
0000
0100
0010
0100
0000
,
0001
1000
0000
1000
0010
0000
0010
0100
0000
0100
0001
0000
1000
0000
1000
0000
,
1000
0001
0000
0001
0010
0000
0010
0100
0000
0100
1000
0000
0001
1000
0001
0000
,
0100
0010
0000
0010
1000
0000
1000
0001
0000
0001
0100
0000
0010
0000
0010
0000
,
0110
0000
0000
0000
,
0001
0010
0001
0000
1000
0000
0001
0010
0001
0000
1000
0000
0001
0000
0001
0000
,
1000
0010
0000
0010
1000
0000
1000
0100
0000
0100
1000
0000
0001
0000
0001
0000
,
1000
0100
1000
0000
0001
0000
1000
0100
1000
0000
0001
0000
1000
0000
1000
0000
,
0001
0000
0100
0000
0101
0000
0001
0010
0000
0000
0000
0000
0000
0000
0000
0000
,
0001
0010
0001
0000
1000
0000
0001
0010
0001
0000
1000
0000
0001
0000
0001
0000
,
1000
0010
0000
0010
1000
0000
1000
0100
0000
0100
1000
0000
0001
0000
0001
0000
,
1000
0100
1000
0000
0001
0000
1000
0100
1000
0000
0001
0000
1000
0000
1000
0000
,
0001
0000
0100
0000
0101
0000
0001
0010
0000
0000
0000
0000
0000
0000
0000
0000
,
0001
1000
0001
0000
0010
0000
0001
1000
0001
0000
0100
0000
0001
1000
0001
0000
,
1000
0010
0000
0010
1000
0000
1000
0001
0000
0001
0010
0000
0100
0000
0100
0000
,
1000
0001
1000
0000
0010
0000
1000
0001
1000
0000
0100
0000
1000
0001
1000
0000
,
0001
0000
0010
0000
0011
0000
0001
1000
0000
0000
0010
0000
0100
0000
0100
0000
,
0001
1000
0001
0000
0100
0000
0001
1000
0001
0000
0010
0000
0001
1000
0001
0000
,
1000
0100
0000
0100
1000
0000
1000
0001
0000
0001
0100
0000
0010
0000
0010
0000
,
1000
0001
1000
0000
0100
0000
1000
0001
1000
0000
0010
0000
1000
0001
1000
0000
,
0001
0100
0000
0100
0001
0000
0001
1000
0000
1000
0100
0000
0010
0000
0010
0000
,
0100
0000
0100
0010
0000
0010
0000
0001
1000
0000
1000
0001
0000
1000
0000
0010
,
1000
0000
1000
0001
0000
1000
0000
0001
0010
0001
0000
0001
0010
0001
0000
0000
,
0100
0000
0100
0010
0000
0010
0000
1000
0001
0000
0001
1000
0001
0010
0001
0010
,
0100
0000
0000
0000
,
0010
0100
0000
0100
0001
0000
0010
0000
0001
1000
0000
1000
0001
0000
1000
0000
,
0100
1000
0000
1000
0001
0000
1000
0000
0001
0100
0001
0000
0001
0100
0001
0000
,
0010
0100
0000
0100
1000
0000
0010
0000
1000
0001
0000
0001
1000
0000
0001
0000
,
0100
0000
0001
0000
1001
0000
0001
1000
0000
0000
0000
0000
0000
0000
0000
0000
,
0001
1000
0000
0001
1000
0000
0010
0000
1000
0001
0000
1000
0001
0000
0010
0000
,
0001
1000
0000
1000
0001
0000
0100
0000
0001
0010
0001
0000
1000
0010
1000
0010
,
1000
0001
0000
1000
0001
0000
0010
0000
0001
1000
0000
0001
1000
0000
0010
0000
,
1000
0000
0001
0000
1001
0000
0100
0010
0000
0000
0000
0000
0000
0000
0000
0000
;

//---------------dance-double - ----------------
#NOTES:
     dance-double:
     :
     Easy:
     2:
     0.162,0.240,0.225,0.034,0.000: // measure 1
00000000
00000000
00000000
00000000
,  // measure 2
00000000
00000000
00000000
00000000
,  // measure 3
00000000
00000000
00000000
00000000
,  // measure 4
00000000
00000000
00000000
00000000
,  // measure 5
00000100
00000000
00000000
00000001
,  // measure 6
00001000
00000000
00000000
00000001
,  // measure 7
00000010
00000000
00000000
00000000
,  // measure 8
00001000
00000000
00010000
01000000
,  // measure 9
10000000
00000000
00000000
00100000
,  // measure 10
10000000
00000000
00000000
00010000
,  // measure 11
01000000
00000000
00000000
00000000
,  // measure 12
00000000
00000000
10000000
01000000
,  // measure 13
00100000
00000000
00000000
00010000
,  // measure 14
00000010
00000000
00000001
00000100
,  // measure 15
00000010
00000000
00000000
00000000
,  // measure 16
00001000
00000000
00000001
00001000
,  // measure 17
00000010
00000000
00000000
00010000
,  // measure 18
00001000
00000000
00100000
00010000
,  // measure 19
10000000
00000000
00000000
00000000
,  // measure 20
00010000
00000000
00000000
01000000
,  // measure 21
00100000
00000000
00000000
01000000
,  // measure 22
00010000
00000000
00000000
00010000
,  // measure 23
00000020
00000000
00000000
00000000
,  // measure 24
00000000
00000000
00000030
00000100
,  // measure 25
00000001
00000000
00000000
00000100
,  // measure 26
00000010
00000000
00000000
00010000
,  // measure 27
00002000
00000000
00000000
00003000
,  // measure 28
00020000
00000000
00030000
00000000
,  // measure 29
11000000
00000000
00000000
00000000
,  // measure 30
10100000
00000000
00000000
00000000
,  // measure 31
01010000
00000000
00000000
00000000
,  // measure 32
10000000
00000000
10000000
00000000
,  // measure 33
00110000
00000000
00000000
00000000
,  // measure 34
00011000
00000000
00000000
00000000
,  // measure 35
00010000
00000000
00001000
00000000
,  // measure 36
00010000
00000000
00000010
00000000
,  // measure 37
00000101
00000000
00001100
00000000
,  // measure 38
00001001
00000000
00000000
00000000
,  // measure 39
11000000
00000000
01010000
00000000
,  // measure 40
10010000
00000000
00000000
00000000
,  // measure 41
00001010
00000000
00000011
00000000
,  // measure 42
00001001
00000000
00000000
00000000
,  // measure 43
00110000
00000000
10100000
00000000
,  // measure 44
10010000
00000000
00000000
00000000
,  // measure 45
00000100
00000100
00001001
00000000
,  // measure 46
00000010
00000010
00001001
00000000
,  // measure 47
00010000
00000000
00001000
00000000
,  // measure 48
01000000
01000000
10010000
00000000
;

//---------------dance-double - ----------------
#NOTES:
     dance-double:
     :
     Medium:
     6:
     0.344,0.400,0.180,0.079,0.000: // measure 1
00000000
00000000
00000000
00000000
,  // measure 2
00000000
00000000
00000000
00000000
,  // measure 3
00000000
00000000
00000000
00000000
,  // measure 4
00000000
00000000
00000000
00000000
,  // measure 5
01000000
10000000
00000000
00110000
,  // measure 6
01000000
00010000
00000000
10100000
,  // measure 7
01000000
10000000
00100000
00010000
,  // measure 8
00001000
00000100
00000001
00000000
,  // measure 9
00000010
00000100
00001000
00000011
,  // measure 10
00000100
00000001
00000000
00001010
,  // measure 11
00000100
00000001
00000010
00001000
,  // measure 12
00010000
01000000
10000000
00000000
,  // measure 13
01000000
00010000
10000000
01100000
,  // measure 14
10000000
01000000
00100000
10010000
,  // measure 15
10000000
00100000
00010000
00001000
,  // measure 16
00000100
00000001
00000100
00000000
,  // measure 17
00000100
00000001
00001000
00000110
,  // measure 18
00000001
00000010
00000100
00001001
,  // measure 19
00000001
00000010
00001000
00010000
,  // measure 20
01000000
00000000
00000000
00000000
,  // measure 21
10000000
00000000
00100000
00010000
00001000
00000000
00000100
00000001
,  // measure 22
00000010
00000000
00000010
00001000
00000010
00000000
00001000
00010000
,  // measure 23
01000000
10000000
00010000
10000000
,  // measure 24
00100000
10000000
00010000
00000000
,  // measure 25
10000000
00100000
00010000
00000000
00011000
00000000
00001000
00000100
,  // measure 26
00000001
00000000
00001001
00000000
00000010
00000100
00000010
00001000
,  // measure 27
00010000
00000000
00000000
00000100
00000000
00000000
00000010
00000000
,  // measure 28
00000001
00000100
00000010
00000000
,  // measure 29
00000001
00000010
00001000
00000000
00011000
00000000
00010000
00001000
,  // measure 30
00000100
00000110
00000100
00000010
,  // measure 31
00000100
00000001
00001000
00000010
,  // measure 32
00001000
00000000
00000001
00000000
00001000
00000000
00000001
00001000
,  // measure 33
00000020
00000000
00000100
00000000
00000100
00000000
00010030
00001000
,  // measure 34
00020000
00000000
00001000
00000000
00001000
00000000
01030000
10000000
,  // measure 35
00200000
00000000
00020000
00300000
00002000
00030000
00000200
00003000
,  // measure 36
00000020
00000300
00000000
00000000
00000031
00000000
00001010
00000000
,  // measure 37
00000100
00000001
00000100
00000000
00000001
00000010
00000001
00000000
,  // measure 38
00000010
00001000
00000010
00000000
00001000
00010000
00001000
00000000
,  // measure 39
00010000
01000000
00010000
00000000
01000000
10000000
01000000
00000000
,  // measure 40
10010000
00000000
00000000
00000000
,  // measure 41
01000000
10000000
00100000
00000000
10000000
00100000
00010000
00000000
,  // measure 42
00100000
00010000
00001000
00000000
00010000
00001000
00000100
00000000
,  // measure 43
00001000
00000100
00000001
00000000
00000100
00000001
00000010
00000000
,  // measure 44
00000001
00000010
00001000
00000000
00000110
00000000
00000000
00000000
,  // measure 45
00000100
00000001
00000010
00000000
00000010
00001000
00010000
00000000
,  // measure 46
00010000
01000000
10000000
00000000
10000000
00100000
00010000
00000000
,  // measure 47
00010000
00001000
00000100
00000000
00000100
00000001
00000010
00000000
,  // measure 48
00000010
00001000
00010000
00000000
10010000
00000000
00000000
00000000
;

//---------------dance-double - ----------------
#NOTES:
     dance-double:
     :
     Hard:
     9:
     0.519,0.560,0.090,0.000,0.208: // measure 1
00000000
00000000
00000000
00000000
,  // measure 2
00000000
00000000
00000000
00000000
,  // measure 3
00000000
00000000
00000000
00000000
,  // measure 4
00000000
00000000
00000000
00000000
,  // measure 5
01000000
00100000
00010000
10000000
00100000
00010000
00001000
00100000
,  // measure 6
00001000
00000100
00000001
00000010
00000100
00001000
00000001
00000100
,  // measure 7
00000001
00000010
00001000
00010000
00000010
00010000
01000000
10000000
,  // measure 8
00100000
00000000
01000000
00000000
00010000
00000000
00100000
01000000
00000000
00000000
00000000
00000000
00000000
00000000
00000000
00000000
,  // measure 9
00010000
00100000
00001000
00000100
00000001
00000010
00000100
00001000
,  // measure 10
00000001
00000010
00001000
00010000
01000000
10000000
00100000
10000000
,  // measure 11
00010000
00100000
00001000
00000100
00000001
00000010
00000100
00001000
,  // measure 12
00000010
00000000
00010000
00000000
00001000
00000000
00100000
01000000
00000000
00000000
00000000
00000000
00000000
00000000
00000000
00000000
,  // measure 13
01000000
00100000
00010000
10000000
00100000
00010000
00001000
00100000
,  // measure 14
00001000
00000100
00000001
00000010
00000100
00001000
00000001
00000100
,  // measure 15
00000001
00000010
00001000
00010000
00000010
00010000
01000000
10000000
,  // measure 16
00100000
00000000
01000000
00000000
00010000
00000000
00100000
01000000
00000000
00000000
00000000
00000000
00000000
00000000
00000000
00000000
,  // measure 17
00010000
00100000
00001000
00000100
00000001
00000010
00000100
00001000
,  // measure 18
00000001
00000010
00001000
00010000
01000000
10000000
00100000
10000000
,  // measure 19
00010000
00100000
00001000
00000100
00000001
00000010
00000100
00001000
,  // measure 20
00011000
00000000
00000000
00000000
,  // measure 21
01000000
10000000
10000000
00100000
00100000
00010000
00010000
00001000
,  // measure 22
00001000
00000100
00000100
00000001
00000001
00000010
00000010
00000001
,  // measure 23
00000001
00000010
00000010
00001000
00001000
00010000
00010000
01000000
,  // measure 24
01000000
00000000
10000000
00000000
10000000
00000000
00100000
01000000
00000000
00000000
00000000
00000000
00000000
00000000
00000000
00000000
,  // measure 25
01000000
10000000
10000000
00100000
00100000
00010000
00010000
00001000
,  // measure 26
00001000
00000100
00000100
00000001
00000001
00000010
00000010
00000001
,  // measure 27
00000001
00000010
00000010
00001000
00001000
00010000
00010000
01000000
,  // measure 28
01000000
00000000
10000000
00000000
10000000
00000000
00100000
01000000
00000000
00000000
00000000
00000000
00000000
00000000
00000000
00000000
,  // measure 29
01000000
10000000
01000000
00000000
00100000
00000000
00000000
00000000
00010000
00100000
00010000
00000000
01000000
00000000
00000000
00000000
,  // measure 30
00010000
10000000
00010000
00000000
01000000
00000000
00000000
00000000
00100000
10000000
00010000
00000000
00100000
00000000
00000000
00000000
,  // measure 31
01000000
10000000
00010000
00100000
01000000
10000000
00100000
00010000
,  // measure 32
00001000
00000000
00000100
00000000
00000001
00000000
00000010
00000100
00000000
00000000
00001000
00000000
00000001
00000000
00000010
00000000
,  // measure 33
00000100
00001000
00000100
00000000
00000011
00000000
00000000
00000000
00000001
00000010
00000001
00000000
00001010
00000000
00000000
00000000
,  // measure 34
00001000
00000010
00001000
00000000
00000101
00000000
00000000
00000000
00000100
00000001
00000100
00000000
00001010
00000000
00000000
00000000
,  // measure 35
00000100
00000010
00001000
00000001
00000100
00000001
00000010
00001000
,  // measure 36
00010000
00000000
00000000
01000000
00000000
00000000
10000000
00000000
00000000
00100000
00000000
00000000
11000000
00000000
00100000
00000000
,  // measure 37
10000000
00100000
00000000
00100000
10000000
00000000
00000000
00000000
01000000
00010000
00000000
00010000
01000000
00000000
00000000
00000000
,  // measure 38
00001000
00010000
00000000
00010000
00001000
00000000
00000000
00000000
00001000
00010000
00001000
00000000
00011000
00000000
00000000
00000000
,  // measure 39
00000100
00000001
00000000
00000001
00000100
00000000
00000000
00000000
00001000
00000010
00000000
00000010
00001000
00000000
00000000
00000000
,  // measure 40
00011000
00000000
00000000
00000000
,  // measure 41
00000100
00000001
00000010
00001000
00010000
01000000
10000000
00100000
,  // measure 42
00010000
00001000
00000100
00000001
00000010
00001000
00010000
01000000
,  // measure 43
10000000
00010000
01000000
00100000
00010000
00000010
00000100
00000001
,  // measure 44
00001000
00000000
00000100
00000000
00000010
00000000
00001000
00100000
00000000
00000000
00000000
00000000
00000000
00000000
00000000
00000000
,  // measure 45
10000000
00100000
00000000
01000000
00000000
00000000
00010000
00000000
00100000
00010000
00000000
10000000
01000000
00000000
00000000
00000000
,  // measure 46
10000000
00010000
00100000
01000000
10000000
00100000
00010000
00000100
,  // measure 47
00001000
00000010
00000000
00000100
00000000
00000000
00000001
00000000
00000010
00000001
00000000
00001000
00000100
00000000
00000000
00000000
,  // measure 48
00001000
00000000
00000010
00000000
00000100
00000000
00000001
00000010
00000000
00000000
00000000
00000000
00000000
00000000
00000000
00000000
;
