#TITLE:SKY HIGH;
#SUBTITLE:;
#ARTIST:LUCYFER;
#TITLETRANSLIT:;
#SUBTITLETRANSLIT:;
#ARTISTTRANSLIT:;
#CREDIT:;
#BANNER:SKY HIGH.png;
#BACKGROUND:SKY HIGH-bg.png;
#LYRICSPATH:;
#CDTITLE:./CDTITLES/DANCEMANIA EUROMIX.PNG;
#MUSIC:SKY HIGH.mp3;
#OFFSET:-1.381;
#SAMPLESTART:38.760;
#SAMPLELENGTH:12.000;
#SELECTABLE:YES;
#DISPLAYBPM:160.000;
#BPMS:0.000=159.990;
#STOPS:;
#BGCHANGES:;

//---------------dance-couple - ----------------
#NOTES:
     dance-couple:
     :
     Medium:
     8:
     0.798,0.893,1.000,0.000,0.000:
00000000
00000000
00000000
00000000
,
00000000
00000000
00000000
00000000
,
00000000
00000000
00000000
00000000
,
00100010
10000000
00100010
00010000
00100010
01000000
10000010
00000000
,
01010010
00000000
10100010
00000000
00010010
10000000
01000010
00000000
,
00100010
00001000
00100010
00000001
00100010
00000100
00101000
00000000
,
00100101
00000000
00101010
00000000
00100001
00001000
00100100
00000000
,
11001100
00010001
01010101
10001000
,
00100010
10011001
01000100
00000000
,
00100010
00000100
00001000
00000001
00100100
00000010
00001000
00000000
,
00100001
00000010
00001000
00000000
00100001
00000100
00001000
00000000
,
00100010
00001000
00000100
00000000
00100100
00000000
00000100
00001000
,
00100010
00000000
00000010
00000000
00100010
00001000
00000001
00000000
,
00100010
01000000
10000000
00010000
01000010
00100000
10000000
00000000
,
00010010
00100000
10000000
00000000
00010010
01000000
10000000
00000000
,
00100010
10000000
01000000
00000000
01000010
00000000
01000000
10000000
,
00100010
00000000
00100000
00000000
00100010
10000000
00010000
00000000
,
01000010
00000000
00000100
00000000
01000010
00001000
00000100
00000000
,
01000100
00001000
00000010
00000000
01000100
00000000
00000010
00000000
,
00100100
00000000
01000000
00000000
00100100
10000000
01000000
00000000
,
01000100
10000000
00100000
00000000
01000100
00000000
00100000
00000000
,
01010101
10001000
11001100
00010001
,
01000100
10001000
00100010
00010001
,
00100010
00100010
10011001
01000100
,
01000100
01000100
10011001
00100010
,
01000100
00000000
10010000
00000000
00100100
10000000
00010000
00000000
,
01100100
10000000
00010100
01000000
,
10100100
01000000
00110100
01000000
,
10000100
01000000
00010000
00000000
00010100
01000000
10000000
00000000
,
01000100
00000000
00001001
00000000
01000010
00001000
00000001
00000000
,
01000110
00001000
01000001
00000100
,
01001010
00000100
01000011
00000100
,
01001000
00000100
00000001
00000000
01000001
00000100
00001000
00000000
,
00100010
01000100
01010101
10001000
,
11001100
00010001
11001100
00010001
,
00100100
00000000
10010000
00000000
01000100
00100000
00010000
00000000
,
01100100
00000000
10010000
00000000
00100100
01000000
10000000
00000000
,
00100100
10000000
01000000
00010000
01000100
00100000
00010000
10000000
,
00100100
00010000
00100000
01000000
00010100
00100000
01000000
00000000
,
01000010
00000000
00001001
00000000
01000100
00000010
00000001
00000000
,
01000110
00000000
00001001
00000000
01000010
00000100
00001000
00000000
,
01000010
00001000
00000100
00000001
01000100
00000010
00000001
00001000
,
01000010
00000001
00000010
00000100
01000001
00000010
00000100
00000000
,
10011001
01000100
10011001
01000100
,
00100010
10001000
01000100
00010001
,
01000010
00000100
00000001
00001000
01000100
00000010
00000001
00001000
,
01000100
00000010
00000001
00000100
01000010
00001000
00000100
00000000
,
00100100
01000000
00010000
10000000
01000100
00100000
00010000
10000000
,
01000100
00100000
00010000
01000000
00100100
10000000
01000000
00000000
,
00100010
01000100
00010001
00100010
01000100
10001000
00100010
01000100
,
00010001
10001000
01000100
00100010
00010001
10001000
01000100
00000000
,
01010101
10001000
11001100
00010001
,
00100010
01000100
10011001
00000000
;

//---------------dance-single - ----------------
#NOTES:
     dance-single:
     :
     Hard:
     8:
     0.611,0.514,0.170,0.267,0.267:
0000
0000
0000
0000
,
1000
0100
0010
0001
1000
0010
0100
0001
,
0010
0001
0000
0100
0000
0010
0000
1000
0000
0000
0100
0000
0010
0000
0000
0000
,
0001
0010
0100
1000
0010
1000
0100
0001
,
0100
1000
0000
0010
0000
0100
0000
0001
0000
0000
0010
0000
0100
0000
0000
0000
,
1000
0010
0100
0001
0010
0001
0100
0010
,
1000
0001
0000
0010
0000
0001
0000
0100
0000
0000
0010
0000
1000
0000
0000
0000
,
0200
0320
0032
2003
,
3010
1000
0001
0010
0022
0000
0000
0033
,
0001
0000
0010
0000
1000
0000
0010
0001
,
0000
0100
0010
1000
0100
0001
0100
1000
,
0000
0010
0100
0000
0001
0000
0010
0100
,
0000
1000
0010
0000
0100
0001
0010
0100
,
1100
0000
1000
0000
0010
0000
1000
0001
,
0000
0010
0001
0100
1000
0100
0001
0010
,
0000
0100
1000
0000
0010
0000
0100
0002
,
0000
2003
0000
3010
0200
0000
0300
0000
,
0100
0000
0000
0001
0000
0000
0010
0000
0000
0000
0100
0000
1000
0000
0010
0000
,
1000
0000
0000
0100
0000
0000
0001
0000
0000
0000
0100
0000
1000
0000
0010
0000
,
0100
0000
0000
0001
0000
0000
0100
0000
0000
0000
0010
0000
1000
0000
0100
0000
,
0010
0000
0000
0001
0000
0000
0010
0000
0000
0000
0100
0000
1000
0000
0010
0000
,
0200
0000
0301
0100
2000
0000
3100
0001
,
0200
0000
0010
0300
1000
0000
0001
0000
,
0010
0001
0100
1000
0000
0100
0000
0110
,
0000
1001
0000
0101
0000
0100
0010
1000
,
1100
0000
0110
0000
0001
0100
0010
1000
,
0000
0010
1000
0100
0000
0010
0001
1000
,
0000
0100
1000
0000
0010
0001
0010
1000
,
0000
0100
0010
0001
0000
0100
0010
0000
,
0110
0000
1010
0000
1000
0100
0001
0100
,
0000
1000
0010
0001
0000
0010
0100
1000
,
0000
0100
0010
0000
1000
0100
0010
0001
,
0000
1000
0010
1000
0000
0001
0100
0001
,
1000
0000
0000
0010
0000
1000
0000
0010
0000
1000
0000
0010
0000
0000
0010
0000
,
0100
0000
0000
0010
0000
0100
0000
0010
0000
0000
0100
0000
1000
0000
0000
0000
,
1100
0000
0101
0000
0001
0010
0100
1000
,
0000
0010
1000
0100
0000
0001
0100
1000
,
0000
0010
0100
0000
0001
0100
0010
2000
,
0000
3001
0010
0002
0000
1003
0100
1000
,
1010
0000
0110
0000
0010
0100
0001
0010
,
0000
1000
0010
0001
0000
0100
0010
1000
,
0000
0100
0001
0000
0100
1000
0010
2000
,
0000
3010
0100
0002
0000
0103
0010
0000
,
1000
0000
0000
0100
0000
0010
0000
0001
0000
0010
0000
0100
0000
0000
1000
0000
,
0010
0000
0000
0100
0000
0001
0000
0100
0000
0000
0010
0000
1000
0000
0000
0000
,
0001
0010
1000
0010
0001
0100
1000
0100
,
0001
0100
0000
0010
0000
1000
0000
0100
0000
0000
0001
0000
0100
0000
0000
0000
,
1000
0010
0100
0001
0010
0001
0100
0010
,
1000
0100
0000
0001
0000
0100
0000
1000
0000
0000
0010
0000
0100
0000
0000
0000
,
0001
0010
0100
1000
0010
1000
0100
0001
,
0100
1000
0000
0010
0000
0100
0000
0001
0000
0000
0010
0000
0100
0000
0000
0000
,
2000
3020
0230
0302
,
0013
0100
1000
0001
2002
0000
0000
3003
;

//---------------dance-single - ----------------
#NOTES:
     dance-single:
     :
     Medium:
     6:
     0.472,0.478,0.097,0.219,0.000:
0000
0000
0000
0000
,
1000
0100
0010
0001
,
1000
0010
1000
0000
0001
0010
0001
0000
,
1000
0100
0001
0100
,
1000
0010
1000
0000
0001
0100
0001
0000
,
1000
0100
0010
0001
,
1000
0100
1000
0000
0001
0010
0001
0000
,
0200
0320
2030
3200
,
0310
0001
1000
0000
2002
0000
0000
3003
,
1000
0000
0100
0000
0001
0000
0100
1000
,
0000
0000
0010
0000
0100
0000
0001
0100
,
0000
0010
0000
0000
1000
0000
0100
0010
,
0000
0001
0000
0000
1000
0010
1000
0000
,
0001
0000
0010
0000
0001
0000
0100
0010
,
0000
0000
1000
0000
0100
0010
0100
0010
,
0000
0001
0000
0000
0100
0000
0010
1000
,
0000
0001
0000
1000
0002
0000
0003
0000
,
1000
0000
0010
0000
1000
0010
0000
0100
,
0000
0001
0000
0010
0000
0100
0000
0000
,
1000
0000
0010
0000
1000
0100
0000
0001
,
0000
0100
0000
1000
0000
0010
0000
0100
,
0002
1003
0020
1030
,
0200
1300
0010
1000
,
0001
0010
0001
0010
0000
0001
0000
0100
,
0000
0010
0000
1000
0000
0001
1000
0000
,
1001
0000
1001
0000
1000
0000
0100
0010
,
0000
0001
0000
0100
0000
0010
1000
0010
,
0000
0100
0001
0000
0010
0000
0001
0100
,
0000
0010
1000
0010
0000
1000
0100
0000
,
1100
0000
0110
0000
0010
0000
0001
1000
,
0000
0010
1000
0010
0000
1000
0001
1000
,
0000
0001
1000
0000
0010
0000
1000
0100
,
0000
1000
0010
1000
0000
0010
0100
0010
,
0100
0000
0001
0000
0010
0001
0010
0000
,
0001
0000
0100
0000
0010
1000
0010
0000
,
1010
0000
1010
0000
0010
0000
0100
0001
,
0000
0010
0001
0010
0000
0001
0100
0001
,
0000
0100
0010
0000
1000
0000
0100
0020
,
0000
0030
0001
0200
0000
0300
0010
0000
,
1000
0000
0010
0000
0100
0000
0001
0010
,
0000
0001
0100
0001
0000
1000
0100
1000
,
0000
0010
1000
0000
0100
0000
0010
0002
,
0000
0003
1000
0200
0000
0300
1000
0000
,
0010
0000
1000
0000
0010
0100
0010
0000
,
0100
0000
0001
0000
0010
0001
0010
0000
,
0001
0100
0010
1000
,
0100
1000
0100
0000
1000
0010
1000
0000
,
0010
0100
0001
0010
,
0100
0010
0100
0000
1000
0100
1000
0000
,
0010
0100
0001
1000
,
0010
1000
0010
0000
0100
0001
0100
0000
,
0002
0023
0230
2300
,
3010
0100
0001
1000
1001
0000
0000
0000
;

//---------------dance-single - ----------------
#NOTES:
     dance-single:
     :
     Easy:
     4:
     0.323,0.289,0.061,0.024,0.000:
0000
0000
0000
0000
,
1000
0100
1000
0010
,
0100
0100
0001
0001
,
0010
0001
0100
0010
,
1000
1000
0100
0100
,
0010
0001
1000
0010
,
1000
1000
0001
0001
,
0010
0001
0100
0010
,
1000
0100
0110
0000
,
0010
0001
1000
0010
,
1000
0001
0010
0001
,
0100
0100
0000
0010
,
1000
1000
0000
0100
,
0010
0001
1000
0010
,
1000
0001
0010
0001
,
0100
0010
0000
1000
,
0100
0010
0001
0000
,
1000
0000
0010
0000
,
1000
0001
0010
0001
,
0100
0000
0010
0000
,
1000
0100
0001
0100
,
1000
0000
0010
0000
,
0100
0000
0001
0000
,
1000
0010
1000
0100
,
0010
0001
0000
1000
,
1001
1000
0000
0010
,
1000
0100
0001
0100
,
1000
0010
0000
0100
,
0001
0010
0001
0100
,
0110
0010
0000
1000
,
0001
0010
0001
0100
,
0010
1000
0000
0100
,
0001
0100
1000
0010
,
0100
0000
0001
0010
,
0001
0000
1000
0010
,
1001
0001
0000
0010
,
0001
0100
0010
1000
,
0100
0010
0000
0001
,
0100
0010
1000
0000
,
0100
1000
0000
0010
,
0100
0001
0010
1000
,
0010
0001
0000
0100
,
0010
1000
0100
0000
,
0010
0000
0001
0010
,
0001
0000
0100
0001
,
0100
0010
1000
0010
,
0100
0100
0001
0001
,
1000
0100
1000
0001
,
0010
0010
0001
0001
,
0100
0010
1000
0100
,
0010
0010
0001
0001
,
1000
0010
1000
0001
,
0010
0000
0001
0000
2002
0000
0000
3003
;

//---------------dance-single - ----------------
#NOTES:
     dance-single:
     :
     Beginner:
     2:
     0.125,0.159,0.000,0.000,0.000: // measure 1
0000
0000
0000
0000
,  // measure 2
1000
0000
0000
0000
,  // measure 3
0001
0000
0000
0000
,  // measure 4
0010
0000
0000
0000
,  // measure 5
0001
0000
0000
0000
,  // measure 6
0100
0000
0000
0000
,  // measure 7
0010
0000
0000
0000
,  // measure 8
1000
0000
0000
0000
,  // measure 9
0001
0000
0001
0000
,  // measure 10
0001
0000
0000
0000
,  // measure 11
1000
0000
0000
0000
,  // measure 12
0010
0000
0000
0000
,  // measure 13
0100
0000
0100
0000
,  // measure 14
0100
0000
0000
0000
,  // measure 15
0001
0000
0000
0000
,  // measure 16
0010
0000
0000
0000
,  // measure 17
0100
0000
0100
0000
,  // measure 18
0100
0000
0000
0000
,  // measure 19
1000
0000
0000
0000
,  // measure 20
0010
0000
0000
0000
,  // measure 21
1000
0000
1000
0000
,  // measure 22
1000
0000
0000
0000
,  // measure 23
0001
0000
0000
0000
,  // measure 24
0010
0000
0010
0000
,  // measure 25
0010
0000
0000
0000
,  // measure 26
1000
1000
0000
0000
,  // measure 27
0001
0000
0000
0000
,  // measure 28
0010
0000
0000
0000
,  // measure 29
0001
0000
0001
0000
,  // measure 30
0001
0001
0000
0000
,  // measure 31
0100
0000
0000
0000
,  // measure 32
0010
0000
0000
0000
,  // measure 33
1000
0000
1000
0000
,  // measure 34
1000
0000
0000
0000
,  // measure 35
0100
0000
0000
0000
,  // measure 36
0010
0010
0000
0000
,  // measure 37
0001
0000
0001
0000
,  // measure 38
0001
0000
0000
0000
,  // measure 39
1000
0000
1000
0000
,  // measure 40
1000
1000
0000
0000
,  // measure 41
0010
0000
0010
0000
,  // measure 42
0010
0000
0000
0000
,  // measure 43
0100
0000
0100
0000
,  // measure 44
0100
0000
0000
0000
,  // measure 45
0001
0000
0000
0000
,  // measure 46
0010
0000
0000
0000
,  // measure 47
0001
0000
0001
0000
,  // measure 48
0001
0000
0000
0000
,  // measure 49
1000
0000
1000
0000
,  // measure 50
1000
0000
0000
0000
,  // measure 51
0010
0000
0010
0000
,  // measure 52
0010
0000
0000
0000
,  // measure 53
0100
0100
0100
0000
;
