#TITLE:Let's Get Away;
#SUBTITLE:;
#ARTIST:NAOKI feat. Brenda Burch;
#TITLETRANSLIT:;
#SUBTITLETRANSLIT:;
#ARTISTTRANSLIT:;
#CREDIT:;
#BANNER:Let's Get Away.png;
#BACKGROUND:Let's Get Away-bg.png;
#LYRICSPATH:;
#CDTITLE:./CDTITLES/DanceDanceRevolution 2010.png;
#MUSIC:Let's Get Away.mp3;
#OFFSET:1.529;
#SAMPLESTART:51.220;
#SAMPLELENGTH:15.000;
#SELECTABLE:YES;
#BPMS:0.000=150.000;
#STOPS:;
#BGCHANGES:;

//---------------dance-single - ----------------
#NOTES:
     dance-single:
     :
     Hard:
     8:
     0.519,0.555,0.025,0.236,0.186: // measure 1
0000
0000
0000
0000
,  // measure 2
0000
0000
0000
0000
,  // measure 3
0000
0000
0000
0000
,  // measure 4
0000
0000
0000
0000
,  // measure 5
0000
0000
0000
0000
,  // measure 6
1000
0100
1000
0000
0001
0010
0000
0001
,  // measure 7
0100
0000
0010
0000
1000
0001
0000
0010
,  // measure 8
0001
0100
0010
0000
1000
0100
0000
0010
,  // measure 9
0001
0000
0010
0000
0100
1000
0000
1000
0100
0010
0000
0010
0001
0000
1000
0000
,  // measure 10
0001
0000
0000
1000
0000
0000
0100
0000
1000
0000
0000
0010
0000
0000
0100
0000
,  // measure 11
0001
0000
0000
0010
0000
0000
0100
0000
1000
0000
0000
0001
0000
0000
0010
0000
,  // measure 12
0001
0000
0000
0100
0000
0000
0010
0000
1000
0000
0000
0100
0000
0000
0010
0000
,  // measure 13
0001
0000
0000
1000
0000
0000
0010
0000
1000
0000
0000
0001
0000
0000
0010
0000
,  // measure 14
0001
0000
0000
0100
0000
0000
0010
0000
1000
0000
0000
0100
0000
0000
0001
0000
,  // measure 15
0100
0000
0000
1000
0000
0000
0010
0000
0001
0000
0000
0010
0000
0000
1000
0000
,  // measure 16
0100
0000
0000
0010
0000
0000
0001
0000
0100
0000
0000
0010
0000
0000
1000
0000
,  // measure 17
0001
0000
0000
0010
0000
0000
0001
0000
0100
0000
0000
0010
0000
0000
1000
0000
,  // measure 18
0100
0000
0010
0001
0000
0010
0100
1000
,  // measure 19
0010
0100
0001
1000
,  // measure 20
0010
0000
1000
0100
1000
0000
0010
0000
,  // measure 21
0100
0000
0001
0100
0000
0010
1000
0100
,  // measure 22
0010
0000
0001
0010
0000
0100
1000
0010
,  // measure 23
0100
0001
0010
0001
,  // measure 24
0100
0000
0010
1000
0010
0000
1000
0000
,  // measure 25
0100
0000
0010
0000
0001
0000
0010
0100
0000
0000
1000
0100
1000
0000
0001
0000
,  // measure 26
0010
0000
0001
0010
0000
0100
1000
0010
,  // measure 27
0100
0000
0001
1000
0000
0010
1000
0100
,  // measure 28
0001
0000
0100
1000
0000
0010
0100
0001
,  // measure 29
0010
0001
0100
0010
0000
1000
0001
1000
,  // measure 30
0001
0000
1000
0010
0000
1000
0001
0010
,  // measure 31
0001
0100
0010
1000
,  // measure 32
1100
0000
0011
0000
0001
0100
0010
2000
,  // measure 33
0000
0000
0000
0000
3002
0000
0000
0003
,  // measure 34
1000
0001
0010
0001
0000
0100
0010
1000
,  // measure 35
0000
0001
0100
0010
0000
1000
0010
0100
,  // measure 36
0001
0010
1000
0010
0000
0001
0100
0010
,  // measure 37
2000
3002
0203
0302
,  // measure 38
2003
0000
3100
0000
1000
0010
0100
0001
,  // measure 39
0020
0230
2300
3002
,  // measure 40
0013
0000
0100
1000
0000
0001
0100
0001
,  // measure 41
1000
0000
0001
0000
0010
0001
0010
0000
0100
1000
0100
1000
0100
0000
1000
0000
,  // measure 42
0001
0010
1000
0010
0000
0001
0100
1000
,  // measure 43
0000
0100
0001
0010
0000
0100
1000
0010
,  // measure 44
0100
0001
1000
0100
0000
1000
0010
0100
,  // measure 45
0002
0023
0230
2300
,  // measure 46
3002
0000
0103
0000
0010
1000
0100
1000
,  // measure 47
0020
0230
0302
0023
,  // measure 48
0130
0000
1000
0001
0000
0100
0001
1000
,  // measure 49
0001
0000
0100
0000
0001
0000
1000
0100
0000
1000
0010
1000
0010
0000
0100
0000
,  // measure 50
0002
0000
0000
2003
0000
0000
3200
0000
,  // measure 51
2300
0000
0000
3020
0000
0000
0230
0000
,  // measure 52
0301
0100
0010
1000
0001
0010
0100
1000
,  // measure 53
0001
0000
1000
0000
0000
0000
1001
0000
0000
0000
0001
0100
0001
0000
1000
0000
,  // measure 54
0100
1000
0010
0100
0000
0001
0010
0100
,  // measure 55
1000
0000
0000
0001
0000
0000
0100
0000
0000
0000
0001
0000
0100
0000
0010
0000
,  // measure 56
1000
0100
1000
0010
0000
0100
0001
0010
,  // measure 57
0100
0000
0000
1000
0000
0000
0001
0000
0000
0000
0100
0000
0001
0000
1000
0001
,  // measure 58
1000
0100
0010
0001
0000
0100
0001
1000
,  // measure 59
0010
0000
0000
1000
0000
0000
0100
0000
0000
0000
0010
0000
0001
0000
0010
0000
,  // measure 60
0100
1000
0001
0100
0001
1000
0010
1000
,  // measure 61
0001
0000
0010
0000
0100
0000
1000
0010
0000
0100
0001
0000
0010
0000
0100
1000
,  // measure 62
0100
0010
0001
0000
0100
0001
0000
1000
,  // measure 63
0000
0100
1000
0000
0010
0100
0001
0100
,  // measure 64
0000
0010
1000
0000
0100
0010
0000
0001
,  // measure 65
0000
0100
0001
0000
1000
0100
1000
0010
,  // measure 66
0100
0001
0010
0000
1000
0010
0000
0001
,  // measure 67
0000
0100
1000
0000
0100
0001
0010
0100
,  // measure 68
1000
0000
0010
0000
0100
0000
0001
0000
1000
0000
0001
0010
0001
0000
0100
0000
,  // measure 69
0010
1000
0000
0010
0000
0100
0001
0000
0010
0100
0000
1000
0000
0001
0100
0010
,  // measure 70
2000
0000
0000
0000
,  // measure 71
0000
0000
0000
0000
,  // measure 72
0002
0000
0000
0000
,  // measure 73
0000
0000
0000
0000
,  // measure 74
3003
0000
0000
0000
;

//---------------dance-single - ----------------
#NOTES:
     dance-single:
     :
     Beginner:
     1:
     0.093,0.117,0.017,0.000,0.000:
0000
0000
0000
0000
,
0000
0000
0000
0000
,
0000
0000
0000
0000
,
0000
0000
0000
0000
,
0000
0000
0000
0000
,
1000
0000
0000
0000
,
0000
0000
0000
0000
,
0001
0000
0000
0000
,
0000
0000
0000
0000
,
0010
0000
0000
0000
,
0010
0000
0000
0000
,
0100
0000
0000
0000
,
0100
0000
0000
0000
,
1000
0000
0000
0000
,
1000
0000
0000
0000
,
0001
0000
0000
0000
,
0001
0000
0000
0000
,
1000
0000
0000
0000
,
0100
0000
0000
0000
,
0010
0000
0000
0000
,
0001
0000
0000
0000
,
1000
0000
0000
0000
,
0010
0000
0000
0000
,
1000
0000
0000
0000
,
0001
0000
0000
0000
,
0010
0000
0010
0000
,
0010
0000
0000
0000
,
0100
0000
0100
0000
,
0100
0000
0000
0000
,
0001
0000
0001
0000
,
0001
0000
0000
0000
,
1000
0000
1000
0000
,
1000
0000
0000
0000
,
0010
0000
0000
0000
,
1000
0000
0000
0000
,
0001
0000
0000
0000
,
0010
0000
0010
0000
,
0010
0000
0000
0000
,
0100
0000
0000
0000
,
0010
0000
0010
0000
,
0010
0000
0000
0000
,
1000
0000
0000
0000
,
0100
0000
0000
0000
,
0010
0000
0000
0000
,
0001
0000
0001
0000
,
0001
0000
0000
0000
,
1000
0000
0000
0000
,
0010
0000
0010
0000
,
0010
0000
0000
0000
,
0100
0000
0000
0000
,
0001
0000
0000
0000
,
1000
0000
1000
0000
,
0000
0000
0000
0000
,
0001
0000
0000
0000
,
0010
0000
0010
0000
,
0010
0000
0000
0000
,
0100
0000
0100
0000
,
0100
0000
0000
0000
,
1000
0000
1000
0000
,
1000
0000
0000
0000
,
0001
0000
0000
0000
,
1001
0000
0000
0000
,
0000
0000
0000
0000
,
1000
0000
0000
0000
,
0010
0000
0000
0000
,
1000
0000
0000
0000
,
0001
0000
0000
0000
,
0010
0000
0010
0000
,
0100
0000
0100
0000
,
1001
0000
0000
0000
;

//---------------dance-single - ----------------
#NOTES:
     dance-single:
     :
     Easy:
     3:
     0.204,0.233,0.008,0.008,0.000:
0000
0000
0000
0000
,
0000
0000
0000
0000
,
0000
0000
0000
0000
,
0000
0000
0000
0000
,
0000
0000
0000
0000
,
1000
0000
0100
0000
,
1000
0010
1000
0000
,
0001
0000
0010
0000
,
0001
0100
0001
0000
,
1000
0000
0100
0000
,
0010
0000
0001
0000
,
1000
0000
0010
0000
,
1000
0000
0001
0000
,
0010
0000
0001
0000
,
0100
0000
0010
0000
,
1000
0000
0001
0000
,
0010
0001
0100
0001
,
0010
0000
0100
0000
,
1000
0000
0010
0000
,
1000
0000
1000
0000
,
0001
0000
0001
0000
,
0010
0000
0001
0000
,
0100
0000
0010
0100
,
0010
0000
1000
0000
,
0100
0000
0010
0001
,
0010
0000
0001
0000
,
0100
0000
0010
1000
,
0010
0000
1000
0000
,
0100
1000
0100
0000
,
0010
0000
0001
0010
,
0001
0000
0100
0000
,
0010
1000
0100
0010
,
0002
0000
0000
0003
,
1000
0100
1000
0000
,
0001
0100
0001
0000
,
1000
0010
1000
0000
,
0001
0010
0001
0010
,
0001
0000
0100
0000
,
0010
0000
1000
0000
,
0100
0010
0001
0010
,
0100
0000
1000
0000
,
0010
1000
0010
0000
,
0100
0001
0100
0000
,
0001
0010
0001
0000
,
1000
0100
1000
0100
,
1000
0000
0010
0000
,
0100
0000
0001
0000
,
1000
0100
1000
0001
,
0100
0000
0001
0000
,
0010
0000
0100
0000
,
1000
0000
0010
0000
,
0100
0001
0100
0010
,
1000
0100
0010
0001
,
1000
0000
0001
0000
,
1000
1000
1000
0000
,
0010
0000
0100
0000
,
0010
0010
0010
0000
,
1000
0000
0001
0000
,
0010
0010
0010
0000
,
0001
0100
0010
1000
,
0100
0000
0010
0000
,
0001
0000
1000
0000
,
0100
0000
1000
0010
,
1000
0000
0010
0000
,
0100
0000
0001
0010
,
0001
0000
0100
0000
,
0010
0000
1000
0001
,
1000
0000
0010
0000
,
1000
0100
0010
0001
,
1001
0000
0000
0000
;

//---------------dance-single - ----------------
#NOTES:
     dance-single:
     :
     Medium:
     5:
     0.362,0.360,0.017,0.034,0.000:
0000
0000
0000
0000
,
0000
0000
0000
0000
,
0000
0000
0000
0000
,
0000
0000
0000
0000
,
0000
0000
0000
0000
,
1000
0000
0010
0000
0100
0001
0000
0000
,
0100
0000
0010
0000
1000
0100
0000
0010
,
0001
0000
1000
0000
0010
1000
0000
0000
,
0001
0010
0001
0000
1000
0010
1000
0000
,
0001
0000
0100
0010
0100
0000
0010
0000
,
1000
0000
0100
1000
0100
0000
0010
0000
,
0001
0000
1000
0001
1000
0000
0010
0000
,
1000
0000
0100
1000
0100
0000
0010
0000
,
0001
0000
1000
0001
1000
0000
0010
0000
,
1000
0000
0100
1000
0100
0000
0010
0000
,
0001
0100
0001
0000
1000
0100
1000
0000
,
0001
0000
0010
0000
0100
0000
1000
0010
,
1000
0010
0100
0001
,
1000
0100
0010
0001
,
1000
0000
0010
1000
0010
0000
0100
0000
,
0001
0000
0010
0001
0010
0000
0001
0000
,
0100
0010
1000
0100
,
0001
0100
1000
0010
,
0100
0001
0010
0001
,
0100
0000
0010
1000
0010
0000
1000
0000
,
0100
0000
0010
0000
0001
0000
1000
0001
,
1000
0000
0010
0000
1000
0000
0100
1000
,
0100
0010
0001
0100
,
0010
1000
0010
0000
0100
0000
0001
0000
,
0010
0000
0001
0000
0100
0000
0010
1000
,
0010
1000
0100
0010
,
0001
0000
1000
0000
0001
1000
0001
0000
,
2002
0000
0000
3003
,
1000
0100
1000
0000
0001
0000
0010
0000
,
0001
0100
0010
1000
,
0100
0010
0100
0000
0010
0000
0001
0000
,
1000
0010
1000
0001
,
0010
0000
0001
0000
0100
0001
0100
0000
,
0010
1000
0100
0010
,
0001
0000
1000
0001
0000
1000
0001
0000
,
1000
0010
1000
0000
0010
0000
0110
0000
,
0100
0001
0100
0000
0001
0000
0010
0000
,
0100
1000
0010
1000
,
0100
1000
0100
0000
0010
0000
0001
0000
,
1000
0010
0100
0001
,
0010
0000
0001
0000
0100
0001
0100
0000
,
0010
1000
0100
0010
,
0001
0000
1000
0001
0000
1000
0001
0000
,
1000
0000
0010
0000
0100
0010
0100
0000
,
0001
0000
0000
0010
0000
0000
0100
0000
,
1000
0000
0000
0010
0000
0000
0100
0000
,
0001
0010
0001
0000
1000
0010
1000
0000
,
0001
0000
1000
0000
0100
1000
0100
0000
,
0010
0000
0001
0010
0000
0000
0100
0000
,
1000
0000
0010
1000
0000
0000
0010
0000
,
0100
0000
0001
0010
0000
0000
0001
0000
,
0100
0000
0010
0100
0000
0000
0010
0000
,
1000
0000
0100
0010
0000
0000
0001
0000
,
1000
0000
0010
1000
0000
0000
0001
0000
,
0010
0001
0010
0000
0001
0100
0001
0000
,
0100
0010
0100
0000
0010
1000
0010
0000
,
1000
0000
0100
0000
0010
0001
0000
0010
,
0000
0000
0100
0000
1000
0000
0010
1000
,
0000
0001
0010
0000
0001
0100
0000
0010
,
0000
0000
1000
0000
0100
0000
0010
0001
,
0000
0100
0010
0000
1000
0001
0000
0010
,
0000
0000
0001
0000
0100
0000
0010
1000
,
0000
0100
0010
0000
0001
1000
0000
0010
,
0000
0000
1000
0000
0100
0000
0010
0001
,
0020
0000
0000
0000
,
0200
0000
0000
0000
,
0330
0000
0000
0000
;

//---------------dance-double - ----------------
#NOTES:
     dance-double:
     :
     Hard:
     8:
     0.484,0.493,0.051,0.228,0.106:
00000000
00000000
00000000
00000000
,
00000000
00000000
00000000
00000000
,
00000000
00000000
00000000
00000000
,
00000000
00000000
00000000
00000000
,
00000000
00000000
00000000
00000000
,
10000000
01000000
00100000
00000000
00010000
01000000
00000000
00001000
,
00100000
00000000
00001000
00000000
00010000
00000100
00000000
00000010
,
00000001
00000100
00001000
00000100
00000001
00000010
00001000
00000010
,
00000001
00000000
00000100
00000000
00000010
00000000
00000000
00000010
00001000
00000000
00000000
00001000
00000100
00000000
00010000
00000000
,
00001000
00000000
00000000
00100000
00000000
00000000
00001000
00000000
00010000
00000000
00000000
00001000
00000000
00000000
00010000
00000000
,
00000100
00000000
00000000
00001000
00000000
00000000
00000010
00000000
00000100
00000000
00000000
00000001
00000000
00000000
00000010
00000000
,
00000100
00000000
00000000
00001000
00000000
00000000
00000010
00000000
00001000
00000000
00000000
00000100
00000000
00000000
00010000
00000000
,
00001000
00000000
00000000
00100000
00000000
00000000
00010000
00000000
01000000
00000000
00000000
00100000
00000000
00000000
10000000
00000000
,
01000000
00000000
00000000
00100000
00000000
00000000
00010000
00000000
01000000
00000000
00000000
00010000
00000000
00000000
00100000
00000000
,
00001000
00000000
00000000
00010000
00000000
00000000
00000100
00000000
00000010
00000000
00000000
00000001
00000000
00000000
00000100
00000000
,
00000010
00000000
00000000
00001000
00000000
00000000
00000100
00000000
00010000
00000000
00000000
00001000
00000000
00000000
00010000
00000000
,
00100000
00000000
00000000
01000000
00000000
00000000
00010000
00000000
00100000
00000000
00000000
01000000
00000000
00000000
10000000
00000000
,
00010000
00000000
00100000
01000000
00000000
10000000
00010000
00100000
,
00001000
00010000
00000100
00001000
,
00000010
00000000
00000100
00000001
00000100
00000000
00000010
00000000
,
00001000
00000000
00000100
00010000
00000000
00001000
00100000
01000000
,
10000000
00000000
01000000
00100000
00000000
00010000
01000000
00001000
,
00100000
00000100
00001000
00000010
,
00000100
00000000
00000001
00000100
00000001
00000000
00000100
00000000
,
00000010
00001000
00000100
00010000
00001000
00000000
00010000
00000000
,
00000100
00000000
00010000
00001000
00000000
00100000
00010000
01000000
,
00010000
00000000
01000000
00001000
00000000
00100000
00001000
00010000
,
00000100
00000000
00001000
00000010
00000000
00000100
00000010
00001000
,
00000010
00010000
00000100
00100000
00000000
00010000
01000000
00000000
,
00100000
00000000
10000000
01000000
00000000
00100000
00010000
01000000
,
00001000
00100000
00000100
00001000
,
00001010
00000000
00000101
00000000
00000001
00000010
00000100
00002000
,
00000000
00000000
00003200
00000300
,
00000010
00000001
00000100
00000010
00000000
00001000
00000100
00010000
,
00000000
00001000
00100000
00010000
00000000
10000000
01000000
00100000
,
00010000
01000000
00001000
00010000
00000000
00000100
00001000
00000010
,
00000200
00000302
00000023
00000230
,
00002300
00000000
00003010
00000000
00000100
00000010
00001000
00000100
,
00020000
00032000
00203000
00320000
,
10030000
00000000
01000000
10000000
00000000
00100000
01000000
00010000
,
00100000
00000000
00001000
00000000
00010000
00000000
00000000
00000000
00000100
00001000
00000000
00000000
00001000
00000000
00000000
00000000
,
00000001
00001000
00000010
00010000
00000000
00001000
00100000
00010000
,
00000000
01000000
00100000
10000000
00000000
01000000
00100000
00010000
,
01000000
00001000
00100000
00000100
00000000
00010000
00000100
00001000
,
00000020
00000230
00000302
00002003
,
00003020
00000000
00000130
00000000
00000001
00000100
00001000
00000100
,
00000002
00000023
00000230
00001300
,
00001010
00000000
00000010
00010000
00000000
00000100
00100000
00001000
,
01000000
00000000
00010000
00000000
00100000
00000000
00000000
00000000
01000000
10000000
00000000
00000000
10100000
00000000
00000000
00000000
,
00200000
00000000
00000000
02300000
00000000
00000000
03020000
00000000
,
00230000
00000000
00000000
00302000
00000000
00000000
00023000
00000000
,
00030100
00001000
00000010
00000100
00000001
00000010
00000100
00001000
,
00000100
00010000
00000000
00011000
00000000
00010000
00100000
00000000
,
10000000
01000000
00100000
00010000
00000000
01000000
00001000
00100000
,
00000100
00000000
00000000
00001000
00000000
00000000
00000010
00000000
00000000
00000000
00000100
00000000
00000001
00000000
00000000
00000000
,
00000100
00000010
00001000
00000100
00000000
00001000
00000100
00010000
,
00001000
00000000
00000000
00100000
00000000
00000000
00010000
00000000
00000000
00000000
10000000
00000000
01000000
00000000
00000000
00000000
,
00100000
00010000
01000000
00001000
00000000
00010000
00000100
00001000
,
00000010
00000000
00000000
00000100
00000000
00000000
00000001
00000000
00000000
00000000
00000010
00000000
00000100
00000000
00000000
00000000
,
00001000
00000010
00000100
00000001
00001000
00000100
00010000
00001000
,
00100000
00010000
10000000
01000000
00100000
00010000
01000000
00001000
,
00010000
00000000
00010100
00000000
00000100
00001000
00000000
00000010
,
00000000
00000100
00000001
00000000
00000100
00000001
00000000
00001000
,
00000000
00000100
00010000
00000000
00001000
00100000
00000000
00010000
,
00000000
10000000
01000000
00000000
00100000
01000000
00000000
10000000
,
00100000
01000000
00010000
00000000
00100000
00001000
00000000
00010000
,
00000000
00000100
00001000
00000000
00000010
00000100
00000000
00000001
,
00000010
00000100
00001000
00000010
00001000
00000100
00010000
00001000
,
00100000
00000000
00000000
00010000
00000000
00000000
10000000
00000000
01000000
00000000
00000000
00100000
00000000
00000000
00010000
00000000
,
02000000
00000000
00000000
00000000
,
00000000
00000000
00000000
00000000
,
00200000
00000000
00000000
00000000
,
00000000
00000000
00000000
00000000
,
03300000
00000000
00000000
00000000
;

//---------------dance-double - ----------------
#NOTES:
     dance-double:
     :
     Easy:
     4:
     0.191,0.247,0.000,0.025,0.000:
00000000
00000000
00000000
00000000
,
00000000
00000000
00000000
00000000
,
00000000
00000000
00000000
00000000
,
00000000
00000000
00000000
00000000
,
00000000
00000000
00000000
00000000
,
10000000
00000000
01000000
00000000
,
00100000
00000000
00010000
00000000
,
01000000
00000000
00001000
00000000
,
00100000
00000000
00000100
00000000
,
00001000
00000000
00001000
00000000
,
00000001
00000000
00000001
00000000
,
00000010
00000000
00000010
00000000
,
00000100
00000000
00000100
00000000
,
00001000
00000000
00001000
00000000
,
00000010
00000000
00000010
00000000
,
00010000
00000000
00010000
00000000
,
00001000
00000000
00001000
00000000
,
00100000
00000000
00000000
00000000
,
01000000
00000000
00000000
00000000
,
10000000
00000000
10000000
00000000
,
00010000
00000000
00010000
00000000
,
00100000
00000000
00000000
00000000
,
00001000
00000000
00000000
00000000
,
00010000
00000000
00000000
00000000
,
00000100
00000000
00001000
00000000
,
00000010
00000000
00000100
00000000
,
00000001
00000000
00000010
00000000
,
00000100
00000000
00001000
00000000
,
00000010
00000010
00000010
00000000
,
00001000
00000000
00000100
00000000
,
00010000
00000000
00001000
00000000
,
00100000
00000000
00010000
10000000
,
00020000
00000000
00030000
00000000
,
10000000
01000000
10000000
00000000
,
00010000
01000000
00010000
00000000
,
00100000
00001000
00100000
00000000
,
00010000
00000100
00010000
00000100
,
00010000
00000000
00000100
00000000
,
00001000
00000000
00000010
00000000
,
00000100
00000001
00000100
00000010
,
00001000
00000000
00000100
00000000
,
00010000
00001000
00010000
00000000
,
00001000
00100000
00001000
00000000
,
00010000
00100000
00010000
00000000
,
01000000
00100000
10000000
01000000
,
00100000
00000000
00010000
00000000
,
01000000
00000000
00010000
00000000
,
00100000
00001000
00010000
00000100
,
00001000
00000000
00000010
00000000
,
00000100
00000000
00000001
00000000
,
00000010
00000000
00000100
00000000
,
00001000
00010000
00100000
01000000
,
10000000
00100000
01000000
00010000
,
00100000
00000000
00001000
00000000
,
00010000
00000100
00010000
00000000
,
00000100
00000000
00001000
00000000
,
00000010
00001000
00000010
00000000
,
00000100
00000000
00000001
00000000
,
00000010
00000001
00000010
00000000
,
00000001
00000100
00000010
00001000
,
00000100
00000000
00010000
00000000
,
00001000
00000000
00100000
00000000
,
00010000
00000000
10000000
01000000
,
10000000
00000000
00100000
00000000
,
01000000
00000000
00010000
01000000
,
00010000
00000000
10000000
00000000
,
01000000
00000000
00100000
00000000
,
00010000
01000000
00001000
00100000
,
00000100
00001000
00000010
00000100
,
00000002
00000000
00000000
00000000
,
00000000
00000000
00000000
00000000
,
00002000
00000000
00000000
00000000
,
00000000
00000000
00000000
00000000
,
00003003
00000000
00000000
00000000
;

//---------------dance-double - ----------------
#NOTES:
     dance-double:
     :
     Medium:
     6:
     0.380,0.462,0.017,0.169,0.000:
00000000
00000000
00000000
00000000
,
00000000
00000000
00000000
00000000
,
00000000
00000000
00000000
00000000
,
00000000
00000000
00000000
00000000
,
00000000
00000000
00000000
00000000
,
10000000
00000000
00100000
00000000
01000000
00010000
00000000
00000000
,
00100000
00000000
00001000
00000000
00010000
00000100
00000000
00001000
,
00000010
00000000
00000100
00000000
00000001
00000010
00000000
00000000
,
00000100
00001000
00000010
00000000
00000100
00000001
00001000
00000000
,
00000100
00000000
00010000
00001000
00010000
00000000
00001000
00000000
,
00100000
00000000
00010000
01000000
00010000
00000000
01000000
00000000
,
00100000
00000000
10000000
01000000
10000000
00000000
01000000
00000000
,
00100000
00000000
00010000
00100000
00010000
00000000
00100000
00000000
,
00001000
00000000
00010000
00000100
00010000
00000000
00001000
00000000
,
00000010
00000000
00000100
00000001
00000100
00000000
00000010
00000000
,
00001000
00000000
00000100
00010000
00000100
00000000
00010000
00000000
,
00001000
00000000
00100000
00010000
00100000
00000000
00010000
00000000
,
00100000
00000000
01000000
10000000
00000000
01000000
00100000
00000000
,
00010000
01000000
00001000
00100000
,
00001000
00000000
00010000
00000100
00010000
00000000
00000010
00000000
,
00001000
00000000
00000001
00000100
00000001
00000000
00000010
00000000
,
00000100
00000000
00001000
00000000
00000100
00000000
00010000
00001000
,
00010000
00001000
00100000
00010000
,
01000000
00000000
00100000
10000000
00100000
00000000
10000000
00000000
,
01000000
00100000
01000000
00000000
00100000
00000000
00010000
00000000
,
01000000
00000000
00100000
10000000
00000000
00100000
10000000
00000000
,
01000000
00000000
00100000
00010000
00000000
00100000
00010000
00000000
,
00100000
00000000
00001000
00100000
00000000
00001000
00100000
00000000
,
00000100
00010000
00000100
00010000
00000000
00000010
00001000
00000000
,
00000001
00000000
00000010
00000000
00000100
00001000
00000100
00000000
,
00001000
00000010
00010000
00000100
,
00100000
00000000
00001000
00000000
01000000
00100000
10000000
02000000
,
00000000
00000000
03200000
00300000
,
00010000
00000000
01000000
00100000
00000000
10000000
00000000
01000000
,
00000000
00100000
00010000
00100000
00000000
01000000
10000000
00000000
,
00100000
00000000
01000000
00010000
00000000
00100000
00001000
00000000
,
00020000
00030020
00002030
00003002
,
00000203
00000000
00000301
00000000
00000010
00000001
00000010
00000000
,
00000001
00000100
00000010
00001000
,
00000100
00000000
00010000
00001000
00000000
00100000
00010000
00000000
,
10000000
01000000
10000000
00000000
00100000
00000000
01010000
00000000
,
01000000
00000000
00100000
10000000
00000000
01000000
00000000
00100000
,
00000000
00010000
00000000
01000000
00000000
00001000
00100000
00000000
,
00010000
00000000
01000000
00100000
00000000
10000000
01000000
00000000
,
00200000
00320000
02030000
03002000
,
00203000
00000000
00300100
00000000
00001000
00000100
00001000
00000000
,
00000100
00000010
00000001
00001000
,
00000010
00000000
00000100
00000010
00000000
00001000
00000010
00000000
,
00010000
00001000
00010000
00000000
00100000
00000000
00011000
00000000
,
00100000
00000000
00000000
00010000
00000000
00000000
01000000
00000000
,
00010000
00000000
00000000
00100000
00000000
00000000
00001000
00000000
,
00010000
00001000
00010000
00000000
00000100
00001000
00000100
00000000
,
00001000
00000010
00000000
00000100
00000000
00000001
00000010
00000000
,
00000100
00000000
00001000
00010000
00000000
00000000
00100000
00000000
,
01000000
00000000
10000000
00100000
00000000
00000000
01000000
00000000
,
00010000
00000000
00100000
00001000
00000000
00000000
00010000
00000000
,
00000100
00000000
00001000
00000010
00000000
00000000
00000100
00000000
,
00000001
00000000
00000010
00000100
00000000
00000000
00001000
00000000
,
00010000
00000000
00100000
01000000
00000000
00000000
10000000
00000000
,
00200000
20300000
32000000
03200000
,
00320000
00000000
00000000
00030000
02000000
00000000
00000000
03000000
,
00010000
00000000
00100000
00000000
00001000
00010000
00000000
00000100
,
00000000
00000000
00001000
00000000
00000010
00000000
00000100
00000001
,
00000000
00000000
00000010
00000000
00000100
00001000
00000000
00010000
,
00000000
00000000
00100000
00000000
01000000
00000000
10000000
00100000
,
00000000
00000000
01000000
00000000
00010000
00100000
00000000
00001000
,
00000000
00000000
00010000
00000000
00000100
00000000
00001000
00000100
,
00001000
00000000
00000100
00000000
00000010
00000001
00000000
00000100
,
00000010
00000000
00001000
00000000
00000100
00000000
00010000
00001000
,
00020000
00000000
00000000
00000000
,
00000000
00000000
00000000
00000000
,
00002000
00000000
00000000
00000000
,
00000000
00000000
00000000
00000000
,
00033000
00000000
00000000
00000000
;
