#TITLE:KISS ME ALL NIGHT LONG;
#SUBTITLE:;
#ARTIST:NAOKI J-STYLE feat.MIU;
#TITLETRANSLIT:;
#SUBTITLETRANSLIT:;
#ARTISTTRANSLIT:;
#CREDIT:;
#BANNER:KISS ME ALL NIGHT LONG.png;
#BACKGROUND:KISS ME ALL NIGHT LONG-bg.png;
#LYRICSPATH:;
#CDTITLE:./CDTITLES/DanceManiaX.PNG;
#MUSIC:KISS ME ALL NIGHT LONG.mp3;
#OFFSET:-0.058;
#SAMPLESTART:62.310;
#SAMPLELENGTH:15.000;
#SELECTABLE:YES;
#DISPLAYBPM:155.000;
#BPMS:0.000=155.140,160.000=155.170;
#STOPS:160.000=0.387
;
#BGCHANGES:;

//---------------dance-single - ----------------
#NOTES:
     dance-single:
     :
     Beginner:
     2:
     0.211,0.284,0.095,0.222,0.000:
0000
0000
0000
0000
,
0000
0000
0000
0000
,
0000
0000
0000
0000
,
0000
0000
0000
0000
,
1000
0000
0010
0000
,
0001
0000
0100
0000
,
0001
0000
0010
0000
,
1000
0000
0100
0000
,
2000
0000
3000
0000
,
0000
0001
0001
0000
,
0002
0000
0003
0000
,
0000
1000
1000
0000
,
0200
0000
0310
0000
,
0000
0100
0100
0000
,
0020
0000
0130
0000
,
0000
0010
0010
0000
,
0200
0000
0302
0000
,
1003
0000
0100
0000
,
2000
0000
3010
0000
,
0200
0000
0301
0000
,
0020
0000
0031
0000
,
0100
0000
0010
0000
,
1000
0000
0001
0000
,
1001
1001
1001
0000
,
2000
0000
3020
0000
,
0130
0000
1000
0000
,
0001
0000
0010
0000
,
0100
0000
1000
0000
,
0002
0000
0203
0000
,
0310
0000
0001
0000
,
1000
0000
0100
0000
,
0000
0001
0001
0001
,
1001
0000
0000
0000
,
0110
0000
0000
0000
,
1001
0000
0000
0000
,
0110
0000
0000
0000
,
1000
0000
0100
0000
,
0001
0000
0010
0000
,
0001
0000
0100
0000
,
1000
0000
0010
0000
,
1001
0000
0000
2000
,
0000
3200
0000
0310
,
0000
0100
0000
1000
,
0000
0100
0000
0001
,
0000
0100
0000
0002
,
0000
0203
0000
0310
,
0000
1000
0000
0001
,
0000
0010
0000
1000
,
0000
0010
0000
0000
,
0000
0002
0000
0203
,
0000
0310
0000
1000
,
0000
0100
0000
1000
,
0000
0100
0000
0001
,
0000
0200
0000
2300
,
0000
3010
0000
0001
,
0000
0010
0000
1000
,
0000
0100
0000
0001
,
0001
0001
0000
1000
,
1000
1000
0000
0100
,
0100
0100
0000
0110
;

//---------------dance-single - ----------------
#NOTES:
     dance-single:
     :
     Easy:
     3:
     0.309,0.347,0.053,0.264,0.000:
0000
0000
0000
0000
,
0000
0000
0000
0000
,
0000
0000
0000
0000
,
0000
0000
0000
0000
,
1000
0100
0010
0000
,
1000
0100
0010
0000
,
0001
0010
0100
0000
,
0001
0010
0100
1000
,
0002
0000
2003
0000
,
0100
0010
3002
0000
,
0203
0000
0320
0000
,
0230
1000
0302
0000
,
1003
0100
1000
0100
,
0010
0001
0010
0001
,
1000
0001
1000
0001
,
0100
0010
0100
0010
,
0200
0000
0302
0000
,
1003
0100
1000
0001
,
0200
0000
0301
0000
,
0002
0000
0103
0000
,
0020
0000
0230
0000
,
0301
1000
0100
1000
,
0010
0100
0010
1000
,
1001
1001
1001
0000
,
2000
0000
3002
0000
,
0100
0100
0103
0000
,
0002
0000
2003
0000
,
0010
0010
3010
0000
,
2000
0000
3002
0000
,
0010
0010
0013
0000
,
0002
0000
2003
0000
,
0100
0100
0100
3100
,
1000
0100
1000
0000
,
0001
0100
0001
0000
,
1000
0001
0100
0000
,
0001
1000
0100
0000
,
1000
0100
1000
0100
,
0010
0001
0010
0001
,
0100
0001
0100
0001
,
0010
0100
0010
0100
,
0110
0000
0000
2000
,
0100
3001
0000
0002
,
0100
1003
0000
1000
,
0001
0100
0000
0001
,
1000
0100
0000
0002
,
0100
1003
0000
2000
,
0010
3001
0000
1000
,
0001
0010
0000
0001
,
1000
0010
0010
0100
,
0010
0001
0000
0001
,
0010
0100
0000
1000
,
0100
0010
0000
0010
,
0100
1000
0000
1000
,
0001
0100
0000
0100
,
0001
1000
0000
1000
,
0001
0010
0000
0010
,
0001
1000
0100
1000
,
0010
0100
0010
1000
,
0100
0001
0100
1000
,
0010
0100
0001
0011
;

//---------------dance-single - ----------------
#NOTES:
     dance-single:
     :
     Medium:
     5:
     0.440,0.473,0.190,0.454,0.000:
0000
0000
0000
0000
,
0000
0000
0000
0000
,
0000
0000
0000
0000
,
0000
0000
0000
0000
,
1000
1001
0001
1001
,
1000
0010
0100
0010
,
0001
1001
1000
1001
,
0001
0010
0100
1000
,
0200
0000
0000
1000
1300
0000
0000
0000
,
2000
0000
0000
0001
3001
0000
0000
0000
,
0002
0000
0000
0100
0103
0000
0000
0000
,
0200
0000
0000
0010
0310
0000
0000
0000
,
1001
0100
1000
0010
,
1001
0010
0001
0100
,
1001
0010
1000
0100
,
1001
0100
0001
0010
,
2000
0000
0000
3200
0000
0000
0310
0000
,
0001
0100
0010
0000
0100
0001
1000
0000
,
0200
0000
0000
1000
0300
0000
0000
1000
,
0002
0000
0000
0100
0003
0000
0000
0000
,
2000
0000
0000
3002
0000
0000
0103
0000
,
0010
1000
0100
0000
1000
0001
0100
0000
,
1001
1100
1001
0201
,
0010
0010
0010
0010
0310
0000
0000
0000
,
2000
3001
0002
1003
,
1000
0001
0100
0000
0001
1000
0100
0000
,
2000
0100
0001
3100
,
0002
0010
1000
0013
,
0200
0310
0020
0130
,
0010
1000
0100
0000
1000
0010
0100
0000
,
0020
0100
0001
1030
,
0200
1000
0001
0310
,
1000
0000
0000
0001
0000
0000
1000
0000
,
0000
2000
0100
3001
,
0100
0000
0000
0010
0000
0000
0100
0000
,
0000
0002
0010
1003
,
0010
1001
0100
1001
,
0010
1000
0100
1000
,
0100
1001
0010
1001
,
0010
0001
0100
0010
,
1001
0000
0000
2000
,
3010
0000
0020
0000
1030
0000
1000
0001
,
0100
0000
0001
1000
0010
0000
0200
0000
,
0010
0001
0310
0002
,
0010
1000
0013
0200
,
0301
0000
0002
0000
0103
0000
0100
0010
,
1000
0000
0100
1000
0001
0000
0020
0000
,
0100
1000
0130
2000
,
0100
0000
0001
0000
3100
0000
1000
0100
,
0100
0000
0010
0001
0001
0000
2000
0000
,
3002
0000
0203
0000
0320
0000
0130
0001
,
0001
0000
1000
0100
0100
0000
2000
0000
,
3002
0000
0023
0000
0230
0000
1300
0010
,
0010
0000
0100
0001
0001
0000
0020
0000
,
0032
0203
0320
2030
,
0100
0001
3100
0002
,
0010
0000
1000
0000
0013
0000
1000
0100
,
0001
0000
1000
0000
0001
0000
1000
0010
,
0001
0000
1000
0000
0001
0000
1000
0100
,
0001
1000
0001
1001
;

//---------------dance-single - ----------------
#NOTES:
     dance-single:
     :
     Hard:
     9:
     0.588,0.599,0.201,0.074,0.259: // measure 1
0000
0000
0000
0000
,  // measure 2
0000
0000
0000
0000
,  // measure 3
0000
0000
0000
0000
,  // measure 4
0000
0000
0000
0000
,  // measure 5
1000
0000
0000
0001
0100
0000
0000
0000
0001
0000
0000
1000
0100
0000
0000
0000
,  // measure 6
1000
0000
0000
0010
0100
0000
0000
0000
0010
0000
1000
0000
0001
0000
0000
0000
,  // measure 7
0010
0000
0000
0001
0100
0000
0000
0000
0010
0000
0000
1000
0001
0000
0000
0000
,  // measure 8
0010
0001
0100
0010
0100
0001
1000
0100
,  // measure 9
0001
0000
0000
0100
0000
0000
1000
0000
0000
0001
0000
0000
0100
0000
0000
0000
,  // measure 10
0010
0000
0000
1000
0000
0000
0100
0000
0000
0010
0000
0000
1000
0000
0010
0000
,  // measure 11
0001
0000
0000
0100
0000
0000
0010
0000
0000
1000
0000
0000
0100
0000
0000
0000
,  // measure 12
0001
0000
0000
0100
0000
0000
1000
0000
0000
0001
0000
0000
0010
0000
0001
0000
,  // measure 13
0100
0000
0000
0010
0000
0000
1000
0000
0000
0010
0000
0000
0001
0000
0000
0000
,  // measure 14
0010
0000
0000
1000
0000
0000
0100
0000
0000
1000
0000
0000
0010
0000
0100
0000
,  // measure 15
1000
0000
0000
0100
0000
0000
0001
0000
0000
1000
0000
0000
0100
0000
0000
0000
,  // measure 16
1000
0010
0100
0001
1000
0100
0010
0001
,  // measure 17
2000
3100
0002
0013
,  // measure 18
1000
0100
1000
0010
0100
0001
1000
0100
,  // measure 19
0002
0000
0103
0000
1000
0010
0100
0010
,  // measure 20
0002
0000
0013
0000
1000
0100
0010
0000
,  // measure 21
0002
0013
2000
3100
,  // measure 22
0001
0010
0100
0001
0100
1000
0010
0100
,  // measure 23
1000
0100
0001
0000
1000
0000
0001
0000
,  // measure 24
1000
0100
0001
0100
1000
0000
0000
0000
,  // measure 25
1000
0001
0000
0000
1001
0000
0000
0000
0001
1000
0000
0000
1001
0000
0000
0000
,  // measure 26
1000
0010
0100
0001
1000
0100
0010
0000
,  // measure 27
0001
0100
1000
0100
0001
1000
0100
1000
,  // measure 28
0010
0001
0010
1000
0100
0010
0001
0000
,  // measure 29
0010
0100
0000
0000
0110
0000
0000
0000
0100
0010
0000
0000
0110
0000
0000
0000
,  // measure 30
1000
0001
1000
0100
1000
0001
0010
0000
,  // measure 31
0001
0010
1000
0010
0001
1000
0100
1000
,  // measure 32
0010
1100
0101
1001
,  // measure 33
0100
0000
1000
0000
0001
0000
0000
1000
0000
0000
0001
0000
1000
0000
0100
0000
,  // measure 34
1000
0000
0010
0000
0100
0000
0000
0010
0000
0000
0100
0000
0001
0000
1000
0000
,  // measure 35
0100
0000
1000
0000
0010
0000
0000
0100
0000
0000
0001
0000
1000
0000
0100
0000
,  // measure 36
0001
0000
0100
0000
0010
0000
0000
0001
0000
0000
0100
0000
0010
0000
1000
0000
,  // measure 37
0100
0000
1000
0000
0001
0000
0010
0001
0000
0010
0000
0001
0100
0000
0010
0000
,  // measure 38
1000
0000
0100
0000
1000
0000
0010
0100
0000
0010
0000
1000
0100
0000
0001
0000
,  // measure 39
0100
0000
1000
0000
0010
0000
0100
0010
0000
1000
0000
0100
1000
0000
0001
0000
,  // measure 40
0100
0000
0010
0000
0100
0000
0001
1000
0000
0100
0000
1000
0001
0000
0020
0000
,  // measure 41
0000
0000
0000
0000
1000
0000
0000
0000
0031
0000
0000
0000
1000
0100
0000
0000
,  // measure 42
1001
0000
0000
0000
0001
0100
0000
0000
1001
0000
0000
0000
0100
0000
1000
0000
,  // measure 43
0010
0100
0001
1000
0100
0000
1000
0100
,  // measure 44
0001
0100
0010
1000
0010
0001
0100
0001
,  // measure 45
0100
0000
0010
0000
1000
0000
0100
0000
0001
0000
0000
0000
0100
1000
0000
0000
,  // measure 46
1001
0000
0000
0000
0010
0001
0000
0000
1001
0000
0000
0000
0010
0000
0001
0000
,  // measure 47
0100
0010
1000
0001
0100
0000
0001
0100
,  // measure 48
0010
1000
0100
0001
0100
1000
0010
0100
,  // measure 49
0001
1000
0010
0001
0010
1000
0100
1000
,  // measure 50
1001
0000
0010
0001
1001
0000
0010
0001
,  // measure 51
0100
0010
0100
0001
1000
0100
0001
0100
,  // measure 52
1000
0010
0100
0010
1000
0100
0010
0001
,  // measure 53
0010
1000
0010
0001
0100
0000
0010
0100
,  // measure 54
0101
0000
0010
1000
1100
0000
1000
0001
,  // measure 55
0100
1000
0100
0001
1000
0010
0100
0001
,  // measure 56
1000
0100
0010
1000
0010
0100
0001
0000
,  // measure 57
0101
0000
0000
0000
1100
0000
0000
0000
1001
0000
0000
0000
1000
0000
0000
0100
,  // measure 58
0000
0000
0001
0000
0000
1000
0000
0000
0010
0000
0000
0000
0001
0000
0000
0100
,  // measure 59
0000
0000
1000
0000
0000
0001
0000
0000
0010
0000
0000
0000
1000
0000
0000
0100
,  // measure 60
0000
0000
0001
0000
0000
1000
0000
0000
0010
0000
0000
0000
1001
0000
0000
0000
;
