#TITLE:KIMONO♥PRINCESS;
#SUBTITLE:;
#ARTIST:jun;
#TITLETRANSLIT:KIMONO PRINCESS;
#SUBTITLETRANSLIT:;
#ARTISTTRANSLIT:;
#CREDIT:;
#BANNER:KIMONO PRINCESS.png;
#BACKGROUND:KIMONO PRINCESS-bg.png;
#LYRICSPATH:;
#CDTITLE:./CDTITLES/DanceDanceRevolution X2.png;
#MUSIC:KIMONO PRINCESS.mp3;
#OFFSET:-0.078;
#SAMPLESTART:30.820;
#SAMPLELENGTH:15.000;
#SELECTABLE:YES;
#DISPLAYBPM:95.000:190.000;
#BPMS:0.000=190.476,4.000=189.996,180.000=95.023,187.000=93.750,187.250=95.117,194.500=94.987,202.500=189.994;
#STOPS:187.000=0.160
,187.250=0.160
,194.500=0.320
,202.500=0.313
;
#BGCHANGES:;

//---------------dance-single - ----------------
#NOTES:
     dance-single:
     :
     Hard:
     9:
     0.638,0.761,0.324,0.086,0.052:
0000
0000
0000
0000
,
0000
0000
0000
0000
,
0000
0000
0000
0000
,
0000
0000
0000
0000
,
0000
0000
0000
0000
,
1000
0100
0010
0000
0001
0010
1000
0010
,
0000
0001
0100
0010
1000
0000
1100
0000
,
0100
0010
0001
0100
0000
0010
1000
0000
,
0001
0010
0100
1000
0010
0000
0110
0000
,
0100
0001
0100
0000
0001
0000
0010
0100
,
0000
1000
0000
0010
1000
0000
0100
0000
,
0010
0001
0010
0000
0001
0100
0001
0100
,
0000
0010
0000
1000
0100
0000
0110
0000
,
0010
0001
0100
0000
0010
1000
0100
0001
,
0000
0100
0000
1000
0010
0000
0110
0000
,
0100
0001
0010
0000
0100
1000
0001
0010
,
0000
0001
0000
0100
0010
0000
1010
0000
,
0010
1000
0100
0001
0000
0100
1000
0100
,
0010
0100
0010
0001
0000
0100
0010
1000
,
0100
0000
0010
0001
0000
1000
0100
1000
,
0001
0000
0010
0001
0100
0000
0110
0000
,
0010
1000
0100
0010
0000
0001
0000
0100
,
0001
0010
0100
1000
0000
0010
1000
0001
,
0010
0000
0001
0100
0000
0010
1000
0000
,
1010
0000
0000
0110
0000
0100
0001
0010
,
0100
0000
1100
0000
1010
0000
0010
0100
,
0000
0001
0010
1000
0010
0000
0001
0100
,
0010
0000
1000
0100
0001
0000
0100
0000
,
1100
0000
1000
0010
0000
0100
0001
0010
,
1010
0000
0011
0000
1010
0000
0010
0001
,
0000
0100
0010
1000
0100
0000
0001
0100
,
1000
0000
0010
0100
0001
0000
0010
0000
,
0001
0100
0010
1000
0100
0010
0001
0100
,
0101
0000
0110
0000
0101
0000
0100
0010
,
0000
1000
0100
0001
0100
0000
1000
0010
,
0100
0000
0001
0100
0010
0000
1000
0100
,
0000
0010
0001
1000
0010
0000
0110
0000
,
0000
0010
0100
0001
0010
0100
1000
0010
,
0000
1000
0010
0100
0001
0010
0001
0100
,
0000
0010
1000
0100
0001
0100
1000
0010
,
0000
0100
0001
0010
0100
1000
0010
0100
,
0001
0000
0010
0001
0000
0100
0010
1000
,
0200
0310
0002
0203
,
0310
1000
0100
0000
0010
0001
0100
0000
,
0010
1000
0001
0100
0010
1000
0100
0000
,
0010
0000
0001
0000
0010
0000
0100
1000
0000
0010
0100
0000
0001
0000
0100
0000
,
0010
0000
1000
0000
0100
0000
0001
0100
0000
1000
0010
0000
0100
0100
0100
0000
,
0001
0000
0010
0000
0100
1000
0000
0100
0010
0000
0001
0000
0100
0000
0010
1000
,
0010
1000
0000
0010
0100
0000
0001
0010
0001
0000
0100
0000
0020
0000
0000
0000
,
0000
2030
0000
3002
,
0023
0000
0031
1000
0001
1001
0000
1100
,
0000
1001
0000
0001
0010
0000
0100
1000
,
0010
0100
0000
0001
0010
1000
0000
0010
,
0001
0100
0000
0010
0000
1000
0100
0001
,
0100
1000
0010
0001
0010
1010
0000
0110
,
0000
0101
0000
0001
0010
0000
0100
1000
,
0010
1000
0000
0100
0001
0100
0000
1000
,
0010
1000
0000
0010
0100
0000
0001
0010
,
0100
1000
0000
1010
0000
0010
0100
0010
,
0100
0001
0100
0001
0100
0001
0010
0001
,
0010
0100
0010
0100
0010
0100
1000
0010
,
1000
0100
0010
0001
0010
0100
1000
0010
,
0100
0001
0100
0010
1000
0100
0000
0010
,
0001
0000
0100
0010
1000
0100
0000
0010
,
0000
0011
0000
0101
0000
0110
0010
1000
,
0000
0110
0010
0001
0000
0100
0010
1000
,
0100
0001
0000
0101
0000
0100
1000
0010
,
0000
1000
0100
0010
0001
0000
0100
0010
,
1000
0001
0000
0011
0000
0001
0100
1000
,
0000
0100
0010
0001
0010
0000
1000
0010
,
0100
0001
0000
0011
0000
0010
0100
1000
,
0000
0001
0010
0001
0100
0000
0010
1000
,
0100
0001
0000
0101
0000
0100
1000
0010
,
0100
0000
0001
0010
0000
0100
1000
0010
,
0100
2002
0000
0000
0000
0000
0000
0000
,
0000
0000
0000
0000
,
3003
0000
0000
0000
;

//---------------dance-single - ----------------
#NOTES:
     dance-single:
     :
     Medium:
     7:
     0.463,0.616,0.076,0.019,0.010:
0000
0000
0000
0000
,
0000
0000
0000
0000
,
0000
0000
0000
0000
,
0000
0000
0000
0000
,
0000
0000
0000
0000
,
1000
0000
0100
0000
0010
0000
0001
1000
,
0000
0001
0010
0000
0001
0000
0100
0000
,
0010
0000
1000
0010
0000
0100
0010
0000
,
0100
0001
0010
0100
,
1000
0000
0010
0000
1000
0000
0010
0100
,
0000
0001
0000
0100
0010
0000
1000
0000
,
0100
0000
0010
0000
0001
0000
0010
0100
,
0000
1000
0000
0010
0100
0000
0001
0000
,
0100
0000
0010
0000
1000
0000
0100
0010
,
0000
0001
0000
0010
0100
0000
1000
0000
,
0010
0000
0100
0000
0001
0000
0100
0010
,
0000
1000
0000
0100
0001
0000
0100
0000
,
1000
0000
0010
1000
0000
0000
0010
0000
,
0100
0000
0001
0100
0000
0000
0010
0000
,
1000
0000
0000
0100
0000
0000
0010
0000
,
0001
0000
0100
0001
0100
0000
0010
0000
,
0000
1000
0100
1000
0000
0001
0000
0100
,
0000
0001
0100
0001
0000
0100
0010
0000
,
1000
0000
0000
0100
0000
0010
0001
0000
,
0011
0000
0000
0110
0000
0100
1000
0010
,
0100
0000
0001
0000
0010
0000
0001
0100
,
0000
0010
1000
0000
0100
0000
0010
0000
,
0001
0000
1000
0001
0000
0000
1000
0000
,
0010
0000
0000
0100
0000
0001
0010
0000
,
0100
0000
1000
0000
0010
0000
1000
0100
,
0000
0010
0001
0000
0100
0000
0010
0000
,
1000
0000
0000
0001
0000
0000
1000
0000
,
0010
0000
0100
0010
0100
0000
0110
0000
,
0010
0000
0100
0000
0001
0000
0010
0001
,
0000
0100
0010
0000
1000
0000
0100
0000
,
0001
0000
0100
1000
0000
0000
0010
0100
,
0000
0001
0010
0000
0100
0000
1000
0000
,
0000
0010
1000
0010
0000
0100
0000
0100
,
0000
0001
0010
0001
0000
0100
0000
0100
,
0000
0010
1000
0010
0000
1000
0000
1000
,
0000
0001
0010
0001
0000
1000
0010
0000
,
1000
0000
0000
0001
0000
0000
0010
0001
,
0010
0000
0100
1000
,
0010
1000
0010
0000
0100
0001
0100
0000
,
0010
1000
0100
0110
,
0010
0001
0100
0010
1000
0100
0001
0100
,
1000
0000
0010
0000
0100
0000
0001
0000
0010
0000
0100
0000
1000
1000
1000
0000
,
0010
0100
0001
0010
0001
0100
0010
1000
,
0000
0001
0000
0000
1000
0000
0001
0000
0010
0000
0100
0000
1000
0000
0000
0000
,
0000
0001
0000
0010
,
0001
0000
0100
0010
1000
0010
0000
1000
,
0000
0001
0000
0010
0001
0000
0100
0010
,
0000
1000
0000
0100
0000
0010
0000
0000
,
0001
0000
0000
0100
0000
0010
0000
1000
,
0000
0100
0010
0100
0010
0100
0000
0010
,
0000
0001
0000
0010
0100
0000
1000
0010
,
0000
0100
0000
0001
0000
1000
0000
0010
,
1000
0000
0000
0100
0010
0000
0001
0100
,
0000
0010
0000
1000
0000
0100
1000
0100
,
0000
0010
0001
0010
0000
0001
0100
0001
,
0000
1000
0010
1000
0000
0001
1000
0001
,
0000
1000
0010
1000
0000
0001
0100
0001
,
0000
1000
0100
1000
0000
0001
0000
0000
,
0010
0000
0000
0100
1000
0100
0000
0010
,
0000
0001
0000
1000
0000
0010
1000
0010
,
0000
0100
0001
0100
0000
0010
0000
1000
,
0100
0010
0000
0011
0000
0001
0000
0100
,
0000
0010
0000
1000
0100
0000
1000
0001
,
0000
0010
0000
0001
0000
0100
0000
0010
,
0000
1000
0000
0100
0001
0000
0100
1000
,
0000
0010
0000
0100
0000
0001
0000
0010
,
0000
0001
0000
0100
0010
0000
1000
0100
,
0000
0001
0000
0100
0000
1000
0010
1000
,
0000
0001
0010
0001
0000
1001
0000
1001
,
0000
2002
0000
0000
0000
0000
0000
0000
,
0000
0000
0000
0000
,
3003
0000
0000
0000
;

//---------------dance-single - ----------------
#NOTES:
     dance-single:
     :
     Easy:
     4:
     0.296,0.326,0.029,0.019,0.000:
0000
0000
0000
0000
,
0000
0000
0000
0000
,
0000
0000
0000
0000
,
0000
0000
0000
0000
,
0000
0000
0000
0000
,
1000
0000
0010
0000
,
0001
1000
0001
1000
,
0001
0000
1000
0000
,
0010
0100
0010
0100
,
0010
0000
0100
0000
,
0001
0000
0010
0000
,
0100
0000
1000
0000
,
0010
1000
0001
0000
,
0100
0000
0001
0000
,
0010
0000
0100
0000
,
1000
0000
0010
0000
,
1000
0100
1000
0001
,
0010
0000
0001
0010
,
0001
0000
0100
0001
,
0100
0000
0010
1000
,
0010
0000
1000
0000
,
0100
0010
0100
0000
,
0010
0001
0010
0000
,
0001
0100
0001
0000
,
1001
0000
1001
0000
,
1000
0010
1000
0000
,
0001
0010
0001
0000
,
1000
0100
1000
0001
,
0100
0000
0010
0000
,
1000
0100
0001
0000
,
1000
0010
0001
0000
,
1000
0010
0100
0001
,
0010
0000
0001
0000
,
0100
0001
0100
0000
,
0010
1000
0010
0000
,
1000
0100
0010
0000
,
0001
0100
0010
1000
,
0000
0001
0010
0001
,
0000
1000
0010
1000
,
0000
0001
0100
0001
,
0000
1000
0100
1000
,
0001
0000
0010
0001
,
0100
0000
0010
0000
,
1000
0100
1000
0000
,
0001
0100
0001
1000
,
0001
1000
0010
0100
,
0001
0000
0010
0000
0100
0000
1000
1000
,
0000
0001
0000
0010
0000
0001
0000
0100
,
0000
0010
0000
1000
0000
0100
0001
0000
,
0000
1000
0000
0001
,
1000
0000
0001
0000
1000
0000
0000
0001
,
0000
0001
0000
0000
0000
0010
0000
0100
,
0000
1000
0000
0000
0000
0010
0000
0100
,
0000
0001
0000
1000
0000
0010
0000
0000
,
0000
1000
0000
0000
0000
0001
0000
0010
,
0000
0001
0000
0000
0000
1000
0000
0010
,
0000
1000
0000
0000
0000
0001
0000
0100
,
0000
0001
0000
1000
0000
0100
0000
1000
,
0000
0010
0000
0100
0000
0000
0000
0001
,
0000
0010
0000
0100
0000
0000
0000
1000
,
0000
0010
0000
0100
0000
0000
0000
0001
,
0000
0010
0000
0100
0000
0000
0000
1000
,
0000
0010
0000
1000
0000
0001
0000
0000
,
0000
0010
0000
0000
0000
0001
0000
0000
,
0000
0100
0000
0001
0000
0100
0000
0000
,
0000
0010
0000
0000
0000
1000
0000
0100
,
0000
0010
0000
0001
0000
1000
0000
0010
,
0000
1000
0000
0000
0000
0001
0000
0010
,
0000
0001
0000
0100
0000
0010
0000
0100
,
0000
0010
0000
0000
0000
1000
0000
0100
,
0000
1000
0000
0001
0000
0010
0000
0001
,
0000
0100
0000
0000
0000
0010
0000
1000
,
0000
0100
0000
0010
0000
0001
0000
1000
,
0000
0010
0000
1000
0000
0001
0000
1000
,
0000
2002
0000
0000
0000
0000
0000
0000
,
0000
0000
0000
0000
,
3003
0000
0000
0000
;

//---------------dance-single - ----------------
#NOTES:
     dance-single:
     :
     Beginner:
     2:
     0.161,0.218,0.019,0.010,0.000:
0000
0000
0000
0000
,
0000
0000
0000
0000
,
0000
0000
0000
0000
,
0000
0000
0000
0000
,
0000
0000
0000
0000
,
1000
0000
0000
0000
,
0001
0000
0001
0000
,
0001
0000
0000
0000
,
0010
0000
0010
0000
,
0010
0000
0000
0000
,
0100
0000
0000
0000
,
1000
0000
0000
0000
,
0001
0000
0001
0000
,
0001
0000
0000
0000
,
0010
0000
0000
0000
,
0100
0000
0000
0000
,
1000
0000
1000
0000
,
1000
0000
0000
0000
,
0001
0000
0000
0000
,
0010
0000
0000
0000
,
0001
0000
0001
0000
,
0001
0000
0000
0000
,
0100
0000
0000
0000
,
0010
0000
0000
0000
,
1000
0000
1000
0000
,
1000
0000
0000
0000
,
0001
0000
0000
0000
,
0010
0000
0010
0000
,
0010
0000
0010
0000
,
0010
0000
0000
0000
,
0100
0000
0000
0000
,
1000
0000
0000
0001
,
1000
0000
1000
0000
,
1000
0000
0000
0000
,
0001
0000
0000
0000
,
0010
0000
0010
0000
,
0010
0000
0010
0000
,
0000
0001
0000
0001
,
0000
1000
0000
1000
,
0000
0010
0000
0010
,
0000
0100
0000
0100
,
0100
0000
0100
0000
,
0100
0000
0000
0000
,
0110
0000
0000
0000
,
1001
0000
0000
0000
,
1000
0000
0001
0000
,
0010
0000
0000
0000
0001
0000
0001
1000
,
0000
0000
0000
1000
0000
0000
0000
0010
,
0000
0000
0000
0100
0000
0100
0100
0000
,
0000
0001
0000
0010
,
0000
0100
0100
0000
,
0000
1000
0000
0000
0000
1000
0000
0000
,
0000
0000
0000
0000
0000
0001
0000
0000
,
0000
0001
0000
0000
0000
0001
0000
0000
,
0000
0000
0000
0000
0000
0010
0000
0000
,
0000
0000
0000
0000
0000
0100
0000
0000
,
0000
0000
0000
0000
0000
1000
0000
0000
,
0000
1000
0000
0000
0000
1000
0000
0000
,
0000
1000
0000
0000
0000
0000
0000
0001
,
0000
0001
0000
0001
0000
0000
0000
0001
,
0000
0001
0000
0001
0000
0000
0000
1000
,
0000
1000
0000
1000
0000
0000
0000
1000
,
0000
1000
0000
1000
0000
1000
0000
0000
,
0000
0000
0000
0000
0000
0010
0000
0000
,
0000
0010
0000
0010
0000
0010
0000
0000
,
0000
0000
0000
0000
0000
0100
0000
0000
,
0000
0100
0000
0000
0000
0001
0000
0000
,
0000
0000
0000
0000
0000
1000
0000
0000
,
0000
1000
0000
0000
0000
1000
0000
0000
,
0000
0000
0000
0000
0000
0010
0000
0000
,
0000
0010
0000
0000
0000
0010
0000
0000
,
0000
0000
0000
0000
0000
0100
0000
0000
,
0000
0100
0000
0000
0000
0100
0000
0000
,
0000
0000
0000
0000
0000
0010
0000
0010
,
0000
0020
0000
0000
0000
0000
0000
0000
,
0000
0000
0000
0000
,
0030
0000
0000
0000
;
