#TITLE:GIRIGILI門前雀羅;
#SUBTITLE:(Summer Contest Edit);
#ARTIST:Cheki-ROWS;
#TITLETRANSLIT:GIRIGILI Burning 24H!;
#SUBTITLETRANSLIT:;
#ARTISTTRANSLIT:;
#CREDIT:;
#BANNER:GIRIGILI Burning 24H!.png;
#BACKGROUND:GIRIGILI Burning 24H!-bg.png;
#LYRICSPATH:;
#CDTITLE:;
#MUSIC:GIRIGILI Burning 24H!.mp3;
#OFFSET:-0.510;
#SAMPLESTART:26.441;
#SAMPLELENGTH:15.000;
#SELECTABLE:YES;
#BPMS:0.000=147.970;
#STOPS:151.500=0.203
,159.000=0.203
,163.500=0.203
,164.000=0.203
;
#BGCHANGES:;

//---------------dance-single - ----------------
#NOTES:
     dance-single:
     :
     Beginner:
     1:
     0.106,0.120,0.010,0.000,0.000:
0000
0000
0000
0000
,
0000
0000
0000
0000
,
1000
0000
0000
0000
,
1000
0000
0000
0000
,
0001
0000
0000
0000
,
0001
0000
0000
0000
,
0100
0000
0000
0000
,
0010
0000
0000
0000
,
1000
0000
1000
0000
,
0000
0000
1000
0000
,
0001
0000
0001
0000
,
0000
0000
0001
0000
,
1000
0000
0001
0000
,
0000
0000
0001
0000
,
0100
0000
0010
0000
,
0000
0000
0010
0000
,
1000
0000
0000
0000
,
1000
0000
0000
0000
,
0001
0000
0000
0000
,
1000
0000
0000
0000
,
0010
0000
0000
0000
,
0100
0000
0000
0000
,
0010
0000
0000
0000
,
0010
0000
0000
0000
,
1000
0000
0000
0000
,
0100
0000
0000
0010
,
0010
0000
0000
0000
,
0001
0000
0000
0100
,
0100
0000
0000
0000
,
0010
0000
0000
1000
,
1000
0000
0000
0000
,
0001
0000
0000
0000
,
0000
0000
0000
0000
,
0000
0000
0000
0000
,
1000
0000
0000
0000
,
0001
0000
0000
0000
,
1000
0000
0000
0000
,
0001
0000
0000
0000
,
0000
0000
0000
0000
,
0100
0000
0010
0000
,
0000
0100
0000
0010
,
0000
0000
0100
0000
,
0000
0000
0001
0000
,
0000
0000
1000
0000
,
0000
0000
0010
0000
,
0000
0000
1000
1000
,
0000
0000
0100
0100
,
0000
0000
0010
0010
,
0000
0000
0001
0001
,
0000
0000
1000
0000
,
1000
0000
1000
0000
,
0000
0000
0010
0000
,
0010
0000
0010
0000
,
0000
0000
0100
0000
,
0100
0000
0100
0000
,
0000
0000
0001
0000
,
0001
0000
0001
0000
,
0000
0000
1001
0000
;

//---------------dance-single - ----------------
#NOTES:
     dance-single:
     :
     Easy:
     4:
     0.286,0.330,0.188,0.167,0.000:
0000
0000
0000
0000
,
0000
0000
0000
0000
,
1000
0001
0100
0000
,
0001
1000
0010
0000
,
0100
0001
1000
0000
,
0010
1000
0001
0000
,
0001
0010
0100
1000
,
0010
0100
0001
0000
,
1000
0000
0011
0000
,
0001
1000
1100
0000
,
0001
0010
0001
1000
,
0100
0001
0100
1000
,
0001
0000
1000
0010
,
0100
0001
1010
0000
,
0001
0000
0010
0001
,
1000
0001
0100
0101
,
2000
0000
0000
3000
,
0002
0000
0000
0003
,
0200
0300
0020
0030
,
1000
1100
0001
0011
,
0200
0000
0000
0310
,
0010
0010
0100
0110
,
0002
0000
2000
0000
,
0003
0100
0100
3100
,
1000
0100
0000
0100
,
1000
0010
0000
0010
,
1000
0001
0000
0001
,
0100
1000
0010
0001
,
0100
0001
0000
0001
,
0100
0010
0000
0010
,
0100
1000
0000
1000
,
0100
0001
1000
0010
,
0200
0000
0310
0000
,
2000
0000
3001
0000
,
1001
0000
1000
0100
,
0011
0000
0001
0010
,
1100
0000
0001
1000
,
0110
0000
0010
0200
,
0000
0301
0010
0001
,
1000
0100
2000
0000
,
3000
0100
0100
0200
,
0000
0000
1300
0000
,
0001
0010
0001
0000
,
1001
0000
0010
0000
,
0100
0001
0100
0000
,
0110
0000
0100
0200
,
0000
0000
0301
0002
,
0000
0000
1003
2000
,
0000
0000
3010
0020
,
0000
0000
1030
0100
,
1010
0000
0001
0000
,
0101
0000
0001
1000
,
0011
0000
1000
0000
,
1100
0000
0001
1000
,
0100
0000
0010
0001
,
1000
0000
0001
0100
,
1000
0100
0001
1000
,
0100
0010
1001
0000
;

//---------------dance-single - ----------------
#NOTES:
     dance-single:
     :
     Medium:
     6:
     0.468,0.420,0.303,0.219,0.000:
0000
0000
0000
0000
,
0000
0000
0000
0000
,
1000
0000
0001
0000
0010
0001
0010
0000
,
0001
0000
0000
0100
0001
0100
0001
0000
,
1000
0000
0100
0000
0001
0000
0100
2000
,
0000
3001
1100
0011
,
1000
0000
0100
0000
1000
0100
0010
0002
,
0000
1003
1010
0101
,
1000
1000
0000
0000
0100
0100
0000
0000
,
0010
0001
0010
0001
0000
0010
0001
0000
,
1000
0000
1001
0000
0001
0010
0001
0000
,
0010
0100
0010
0000
0100
1000
0100
0000
,
2000
0001
3010
1010
,
0001
0010
0001
0010
0001
0000
0101
0000
,
1000
0000
0001
0000
0110
0000
0001
1000
,
0000
1000
0002
0000
0100
0000
0103
0000
,
0200
0010
0001
0310
,
0020
0100
1000
0130
,
0100
0001
0000
0000
1000
0010
0000
0000
,
1000
0000
0010
0100
0000
0100
0010
0000
,
1000
0000
0001
0010
0001
0000
1010
0000
,
0001
0011
1001
0110
,
0001
0000
0010
0000
0100
1000
0100
1000
,
0000
0100
1000
0000
0101
0000
1100
0000
,
0001
0000
0010
0000
0001
1000
0001
0000
,
1000
0002
0103
0110
,
0001
0000
1000
0000
0100
0010
0100
0000
,
1000
0001
1000
0000
0002
0000
0013
0000
,
1000
0110
0001
0110
,
1000
0100
0010
0100
2000
0000
3001
0000
,
0001
0001
0001
0000
1000
1000
1000
0000
,
0110
0000
1001
0000
0100
0010
0100
0000
,
0002
0010
0100
1003
,
2000
0100
3010
1001
,
0001
0000
0100
0010
0100
0000
0001
0000
,
1000
0000
0010
0100
0010
0100
0010
0000
,
1000
0000
0001
0010
0001
0000
1000
0000
,
0011
0000
1000
0100
0000
0100
1000
0200
,
1000
1000
1000
2300
,
0001
0000
0001
0000
0001
3002
0000
0000
,
0010
0010
0010
0023
,
0032
1003
1001
1100
,
0001
0010
0100
2000
0000
0000
3001
0000
,
0010
0001
1000
0010
,
0101
0000
1000
0010
0000
1000
0010
0000
,
1000
0011
1000
0200
,
0000
0310
0001
0000
1000
0000
0200
0000
,
0000
0301
0100
0000
1000
0000
0020
0000
,
0000
0031
0010
0000
1000
0000
0110
0000
,
0010
0100
0010
0000
2000
0000
3001
0000
,
0000
0001
1000
0000
0001
0000
0010
0000
,
0001
0000
1000
0100
0010
0000
0100
0000
,
1000
0001
0000
0001
1000
0000
0001
0010
,
0001
0110
1000
0001
,
1000
0100
1000
0000
0001
0010
0000
1000
,
0010
0000
0001
0000
1000
0010
1000
0000
,
0001
0100
0001
0000
1000
0001
1000
0001
,
1000
0110
1001
0000
;

//---------------dance-single - ----------------
#NOTES:
     dance-single:
     :
     Hard:
     7:
     0.529,0.479,0.344,0.198,0.063:
0000
0000
0000
0000
,
0000
0000
0000
0000
,
2000
0000
0000
3001
0010
0100
0000
1000
,
0100
0010
0000
0001
0100
1000
0100
0000
,
0002
0000
0000
1003
0100
0001
0000
0001
,
0100
1000
0000
0001
0010
0100
1000
0000
,
0011
1010
1100
0101
,
1000
0100
0010
0100
0000
1000
1000
0000
,
0022
0033
2020
3030
,
0001
0010
0001
1000
0000
0010
0100
0000
,
0001
0010
0100
0010
0000
0001
0010
0001
,
0000
1000
0100
1000
0001
0000
0110
0000
,
0100
0000
1001
0000
0001
0010
0001
0010
,
0001
0000
1000
0100
0000
0100
1000
0000
,
0002
0000
1003
0000
0001
0010
0001
0000
,
1000
0100
0010
0001
1000
0000
1001
0000
,
0001
0000
0010
0000
0001
0010
1000
0000
,
0010
0100
1000
0000
0001
1000
0001
0000
,
1000
0000
0001
0010
0001
1000
0000
0010
,
0100
0000
0000
0100
0000
0000
0100
0000
0001
0000
1000
0000
0001
0000
0000
0000
,
1000
0000
0110
0000
0001
0010
1000
0000
,
1000
0010
0001
0000
1100
0000
0101
0000
,
1000
0000
0000
1000
0000
0000
1000
0000
0001
0000
0010
0000
0001
0000
0010
0000
,
0000
1001
0110
1001
,
0002
0000
0100
0000
1003
0100
0001
0000
,
1000
0010
0001
0000
2000
0000
3010
0000
,
1000
0000
1001
0000
0001
0010
0100
0000
,
0100
0010
0001
1000
0100
0000
1001
0000
,
1000
0010
0100
0000
0100
0010
1000
0000
,
0001
0010
1000
0010
0001
0000
0110
0000
,
1000
0000
0000
1000
0001
0000
0000
0000
0001
0000
0000
0001
1000
0000
0000
0000
,
0001
0010
0001
0100
0001
1000
0001
0000
,
1000
1000
0200
0000
0301
0001
0200
0000
,
1300
0100
0010
0001
1000
0000
0110
0000
,
0001
0000
0000
1000
0000
0000
0001
0000
0010
0000
0001
0000
0010
0000
0000
0000
,
0001
0000
0000
0001
0000
0000
0001
0000
1000
0000
0000
0000
1100
0000
0000
0000
,
0010
0000
0000
0100
0000
0000
0010
0000
1000
0000
0010
0000
1000
0000
0000
0000
,
0010
0000
0000
0010
0000
0000
0010
0000
1000
0000
0000
0000
0001
0000
0100
0000
,
0001
0011
0100
1100
,
1000
0000
1001
0000
0001
2000
0000
3001
,
0010
0000
1000
0010
0001
0000
1000
0001
,
1000
0001
1001
1100
,
0001
0010
0100
0010
0000
0001
1000
0000
,
0010
1000
0010
0001
0000
0010
0100
0000
,
0001
1000
0100
0010
0000
0100
1000
0000
,
0011
0000
1001
0000
0100
0001
2000
0000
,
0000
0010
3010
0000
0010
1000
0002
0000
,
0000
0100
0103
0000
0100
0001
0020
0000
,
0000
0100
0130
0000
0100
1000
0001
0000
,
1010
0101
2000
3010
,
0010
0100
0001
0000
0200
0000
0301
0000
,
0001
0010
0000
0000
1100
0000
0000
0000
0002
0000
0000
0000
0103
0000
0000
0000
,
0100
0001
1000
0000
0020
0000
1030
0000
,
1000
0010
0000
0000
0101
0000
0000
0000
1001
0000
0000
1000
0100
0000
0000
0000
,
0010
0000
0001
0000
0010
0000
0000
0000
0110
0000
0000
0001
0100
0000
0000
0000
,
0010
1000
0010
0000
1000
0100
0001
0000
,
0001
0100
1000
0000
0001
0010
0100
0010
,
1000
0010
0001
1000
0000
0000
0000
0000
;

//---------------dance-single - ----------------
#NOTES:
     dance-single:
     :
     Challenge:
     9:
     0.723,0.659,0.407,0.282,0.318: // measure 1
0000
0000
0000
0000
,  // measure 2
0000
0000
0000
0000
,  // measure 3
1001
0000
0000
1000
0100
0000
0001
0000
0100
0000
0000
1000
0100
0000
0010
0000
,  // measure 4
0001
0000
0000
1000
0001
0000
0100
0000
0010
0000
0100
0000
0001
0000
0000
0000
,  // measure 5
0110
0000
0000
0001
0100
0000
0100
0000
0001
0000
0000
0001
1000
0000
0100
0000
,  // measure 6
0010
0000
0000
0001
1000
0000
0100
0000
0001
0000
0100
0000
1000
0000
0000
0000
,  // measure 7
0001
0010
1100
0000
1000
0100
0011
0000
,  // measure 8
1000
0000
0100
0000
1000
0000
0010
0000
1000
0000
0001
0000
1000
0100
1000
0100
,  // measure 9
1000
0200
0000
0301
0010
2000
0000
3001
,  // measure 10
0010
1000
0010
0001
0100
1000
0100
0001
,  // measure 11
1000
0000
0100
1000
0100
0000
1000
0000
0001
0000
0010
0000
0001
0000
0100
0000
,  // measure 12
0001
0000
0010
0001
0010
0000
0001
0000
0100
0000
0010
0000
0100
0000
0002
0000
,  // measure 13
0000
0103
1000
0020
0000
0031
1000
0200
,  // measure 14
0000
0310
0001
1000
0100
1000
0001
1000
,  // measure 15
0010
0000
1000
0001
1000
0000
0010
0000
0100
0000
0001
1000
0001
0000
0100
0000
,  // measure 16
0001
0000
1000
0100
1000
0000
0001
0000
1000
0000
0010
0000
0100
0000
0101
0000
,  // measure 17
0000
1000
0100
0010
0100
1000
0001
0100
,  // measure 18
0001
1000
0010
0001
0010
1000
0100
0010
,  // measure 19
0011
0000
0011
0000
0000
0001
1000
0000
1100
0000
1100
0000
0000
1000
0001
0000
,  // measure 20
0010
0000
0001
0000
1000
0000
0100
1000
0000
0001
0010
0000
0001
0000
0010
0000
,  // measure 21
0001
1000
0100
0010
0001
1000
1100
0000
,  // measure 22
1000
0000
0001
0000
0011
0000
0000
0100
0010
0000
0100
0000
0110
0000
0000
0000
,  // measure 23
0001
0000
1000
0100
1000
0000
0010
0000
0100
0001
0100
0000
0001
0000
0200
0000
,  // measure 24
0000
0000
0301
0000
1000
0100
1000
0000
0101
0000
0000
0000
1010
0000
0000
0000
,  // measure 25
2000
0000
3001
0010
0002
0000
0103
0010
,  // measure 26
0100
0000
0001
0000
1000
0000
0010
0000
1000
0100
1000
0000
0001
0000
0000
0000
,  // measure 27
0200
0000
0301
1000
0020
0000
1030
0001
,  // measure 28
1000
0000
0100
0000
1000
0000
0001
0010
0001
0000
1000
0100
1000
0000
0000
0000
,  // measure 29
0001
0010
2000
0000
3010
0001
0200
0000
,  // measure 30
0301
0000
1000
0100
1000
0000
0001
0000
1000
0000
0100
0000
0011
0000
0000
0000
,  // measure 31
1000
0000
0100
1000
0020
0000
0000
0000
0130
0000
0001
0010
0002
0000
0000
0000
,  // measure 32
1003
0000
0100
1000
0100
0000
1000
0000
0011
0000
0011
0000
1001
0000
0000
0000
,  // measure 33
0002
0100
0100
0103
0200
0010
0010
0310
,  // measure 34
0020
1000
1000
1030
2000
3100
1100
0000
,  // measure 35
0001
0000
1000
0100
0000
0100
1000
0000
0001
0000
0010
0000
0001
0000
0100
0000
,  // measure 36
0001
0000
0100
0010
0000
0010
0100
0000
0001
0000
1000
0000
0101
0000
0000
0000
,  // measure 37
1000
0000
0001
0010
0000
1000
0010
0000
0001
0000
0100
0000
0010
0000
0100
0000
,  // measure 38
0001
0000
1000
0100
0000
0001
0100
0000
1000
0000
0001
0000
0100
0000
0010
0000
,  // measure 39
1000
0100
0000
0000
0100
0001
0000
0000
0001
0100
0000
0000
0100
1000
0000
0000
,  // measure 40
1000
0001
0000
0000
0100
0010
0000
0000
1000
0001
2000
0000
0000
0000
3001
0000
,  // measure 41
0000
0000
0010
0000
0001
0000
1000
0000
0001
1000
0100
0000
1000
0000
0002
0000
,  // measure 42
2000
0000
0000
3003
1001
0000
0000
0000
0011
0000
0000
0000
1010
0000
0000
0001
,  // measure 43
1000
0000
0100
0000
0010
0000
0000
0000
1100
0000
0000
0000
0101
0000
0000
0001
,  // measure 44
1000
0001
0010
0000
0001
0010
0100
0010
,  // measure 45
0001
0010
0001
0000
1000
0000
0000
0000
0100
0000
0001
0000
0100
0000
1000
0010
,  // measure 46
1000
0000
0010
0000
0100
0000
0010
0000
1000
0000
0001
0000
0011
0000
0000
1000
,  // measure 47
0100
0000
1000
0000
0101
0000
0000
0000
0001
0000
1000
0000
1100
0000
0000
0001
,  // measure 48
0010
0000
0001
0000
1010
0000
0000
0000
0001
0000
1000
0000
0110
0000
0000
0010
,  // measure 49
0100
0010
1001
0000
0110
0110
1001
0000
,  // measure 50
0110
0000
0000
0000
1001
0000
0000
0000
0200
0000
0000
0000
0001
0000
0000
0310
,  // measure 51
1000
0000
0001
0000
0100
0000
0010
0000
2000
0000
0000
0000
0010
0000
0000
3001
,  // measure 52
0010
0000
0001
0000
0100
0000
0000
0000
0020
0000
0000
0000
1000
0000
0000
0130
,  // measure 53
0001
0000
1000
0000
0010
0000
1000
0000
0002
0000
0000
0000
0010
0000
0000
1003
,  // measure 54
0100
0000
1000
0001
1000
0000
0000
0000
0012
0000
0000
0000
1003
0000
0000
0000
,  // measure 55
2010
0000
0000
0000
3100
0000
0000
0000
1001
0000
0000
1000
0100
0000
0010
0000
,  // measure 56
0100
0000
0001
0000
0100
0000
1000
0000
0001
0000
0010
0000
0100
0000
0000
1000
,  // measure 57
0010
0000
0100
0000
0001
0000
0000
0100
0001
0000
1000
0000
0010
0000
0100
0000
,  // measure 58
0010
0000
0100
0000
0001
1000
0001
1000
0000
0000
0000
0000
0000
0000
0000
0000
;
