#TITLE:GAMBOL;
#SUBTITLE:;
#ARTIST:SLAKE;
#TITLETRANSLIT:;
#SUBTITLETRANSLIT:;
#ARTISTTRANSLIT:;
#CREDIT:;
#BANNER:GAMBOL.png;
#BACKGROUND:GAMBOL-bg.png;
#LYRICSPATH:;
#CDTITLE:./CDTITLES/DANCE DANCE REVOLUTION CLUB VERSION.PNG;
#MUSIC:GAMBOL.mp3;
#OFFSET:-0.080;
#SAMPLESTART:51.830;
#SAMPLELENGTH:9.410;
#SELECTABLE:YES;
#DISPLAYBPM:102.000;
#BPMS:0.000=102.030;
#STOPS:;
#BGCHANGES:-3.500=GAMBOL.avi=1.000=0=0=1,
128.000=GAMBOL-bg.png=1.000=1=0=1,
99999=-nosongbg-=1.000=0=0=0 // don't automatically add -songbackground-
;

//---------------dance-single - ----------------
#NOTES:
     dance-single:
     :
     Hard:
     7:
     0.431,0.485,0.568,0.063,0.177: // measure 1
0000
0000
0000
0000
,  // measure 2
0000
0000
0000
0000
,  // measure 3
1000
0000
0000
1100
0000
0000
0100
0000
0010
0000
0000
0000
0011
0000
0000
0000
,  // measure 4
0001
0100
1100
0000
1000
0100
0101
0000
,  // measure 5
0001
0001
0100
0010
0100
0100
0101
0000
,  // measure 6
0012
0000
1000
0000
0100
0100
0103
0000
,  // measure 7
0001
0000
0000
1001
0000
0000
1000
0000
0100
0000
0001
0000
0101
0000
0000
0000
,  // measure 8
0001
0100
1100
1000
0100
0010
0110
0100
,  // measure 9
1000
0001
0100
0010
1000
0000
1001
0000
,  // measure 10
0001
0010
0100
0010
0011
0000
1001
0000
,  // measure 11
1000
0000
0000
1001
0000
0000
0001
0000
0100
0000
0010
0000
1000
0000
0001
0000
,  // measure 12
1000
0000
0000
0001
0000
0000
0010
0000
0100
0000
0010
0000
0001
1000
0001
0000
,  // measure 13
0100
0000
0000
0010
0000
0000
0100
0000
0010
0000
1000
0000
0100
0000
0001
0000
,  // measure 14
0100
0000
0000
1000
0000
1000
0001
0000
0100
0000
0010
0000
1000
0001
1000
0000
,  // measure 15
0110
0000
0000
1001
0000
0000
1000
0000
0100
0000
0010
0000
0001
0000
0100
0000
,  // measure 16
0001
0000
0000
0011
0000
0000
0010
0000
0100
0000
1000
0000
0010
0000
0100
0000
,  // measure 17
0001
0000
0000
1001
0000
0000
1000
0000
0010
0000
0001
0000
0010
0100
0010
0000
,  // measure 18
1000
0000
0000
1001
0000
0001
0010
0000
0100
0000
0010
0000
0001
1000
0001
0000
,  // measure 19
1000
0000
0000
0100
0000
0000
0110
0000
0010
0000
0000
0001
0000
0000
1001
0000
,  // measure 20
0110
0000
0000
0100
0000
0000
0101
0000
0001
0000
0000
1000
0000
0000
1100
0000
,  // measure 21
0011
0000
0000
0001
0000
0000
1001
0000
1000
0000
0000
0010
0000
0000
0110
0000
,  // measure 22
1001
0000
0000
0000
0110
0000
0000
0000
1000
0000
0001
0000
1000
0001
0000
0000
,  // measure 23
0001
0100
0000
0000
0110
0000
0000
0000
0010
0000
1000
0000
0100
0000
0001
0000
,  // measure 24
0100
0010
0000
0000
0011
0000
0000
0000
0001
0000
1000
0000
1001
0000
0000
0000
,  // measure 25
0001
0100
0000
0000
1010
0000
0000
0000
1000
0000
0100
0000
0010
0001
1000
0000
,  // measure 26
0001
0100
0000
0000
0110
0000
0010
0000
1010
0000
0000
0000
1100
0000
0000
0000
,  // measure 27
1001
0001
0001
0001
0101
0100
0100
0100
,  // measure 28
0110
0010
0010
0010
1010
1000
2002
3003
,  // measure 29
0110
0000
0010
1000
0100
0000
0110
0000
,  // measure 30
0010
0001
1000
0001
0100
0000
0110
0000
,  // measure 31
2002
0000
0000
0000
,  // measure 32
0000
0000
0000
0000
,  // measure 33
3003
0000
0000
0000
;

//---------------dance-single - ----------------
#NOTES:
     dance-single:
     :
     Medium:
     5:
     0.323,0.343,0.215,0.025,0.095: // measure 1
0000
0000
0000
0000
,  // measure 2
0000
0000
0000
0000
,  // measure 3
1000
0000
0000
1001
0000
0000
0000
0000
0001
0000
0000
0000
0101
0000
0000
0000
,  // measure 4
0100
0010
0100
0000
0010
1000
0010
0000
,  // measure 5
1000
0000
0100
0000
0010
0001
0100
0000
,  // measure 6
0010
1000
0100
0000
0010
0100
0010
0000
,  // measure 7
0010
0000
0000
0011
0000
0000
0000
0000
0001
0000
1000
0000
0001
0000
0000
0000
,  // measure 8
1000
0000
0010
0000
0100
0001
0100
0000
,  // measure 9
0001
0010
0001
0000
1000
0010
0100
0000
,  // measure 10
0010
0100
0001
0010
0001
0000
1001
0000
,  // measure 11
1000
0000
0000
1100
0000
0000
1000
0000
0001
0000
0000
0000
0101
0000
0000
0000
,  // measure 12
0100
0000
0000
0110
0000
0000
0010
0000
1000
0000
0000
0000
0001
0000
0010
0000
,  // measure 13
0001
0000
0000
0001
0000
0000
0001
0000
1000
0000
0000
0000
1010
0000
0000
0000
,  // measure 14
0010
0000
0000
0010
0000
0000
0010
0000
0100
0000
0010
0000
0100
0000
0000
0000
,  // measure 15
1001
0000
0000
1001
0000
0000
0000
0000
1000
0000
0100
0000
0010
0000
0100
0000
,  // measure 16
1000
0000
0001
0000
0100
0010
0100
0010
,  // measure 17
1000
0000
0001
0000
1000
0001
0100
0010
,  // measure 18
1000
0000
0000
1000
0000
0000
1000
0000
0001
0000
0000
0000
1001
0000
0000
0000
,  // measure 19
1000
0000
0000
1000
0000
0000
1000
0000
0100
0000
0000
0100
0000
0000
0100
0000
,  // measure 20
0010
0000
0000
0010
0000
0000
0010
0000
0001
0000
0000
0001
0000
0000
0001
0000
,  // measure 21
1000
0000
0000
0001
0000
0000
1000
0000
0010
0000
0000
0100
0000
0000
0010
0000
,  // measure 22
1000
0000
0000
0100
0000
0000
0010
0000
0001
0000
1000
0000
0001
0000
0000
0000
,  // measure 23
1000
0000
1100
0000
0100
0010
0001
0000
,  // measure 24
0001
0000
1001
0000
1000
0010
0100
0001
,  // measure 25
1000
0000
1001
0000
0001
0010
0100
0000
,  // measure 26
0010
0000
0110
0000
0100
0010
0001
1000
,  // measure 27
0001
0001
0001
0001
0001
0001
0001
0001
,  // measure 28
0001
0001
0001
0001
0001
0001
0001
0000
,  // measure 29
1001
0000
1000
0000
0100
0010
0100
0000
,  // measure 30
0010
0000
0001
0000
1000
0001
0100
0000
,  // measure 31
0220
0000
0000
0000
,  // measure 32
0000
0000
0000
0000
,  // measure 33
0330
0000
0000
0000
;

//---------------dance-single - ----------------
#NOTES:
     dance-single:
     :
     Easy:
     1:
     0.157,0.182,0.126,0.126,0.000: // measure 1
0000
0000
0000
0000
,  // measure 2
0000
0000
0000
0000
,  // measure 3
2002
3003
0001
0000
,  // measure 4
0100
0100
0010
0000
,  // measure 5
0100
0000
0001
0000
,  // measure 6
1000
1000
0100
0000
,  // measure 7
0220
0330
0010
0000
,  // measure 8
0001
0001
1000
0000
,  // measure 9
0001
0000
1000
0000
,  // measure 10
0010
0010
0100
0010
,  // measure 11
0220
0330
0010
0000
,  // measure 12
1000
0000
0001
0000
,  // measure 13
0010
0000
0100
0000
,  // measure 14
0010
0010
0001
0001
,  // measure 15
2002
3003
1000
0000
,  // measure 16
0001
0000
0100
0000
,  // measure 17
1000
0000
0100
0000
,  // measure 18
0010
0000
1000
0000
,  // measure 19
1001
0000
0001
0000
,  // measure 20
1001
0000
1000
0000
,  // measure 21
0110
0000
0010
0000
,  // measure 22
0110
0000
0100
0000
,  // measure 23
0010
0000
1000
0000
,  // measure 24
0001
0000
0010
0000
,  // measure 25
0100
0000
0010
0000
,  // measure 26
0001
0000
1000
0000
,  // measure 27
0001
0001
0001
0001
,  // measure 28
1000
1000
1000
0000
,  // measure 29
1001
0000
0001
0000
,  // measure 30
0100
0000
0010
0000
,  // measure 31
0220
0000
0000
0000
,  // measure 32
0000
0000
0000
0000
,  // measure 33
0330
0000
0000
0000
;

//---------------dance-single - ----------------
#NOTES:
     dance-single:
     :
     Beginner:
     1:
     0.087,0.106,0.063,0.000,0.000: // measure 1
0000
0000
0000
0000
,  // measure 2
0000
0000
0000
0000
,  // measure 3
1001
0000
0000
0000
,  // measure 4
1000
0000
0100
0000
,  // measure 5
0010
0000
0100
0000
,  // measure 6
0010
0000
0001
0000
,  // measure 7
1001
0000
0000
0000
,  // measure 8
1000
0000
0010
0000
,  // measure 9
0100
0000
0010
0000
,  // measure 10
1000
0000
0001
0000
,  // measure 11
1001
0000
0000
0000
,  // measure 12
1000
0000
0100
0000
,  // measure 13
1000
0000
0000
0000
,  // measure 14
0001
0000
0100
0000
,  // measure 15
0110
0000
0000
0000
,  // measure 16
0010
0000
0100
0000
,  // measure 17
0001
0000
0000
0000
,  // measure 18
1000
0000
0100
0000
,  // measure 19
1000
0000
0000
0000
,  // measure 20
0100
0000
0000
0000
,  // measure 21
0010
0000
0000
0000
,  // measure 22
0001
0000
1000
0000
,  // measure 23
1001
0000
0000
0000
,  // measure 24
0001
0000
0100
0000
,  // measure 25
0010
0000
0000
0000
,  // measure 26
0100
0000
0010
0000
,  // measure 27
1000
0000
1000
0000
,  // measure 28
0001
0000
0001
0001
,  // measure 29
0001
0000
0000
0000
;
