#TITLE:Freeze;
#SUBTITLE:;
#ARTIST:nc ft. NRG Factory;
#TITLETRANSLIT:;
#SUBTITLETRANSLIT:;
#ARTISTTRANSLIT:;
#CREDIT:;
#BANNER:Freeze.png;
#BACKGROUND:Freeze-bg.png;
#LYRICSPATH:;
#CDTITLE:./CDTITLES/DanceDanceRevolution X2.png;
#MUSIC:Freeze.mp3;
#OFFSET:0.945;
#SAMPLESTART:60.775;
#SAMPLELENGTH:15.000;
#SELECTABLE:YES;
#DISPLAYBPM:140.000;
#BPMS:0.000=140.078,4.000=139.995;
#STOPS:108.000=1.286
;
#BGCHANGES:;

//---------------dance-single - ----------------
#NOTES:
     dance-single:
     :
     Hard:
     8:
     0.412,0.552,0.107,0.232,0.334:
0000
0000
0000
0000
,
0000
0000
0000
0000
,
0000
0000
0000
0000
,
0000
0000
0000
0000
,
0000
0000
0000
0000
,
1000
0001
0010
0001
,
0100
0000
1000
0000
0100
0000
0100
0001
,
0010
0100
0010
0100
,
1000
0000
0000
0000
0010
0000
0000
0000
0100
0000
0000
0010
0000
1000
0000
0000
,
0202
0000
0000
0000
,
0303
0000
0000
0000
,
0001
1000
0200
0010
0000
0010
0000
0310
,
0000
0000
0000
0000
0000
0100
0020
0001
,
0000
0001
0000
0031
0000
0000
0000
0000
,
0000
0000
0000
0000
,
0001
1000
0020
1000
0000
1000
0000
1030
,
0000
0000
0000
0000
0000
0100
0002
1000
,
0000
1000
0000
1003
0000
0000
0000
0000
,
0000
0000
0000
0000
,
0120
1000
0001
1000
,
0001
0000
1000
0000
0001
0000
1030
0001
,
0020
0001
1000
0001
,
1000
0000
0001
0000
1000
0000
0031
1000
,
0200
0001
1000
0001
,
1000
0000
0001
0000
1000
0000
1300
0001
,
0200
1000
0001
1000
,
0002
0000
0000
0000
,
0303
0000
0000
0000
0000
0000
0001
0000
1000
0000
0000
0100
0000
0010
0000
0000
,
0100
0000
0000
1000
0000
0000
0001
0000
1000
0000
0000
0100
0000
0000
1000
0000
,
0002
0000
0000
0000
0103
0000
0001
0000
0010
0000
0000
0100
0000
1000
0000
0000
,
0100
0000
0000
1000
0000
0000
1000
0000
0010
0000
0000
0100
0000
0000
0010
0000
,
2000
0000
0000
0000
3001
0000
1000
0000
0010
0000
0000
0100
0000
0100
0000
0000
,
0010
0000
0000
1000
0000
0000
0001
0000
0010
0000
0000
0001
0000
0000
0100
0000
,
0020
0000
0000
0000
0130
0000
0010
0000
1000
0000
0000
0001
0000
0010
0000
0000
,
1000
0000
0000
0010
0000
0000
0001
0000
0100
0000
0000
1000
0000
0000
0100
0000
,
0110
0000
0000
0000
0001
0000
1000
0000
0100
0000
0000
0010
0000
0001
0000
0000
,
0010
0000
0000
0100
0000
0000
0010
0000
0001
0000
0000
1000
0000
0000
0001
0000
,
0100
0001
0100
0001
0010
0000
0100
0000
1000
0000
0000
0100
0000
1000
0000
0000
,
0010
0000
0000
0100
0000
0000
0010
0000
1000
0000
0000
0001
0000
0000
1000
0000
,
0001
0010
0001
0010
0100
0000
0010
0000
0001
0000
0000
1000
0000
0001
0000
0000
,
0010
0000
0000
0100
0000
0000
0100
0000
1000
0000
0000
0010
0000
0000
0100
0000
,
0010
1000
0010
1000
0100
0000
1000
0000
0001
0000
0000
0010
0000
0010
0000
0000
,
0001
0000
0000
0100
0000
0000
0010
0000
0010
0000
0000
0010
0000
0000
0010
0000
,
0010
1000
0100
0010
0001
0000
1000
0000
0200
0000
0000
0010
0000
0010
0000
0000
,
0310
0000
0000
0011
0000
0000
0001
0000
0200
0000
0000
1000
0000
0000
0301
0000
,
0001
0100
0010
1000
0100
0000
1000
0000
0020
0000
0000
1000
0000
1000
0000
0000
,
0130
0000
0000
0101
0000
0000
0001
0000
2000
0000
0000
0100
0000
0000
0100
0000
,
3100
1000
0010
0100
0001
0000
1000
0000
0200
0000
0000
0010
0000
0010
0000
0000
,
0310
0000
0000
0011
0000
0000
0001
0000
0200
0000
0000
1000
0000
0000
0301
0000
,
0001
0100
0010
0100
0001
1000
0100
0000
0020
0000
0000
0100
0000
0100
0000
0000
,
0031
0000
0000
1100
0000
0000
1000
0000
0002
0000
0000
0100
0000
0000
0103
0000
,
0100
0010
1000
0100
0010
0000
0100
0000
1000
0000
0000
0000
0001
0000
0000
0000
,
0101
0000
0100
0010
1000
0000
0100
0000
,
0110
0000
0010
0001
0100
0000
0010
0000
,
1010
0000
0000
0000
1000
0000
0100
0000
0001
0000
0000
0000
0001
0000
0000
0100
,
0000
1000
0000
0000
0202
0000
0000
0000
0000
0000
0000
0000
0000
0000
0000
0000
,
0000
0000
0000
0000
,
0303
0000
0000
0000
;

//---------------dance-single - ----------------
#NOTES:
     dance-single:
     :
     Challenge:
     10:
     0.740,0.872,0.058,0.581,1.000:
0000
0000
0000
0000
,
0000
0000
0000
0000
,
0000
0000
0000
0000
,
0000
0000
0000
0000
,
0000
0000
0000
0000
,
1000
0001
0000
0010
0100
0000
0010
0001
0000
0001
0100
0010
1000
0001
0010
0100
,
0000
1000
0100
0010
0100
1000
0001
0100
0000
0100
0010
1000
0001
0010
0100
0010
,
0001
0010
0000
0100
1000
0000
1000
0010
0000
0100
0001
0000
0001
1000
0100
0010
,
0001
0010
0001
0100
0010
1000
0001
0010
0100
0010
0001
1000
0100
1000
0010
0100
,
0001
0000
0000
0000
,
MMMM
0000
0000
000M
00M0
0000
0M00
0000
MMMM
0000
0000
0000
MMMM
0000
0000
M00M
0000
0000
MMMM
0000
0000
0000
0000
0000
MMMM
0000
0000
M00M
0000
0000
MMMM
0000
0000
0000
0000
0000
0MM0
0000
0000
0MM0
0000
0000
0MM0
0000
0000
0MM0
0000
0000
,
0002
0023
2030
3020
0000
0000
0000
0000
,
0000
0000
0000
0000
0000
0230
2300
3020
,
0000
0000
0000
0000
,
0000
0000
0000
0000
,
0230
0302
0023
2030
0000
0000
0000
0000
,
0000
0000
0000
0000
0000
3020
0032
0203
,
0000
0000
0000
0000
,
0000
0000
0000
0000
0000
0000
0000
0000
0000
0000
0000
0000
0000
0000
0000
0000
0000
0000
0000
0000
0000
0000
0000
0000
0000
0000
0000
0000
0000
0000
0000
0000
0000
0000
0000
0000
0000
0000
0000
0000
0000
0000
0000
0000
0000
0000
0000
0000
0000
0000
0000
0000
0000
0000
0000
0000
0000
0000
0000
0000
0000
0000
0000
0000
0000
0000
0000
0000
0000
0000
0000
0000
0000
0000
0000
0000
0000
0000
0000
0000
0000
0000
0000
0000
0000
0000
0000
0000
0000
0000
0000
0000
0000
0000
0000
0000
0000
0000
0000
0000
0000
0000
0000
0000
0000
0000
0000
0000
0000
0000
0000
0000
0000
0000
0000
0000
0000
0000
0000
0000
0000
0000
0000
0000
0000
0000
0000
0000
0000
0000
0000
0000
0000
0000
0000
0000
0000
0000
0000
0000
0000
0000
0000
0000
0000
0300
0000
0000
0000
0000
0000
0000
0000
0000
0000
0000
0000
0000
0000
0000
0000
0000
0000
0000
0000
0000
0000
0000
0000
0000
0000
0000
0000
0000
0000
0000
0000
0000
0000
0000
0000
0000
0000
0000
0000
0000
0000
0000
0000
0000
0000
0000
,
1001
0000
0001
0000
0001
0000
0000
0100
0000
0001
0000
0000
0010
0000
0000
0100
,
0000
0000
1000
0000
0100
0000
0000
1000
0000
0000
0010
0000
0100
0001
0100
0000
,
0000
0000
0001
0000
0100
0000
0000
0010
0000
0010
0000
0000
1000
0000
0000
0001
,
0000
0000
0010
0000
0100
0000
0000
1000
0000
0000
0100
0000
1000
0010
0100
0001
,
0000
0000
0001
0000
0100
0000
0000
0010
0000
1000
0000
0000
0010
0000
0000
0100
,
0000
0000
0001
0000
0010
0000
0000
0100
0000
0000
1000
0000
0100
1000
0100
1000
,
0100
0000
0010
0000
0001
0000
0000
1000
0000
0001
0000
0000
1000
0000
0000
0001
,
0100
0001
0100
0001
0010
0100
0010
0001
1000
0100
1000
0010
0100
1000
0100
0010
,
1000
0000
0000
0000
0001
0010
0100
0000
0011
0000
0001
0010
0000
0010
0000
0010
,
0100
0000
0100
1000
0000
0000
1000
0000
0001
0000
0000
0100
0000
0000
1000
0000
,
0100
0001
0010
0000
0100
1000
0010
0000
0110
0000
0100
0001
0000
1000
0000
0001
,
0100
0000
0010
1000
0000
1000
0001
0000
0010
0000
0100
1000
0000
1000
0001
0000
,
0001
0010
0100
1000
0010
0100
0001
0000
0011
0000
0001
0010
0000
0100
0000
1000
,
0010
0000
0100
0001
0000
0001
1000
0000
0100
0000
1000
0010
0000
0100
0000
0001
,
0010
0100
1000
0001
0100
0010
1000
0000
1001
0000
0001
0010
0000
0100
0001
0000
,
0010
0000
0100
0010
0000
1000
0001
0000
0010
0000
0100
1000
0000
1000
0001
1000
,
0001
0100
0001
0010
0100
1000
0020
0000
0130
0000
0020
2000
3030
0200
0002
0303
,
0020
0000
0230
0020
0330
0020
0001
0030
0001
0200
0000
0310
0000
0100
0000
0000
,
0001
0010
0100
1000
0001
0100
0020
0000
1030
0000
1000
0200
0000
0320
0001
0030
,
0002
0000
0013
0200
0000
2300
0010
0000
3010
0000
0200
0002
0300
2000
0003
3001
,
0010
0100
0010
0100
0001
1000
0200
0000
1300
0000
1000
0200
0000
0320
0001
0030
,
0001
0000
0001
0020
0000
0032
0010
0003
0100
0020
0000
2030
0000
0000
0001
3000
,
1000
0100
1000
0010
0100
0020
1030
0001
0020
0000
1030
0020
0000
0032
0010
0003
,
0020
0100
0030
0100
1000
0100
0010
0100
1000
0001
0100
0010
1000
0100
0010
0100
,
1000
0001
0010
0000
0010
0001
0100
0010
1000
0001
0010
0100
0000
0100
0000
0100
,
1000
0000
1000
0100
0000
1000
0100
0010
0001
1000
0001
0010
0000
0001
0010
0000
,
0020
0230
2300
3020
0130
0010
1000
0001
0010
0100
0010
0001
0000
1000
0000
0100
,
1000
0000
0100
0010
0000
0010
0001
0100
0010
1000
0001
0010
0001
0100
0010
0000
,
0200
0302
0023
0230
1300
0001
0100
0010
1000
0001
0010
0100
0000
1000
0000
0010
,
0100
00M0
0100
0010
0100
1000
0001
0010
0100
0010
0001
1000
000M
1000
0001
1000
,
0002
0203
0320
2030
3100
1000
0010
0000
0100
0001
0010
0000
0010
0100
1000
0000
,
1000
0001
0010
0000
0001
0010
0001
0100
0010
1000
0001
0010
0001
0100
0001
1000
,
0100
1000
0001
0010
0001
0100
0000
0010
1000
0000
1000
0100
0000
0010
0001
0000
,
0001
0100
0010
1000
0001
0010
0000
0100
1000
0000
1000
0010
0000
0100
0001
0000
,
0001
1000
0100
0010
0100
1000
0000
0010
0100
0000
0001
0010
0000
0001
0100
0000
,
0100
0010
1000
0001
0010
0100
0000
0100
1000
0000
1000
0001
0010
0100
0020
0001
,
0000
1000
0000
0030
0220
0000
0000
0000
0000
0000
0000
0000
0000
0000
0000
0000
,
0000
0330
0000
0000
;

//---------------dance-single - ----------------
#NOTES:
     dance-single:
     :
     Medium:
     6:
     0.356,0.461,0.107,0.426,0.242:
0000
0000
0000
0000
,
0000
0000
0000
0000
,
0000
0000
0000
0000
,
0000
0000
0000
0000
,
0000
0000
0000
0000
,
0001
1000
0100
0000
,
0100
0000
1000
0000
,
0010
0010
0010
0000
,
0100
0000
0001
0000
,
2002
0000
0000
0000
,
3003
0000
0000
0000
,
1000
0001
0100
0001
0000
0000
0000
0000
,
0000
0000
0000
0000
0000
0001
1000
0100
,
0000
0000
0000
0000
,
0000
0000
0000
0000
,
0100
0010
0001
0010
0000
0000
0000
0000
,
0000
0000
0000
0000
0000
0010
0100
1000
,
0000
0000
0000
0000
,
0000
0000
0000
0000
,
1002
0000
2003
0000
,
3200
0000
2300
0000
,
3020
0000
0230
0000
,
0302
0000
2003
0000
,
3002
0000
0023
0000
,
0230
0000
2300
0000
,
3020
0000
0230
0000
,
0302
0000
2003
0000
,
3000
0000
0000
0000
0000
0000
0010
0000
1000
0000
0000
0001
0000
1000
0000
0000
,
0100
0000
0000
0010
0000
0000
0100
0000
1000
0000
0000
0010
0000
0000
0100
0000
,
0002
0000
0000
0000
0013
0000
0001
0000
0100
0000
0000
0010
0000
0010
0000
0000
,
0100
0000
0000
0010
0000
0000
1000
0000
0001
0000
0000
0010
0000
0000
0100
0000
,
0200
0000
0000
0000
0310
0000
0001
0000
1000
0000
0000
0001
0000
0100
0000
0000
,
0010
0000
0000
0010
0000
0000
0100
0000
0010
0000
0000
1000
0000
0000
0001
0000
,
2000
0000
0000
0000
3100
0000
1000
0000
0100
0000
0000
0010
0000
0010
0000
0000
,
0100
0000
0000
1000
0000
0000
0001
0000
0100
0000
0000
0001
0000
0000
0010
0000
,
0200
0000
0000
0000
1300
0000
0010
0000
0100
0000
0000
0101
0000
0101
0000
0000
,
0001
0000
0000
1000
0000
0000
0010
0000
0100
0000
0000
0001
0000
0000
1000
0000
,
0200
0000
0000
0000
0310
0000
0100
0000
1000
0000
0000
1100
0000
1001
0000
0000
,
0001
0000
0000
0100
0000
0000
0010
0000
0010
0000
0000
0100
0000
0000
0001
0000
,
0020
0000
0000
0000
0130
0000
0010
0000
0001
0000
0000
1001
0000
1001
0000
0000
,
0001
0000
0000
0100
0000
0000
0010
0000
0010
0000
0000
0100
0000
0000
0001
0000
,
2000
0000
0000
0000
3100
0000
1000
0000
0010
0000
0000
0110
0000
0101
0000
0000
,
0001
0000
0000
1000
0000
0000
0100
0000
1000
0000
0000
0010
0000
0000
0100
0000
,
0020
0000
0000
0000
1030
0000
0001
0000
0020
0000
0000
0100
0000
0130
0000
0000
,
0020
0000
0000
0031
0000
0000
0001
0000
2000
0000
0000
3100
0000
0000
0100
0000
,
0020
0000
0000
0000
0031
0000
0100
0000
0020
0000
0000
1000
0000
1030
0000
0000
,
2000
0000
0000
3100
0000
0000
1000
0000
0020
0000
0000
0130
0000
0000
0010
0000
,
2000
0000
0000
0000
3001
0000
0010
0000
0200
0000
0000
0010
0000
0310
0000
0000
,
0020
0000
0000
0031
0000
0000
0100
0000
0020
0000
0000
1030
0000
0000
1000
0000
,
0200
0000
0000
0000
0310
0000
0001
0000
0020
0000
0000
0100
0000
0130
0000
0000
,
0020
0000
0000
0031
0000
0000
0001
0000
2000
0000
0000
3100
0000
0000
1000
0000
,
0020
0130
0010
1000
,
0001
0010
0100
0010
,
0001
1000
1000
0001
,
0001
0000
0000
0000
0100
0000
0000
0000
0010
0000
0000
0000
1000
0000
0000
0010
,
0000
0010
0000
0000
0202
0000
0000
0000
0000
0000
0000
0000
0000
0000
0000
0000
,
0303
0000
0000
0000
;

//---------------dance-single - ----------------
#NOTES:
     dance-single:
     :
     Easy:
     3:
     0.195,0.244,0.087,0.194,0.000: // measure 1
0000
0000
0000
0000
,  // measure 2
0000
0000
0000
0000
,  // measure 3
0000
0000
0000
0000
,  // measure 4
0000
0000
0000
0000
,  // measure 5
0000
0000
0000
0000
,  // measure 6
0010
1000
0100
0000
,  // measure 7
0000
0000
0000
0000
,  // measure 8
1000
0001
0010
0000
,  // measure 9
0000
0000
0000
0000
,  // measure 10
0101
0000
0000
0000
,  // measure 11
0000
0000
0000
0000
,  // measure 12
0020
0000
0000
0030
0000
0000
0000
0000
,  // measure 13
0000
0000
0000
0000
0000
2000
0000
3000
,  // measure 14
0000
0000
0000
0000
,  // measure 15
0000
0000
0000
0000
,  // measure 16
0002
0000
0000
0003
0000
0000
0000
0000
,  // measure 17
0000
0000
0000
0000
0000
0200
0000
0300
,  // measure 18
0000
0000
0000
0000
,  // measure 19
0000
0000
0000
0000
,  // measure 20
1001
0000
0000
0000
,  // measure 21
0010
0000
0000
0000
,  // measure 22
1000
0000
0000
0000
,  // measure 23
0001
0000
0000
0000
,  // measure 24
0010
0000
0000
0000
,  // measure 25
0100
0000
0000
0000
,  // measure 26
1000
0000
0000
0000
,  // measure 27
2002
0000
0000
0000
,  // measure 28
3003
0010
1000
0200
,  // measure 29
0300
1000
0010
0100
,  // measure 30
0001
0010
0100
2000
,  // measure 31
3000
0100
1000
0010
,  // measure 32
0200
0310
1000
0002
,  // measure 33
0003
1000
0001
0100
,  // measure 34
0002
0013
0100
2000
,  // measure 35
3000
0100
1000
0010
,  // measure 36
0100
0100
0010
2000
,  // measure 37
3000
0001
1000
0100
,  // measure 38
0011
0001
0100
0020
,  // measure 39
0030
0100
0010
1000
,  // measure 40
0101
0001
0100
0020
,  // measure 41
0030
0100
0010
1000
,  // measure 42
1001
1000
0001
0200
,  // measure 43
0300
0001
1000
0100
,  // measure 44
0010
0001
0010
0200
,  // measure 45
0000
1300
0010
0100
,  // measure 46
0101
0001
0100
0020
,  // measure 47
0000
0130
0010
1000
,  // measure 48
0001
1001
1000
0001
,  // measure 49
0100
0010
0100
0010
,  // measure 50
1000
0001
0010
1000
,  // measure 51
0010
0001
0001
1000
,  // measure 52
1000
0001
0001
0001
,  // measure 53
0000
0000
0000
0000
,  // measure 54
0000
1000
1000
1000
,  // measure 55
0000
0000
0000
0000
,  // measure 56
0000
0220
0000
0000
,  // measure 57
0330
0000
0000
0000
;

//---------------dance-single - ----------------
#NOTES:
     dance-single:
     :
     Beginner:
     1:
     0.066,0.134,0.019,0.000,0.000: // measure 1
0000
0000
0000
0000
,  // measure 2
0000
0000
0000
0000
,  // measure 3
0000
0000
0000
0000
,  // measure 4
0000
0000
0000
0000
,  // measure 5
0000
0000
0000
0000
,  // measure 6
0001
0000
0000
0000
,  // measure 7
0000
0000
0000
0000
,  // measure 8
1000
0000
0000
0000
,  // measure 9
0000
0000
0000
0000
,  // measure 10
0110
0000
0000
0000
,  // measure 11
0000
0000
0000
0000
,  // measure 12
0001
0000
0000
0000
,  // measure 13
0000
0000
0000
1000
,  // measure 14
0000
0000
0000
0000
,  // measure 15
0000
0000
0000
0000
,  // measure 16
0100
0000
0000
0000
,  // measure 17
0000
0000
0000
1000
,  // measure 18
0000
0000
0000
0000
,  // measure 19
0000
0000
0000
0000
,  // measure 20
0001
0000
0000
0000
,  // measure 21
0000
0000
0000
0000
,  // measure 22
0010
0000
0000
0000
,  // measure 23
0000
0000
0000
0000
,  // measure 24
0100
0000
0000
0000
,  // measure 25
0000
0000
0000
0000
,  // measure 26
1000
0000
0000
0000
,  // measure 27
0001
0000
0000
0000
,  // measure 28
0000
0100
0000
0000
,  // measure 29
0000
0010
0000
0000
,  // measure 30
0000
1000
0000
0000
,  // measure 31
0000
0001
0000
0000
,  // measure 32
1000
1000
0000
0000
,  // measure 33
0000
0010
0000
0000
,  // measure 34
0000
0100
0000
0000
,  // measure 35
0000
0001
0000
0000
,  // measure 36
0000
1000
0000
0000
,  // measure 37
0000
0001
0000
0000
,  // measure 38
0000
0100
0000
0000
,  // measure 39
0000
0010
0000
0000
,  // measure 40
0000
1000
0000
0000
,  // measure 41
0000
0100
0000
0000
,  // measure 42
0000
0010
0000
0000
,  // measure 43
0000
0001
0000
0000
,  // measure 44
0000
1000
0000
0000
,  // measure 45
0000
0010
0000
0000
,  // measure 46
0100
0100
0000
0000
,  // measure 47
0000
0010
0000
0000
,  // measure 48
1000
0001
0000
0000
,  // measure 49
0000
0010
0000
0000
,  // measure 50
0000
0100
0000
0100
,  // measure 51
0000
1000
0010
0100
,  // measure 52
0001
0001
0000
0000
,  // measure 53
0000
0000
0000
0000
,  // measure 54
0000
1000
0000
0000
,  // measure 55
0000
0000
0000
0000
,  // measure 56
0000
0110
0000
0000
;
