#TITLE:DYNAMITE RAVE(Down Bird SOTA Mix);
#SUBTITLE:(Summer Contest Edit);
#ARTIST:NAOKI;
#TITLETRANSLIT:;
#SUBTITLETRANSLIT:;
#ARTISTTRANSLIT:;
#CREDIT:;
#BANNER:DYNAMITE RAVE(Down Bird SOTA Mix) Banner.png;
#BACKGROUND:DYNAMITE RAVE(Down Bird SOTA Mix) Nackground.png;
#LYRICSPATH:;
#CDTITLE:;
#MUSIC:DYNAMITE RAVE(Down Bird SOTA Mix).mp3;
#OFFSET:-0.065;
#SAMPLESTART:40.030;
#SAMPLELENGTH:15.000;
#SELECTABLE:YES;
#DISPLAYBPM:150.000;
#BPMS:0.000=150.000;
#STOPS:;
#BGCHANGES:;

//---------------dance-single - ----------------
#NOTES:
     dance-single:
     :
     Beginner:
     1:
     0.110,0.153,0.000,0.000,0.000: // measure 1
0000
0000
0000
0000
,  // measure 2
0000
0000
0000
0000
,  // measure 3
0000
0000
0000
0000
,  // measure 4
0000
0000
0000
0000
,  // measure 5
1000
0000
0000
0001
,  // measure 6
0001
0000
0000
0100
,  // measure 7
0100
0000
0000
0000
,  // measure 8
0010
0000
0000
0000
,  // measure 9
1000
0000
0000
0000
,  // measure 10
0001
0000
0000
0000
,  // measure 11
0001
0000
0000
0000
,  // measure 12
0100
0000
0000
0000
,  // measure 13
0100
0000
0000
0000
,  // measure 14
0010
0000
0000
0000
,  // measure 15
0010
0000
0000
0000
,  // measure 16
1000
0000
0000
0000
,  // measure 17
1000
0000
0000
0000
,  // measure 18
0001
0001
0000
0000
,  // measure 19
0000
0000
0000
0000
,  // measure 20
1000
1000
0000
0000
,  // measure 21
0000
0000
0000
0000
,  // measure 22
0010
0010
0000
0000
,  // measure 23
0000
0000
0000
0000
,  // measure 24
0100
0100
0000
0000
,  // measure 25
0100
0000
0010
0000
,  // measure 26
1000
0000
0001
0000
,  // measure 27
1000
0000
0000
0000
,  // measure 28
0010
0000
0100
0000
,  // measure 29
0010
0000
0000
0000
,  // measure 30
1000
0000
0000
0000
,  // measure 31
0001
0000
0001
0000
,  // measure 32
0100
0000
0100
0000
,  // measure 33
0010
0000
0000
0000
,  // measure 34
1000
0000
0000
0000
,  // measure 35
0001
0000
0000
0000
,  // measure 36
0001
0000
0000
0000
,  // measure 37
1000
0000
0000
0000
,  // measure 38
0010
0000
0000
0000
,  // measure 39
0100
0000
0000
0000
,  // measure 40
0100
0000
0000
0000
,  // measure 41
0010
0000
0010
0000
,  // measure 42
1000
0000
0100
0000
,  // measure 43
1000
0000
0000
0000
,  // measure 44
0001
0000
0010
0000
,  // measure 45
0001
0000
0000
0000
,  // measure 46
1000
0000
0010
0000
,  // measure 47
0100
0000
0000
0000
,  // measure 48
0001
0000
0100
0000
,  // measure 49
0010
0000
0000
0000
,  // measure 50
1000
0000
0000
0000
,  // measure 51
1000
0000
1000
0000
,  // measure 52
0001
0000
0000
0000
,  // measure 53
0001
0000
0001
0000
,  // measure 54
0100
0000
0100
0000
,  // measure 55
0010
0000
0010
0000
,  // measure 56
0100
0000
0000
0000
,  // measure 57
0010
0000
0000
0000
,  // measure 58
1000
0000
0001
0000
,  // measure 59
0100
0000
0000
0000
;

//---------------dance-single - ----------------
#NOTES:
     dance-single:
     :
     Easy:
     4:
     0.318,0.398,0.243,0.200,0.000: // measure 1
0000
0000
0000
0000
,  // measure 2
0000
0000
0000
0000
,  // measure 3
0000
0000
0000
0000
,  // measure 4
0000
0000
0000
0000
,  // measure 5
1000
0100
1000
0001
,  // measure 6
0010
0001
2000
3000
,  // measure 7
0001
0010
0100
0010
,  // measure 8
0001
1000
0020
0030
,  // measure 9
0200
0000
0000
0300
,  // measure 10
0002
0003
1000
1010
,  // measure 11
0001
1000
0100
1100
,  // measure 12
2000
3000
0001
0011
,  // measure 13
0100
0001
0100
0101
,  // measure 14
1000
0100
0001
0100
,  // measure 15
1000
0010
0001
0010
,  // measure 16
1000
0001
0100
0110
,  // measure 17
0010
0110
1000
1001
,  // measure 18
0001
0000
0011
0000
,  // measure 19
0100
1000
1100
0000
,  // measure 20
0001
0010
0100
0010
,  // measure 21
0001
1000
0110
0000
,  // measure 22
1000
0001
1010
0000
,  // measure 23
0001
1000
0101
0000
,  // measure 24
0100
0100
0001
0100
,  // measure 25
0010
0010
1000
0010
,  // measure 26
1100
0000
0011
0000
,  // measure 27
1000
0100
0010
0001
,  // measure 28
2000
3100
0020
0031
,  // measure 29
1000
0100
0001
0010
,  // measure 30
2000
0000
3010
0000
,  // measure 31
0002
0000
0103
0000
,  // measure 32
0001
0100
0010
1000
,  // measure 33
0100
0010
0001
0000
,  // measure 34
0001
2000
0000
3000
,  // measure 35
0010
0020
0000
0030
,  // measure 36
0100
0200
0000
0300
,  // measure 37
1001
0000
1001
0000
,  // measure 38
0100
0020
0000
0030
,  // measure 39
1000
2000
0000
3000
,  // measure 40
0001
0002
0000
0003
,  // measure 41
1000
0001
0100
0010
,  // measure 42
1000
0000
1000
0000
,  // measure 43
0100
1000
0100
0000
,  // measure 44
0010
0001
0010
0000
,  // measure 45
0002
0003
0110
0000
,  // measure 46
0001
0100
1000
0000
,  // measure 47
0001
0010
1000
0000
,  // measure 48
0001
1000
0001
0000
,  // measure 49
0100
0010
0100
0001
,  // measure 50
2000
3100
1000
0000
,  // measure 51
0001
0000
0011
0000
,  // measure 52
0100
0001
0100
0010
,  // measure 53
1000
0001
1000
0100
,  // measure 54
1000
0100
0020
0030
,  // measure 55
0100
0010
0002
0003
,  // measure 56
1000
0100
1000
0011
,  // measure 57
0100
0001
1000
1010
,  // measure 58
0001
1000
0101
1100
,  // measure 59
1001
0000
0000
0000
;

//---------------dance-single - ----------------
#NOTES:
     dance-single:
     :
     Medium:
     6:
     0.462,0.459,0.369,0.432,0.011: // measure 1
0000
0000
0000
0000
,  // measure 2
0000
0000
0000
0000
,  // measure 3
0000
0000
0000
0000
,  // measure 4
0000
0000
0000
0000
,  // measure 5
1001
0000
1100
0000
0001
0010
0001
0010
,  // measure 6
0000
0010
0001
0000
0011
0000
0110
0000
,  // measure 7
2000
3100
1000
0101
,  // measure 8
0001
0000
1010
0000
0001
1000
0001
1000
,  // measure 9
0002
0000
2000
3003
,  // measure 10
1000
0100
0010
0000
0011
0000
0101
0000
,  // measure 11
2000
0000
3001
0000
0001
0010
0001
0000
,  // measure 12
1000
0100
1000
0000
0001
0000
0011
0000
,  // measure 13
2000
3100
1100
1000
,  // measure 14
0001
0100
0001
0000
1000
0010
1000
0000
,  // measure 15
0002
0013
0200
1300
,  // measure 16
1000
0101
0100
0110
,  // measure 17
0001
0000
1001
0000
0100
0010
0100
0000
,  // measure 18
0001
0000
2000
0000
0000
3010
1000
0000
,  // measure 19
0010
0000
0200
0000
0000
0301
0100
0000
,  // measure 20
0100
0000
0002
0000
0000
1003
0100
1000
,  // measure 21
0000
0001
0010
0001
1000
0000
1001
0000
,  // measure 22
0100
0000
0002
0000
0000
1003
0001
0000
,  // measure 23
1000
0000
0020
0000
0000
0130
0010
0000
,  // measure 24
2000
3100
0200
0310
,  // measure 25
0020
0031
1001
0110
,  // measure 26
1001
1000
0010
1010
,  // measure 27
0001
0000
1000
0100
0000
0100
1000
0000
,  // measure 28
0002
1003
2000
3100
,  // measure 29
0100
1001
0010
1001
,  // measure 30
0002
0103
0202
0303
,  // measure 31
1000
0000
0010
0100
0000
0100
0001
0000
,  // measure 32
1000
0100
0001
0100
,  // measure 33
2000
0001
0002
3003
,  // measure 34
0002
0010
0100
1003
,  // measure 35
2000
0100
0010
3001
,  // measure 36
0200
0001
0320
1000
,  // measure 37
0130
0000
1001
0110
,  // measure 38
0200
0001
0010
0301
,  // measure 39
0020
1000
0100
1030
,  // measure 40
2000
0010
3002
0100
,  // measure 41
1003
1000
0001
0001
,  // measure 42
0110
0000
0110
0000
1000
0100
1000
0000
,  // measure 43
0001
0010
0001
0000
2000
0000
3010
0000
,  // measure 44
0020
0130
0200
0301
,  // measure 45
1000
0110
0001
0110
,  // measure 46
1000
0000
0100
0000
0010
0001
0000
0001
,  // measure 47
0010
0000
0001
0000
1000
0100
0000
0100
,  // measure 48
2000
3002
0203
0320
,  // measure 49
1030
0001
0110
1001
,  // measure 50
0000
0002
2000
0003
,  // measure 51
3001
0000
1000
0001
0000
0100
0010
0100
,  // measure 52
0000
0001
0100
1000
,  // measure 53
0010
0001
1100
0101
,  // measure 54
1000
0000
0100
0000
1000
0100
0000
0010
,  // measure 55
0001
0000
1000
0100
0000
0010
0000
0100
,  // measure 56
2000
3001
0002
1003
,  // measure 57
0110
1001
0110
0000
,  // measure 58
1000
0000
0000
0100
0000
0000
0001
0000
0000
0100
0000
0000
1000
0000
0000
0000
,  // measure 59
1001
0000
0000
0000
;

//---------------dance-single - ----------------
#NOTES:
     dance-single:
     :
     Hard:
     7:
     0.539,0.520,0.475,0.411,0.032: // measure 1
0000
0000
0000
0000
,  // measure 2
0000
0000
0000
0000
,  // measure 3
0000
0000
0000
0000
,  // measure 4
0000
0000
0000
0000
,  // measure 5
1000
0200
0000
0310
0001
0000
1100
0000
,  // measure 6
0001
0010
0000
0100
1000
0001
0010
0001
,  // measure 7
1000
0020
0000
0130
0001
0000
1010
0000
,  // measure 8
0001
0010
0001
0000
1000
0100
1000
0000
,  // measure 9
0220
0000
0000
0330
,  // measure 10
1000
0100
0010
0000
1000
0100
0010
0000
,  // measure 11
1000
0100
0001
0100
1000
0000
0011
0000
,  // measure 12
1000
0100
0010
0100
1000
0001
0100
0001
,  // measure 13
2000
3001
0011
1010
,  // measure 14
0002
0000
0103
0000
0100
0001
0100
0000
,  // measure 15
0100
0001
0100
1000
0100
0010
0000
0010
,  // measure 16
1000
0100
0001
0000
1000
0100
0001
0000
,  // measure 17
2000
3100
0011
1010
,  // measure 18
0002
0000
0000
0000
1003
0000
0000
0000
0001
0000
0000
0010
0000
0000
0002
0000
,  // measure 19
0000
1003
0100
0000
1010
0000
1100
0000
,  // measure 20
0010
0000
0000
0000
1000
0000
0000
0000
0010
0000
0000
0100
0000
0000
0001
0000
,  // measure 21
0200
0310
0101
1010
,  // measure 22
0002
0000
0000
0000
1003
0000
0000
0000
2000
0000
0000
0100
0000
0000
3100
0000
,  // measure 23
0000
1100
0011
0110
,  // measure 24
0020
0000
0000
0000
1030
0000
0000
0000
1000
0000
0000
0110
0000
0000
0001
0000
,  // measure 25
2000
3001
0110
1001
,  // measure 26
0002
0013
0020
0130
,  // measure 27
0100
1000
0100
1000
0000
0001
0010
0002
,  // measure 28
0000
1003
0100
1000
0010
1000
0001
1000
,  // measure 29
0100
0010
0001
1000
0001
0000
1001
0000
,  // measure 30
1010
0011
2000
3001
,  // measure 31
0020
0000
0130
0001
0000
0001
0100
0010
,  // measure 32
1000
0001
0200
0000
0301
1000
0020
0000
,  // measure 33
1030
0100
0022
0033
,  // measure 34
2000
0000
0001
0000
0010
0000
3100
1000
,  // measure 35
0200
0000
1000
0000
0001
0000
0310
0001
,  // measure 36
0020
0001
0100
0031
,  // measure 37
0011
0000
1100
0000
,  // measure 38
0012
0000
1003
0000
0000
2010
0000
3001
,  // measure 39
0000
0000
0001
0010
1000
0000
0010
0000
,  // measure 40
0001
0101
1010
1000
,  // measure 41
0110
0001
1001
1001
,  // measure 42
1010
0000
0101
0000
1000
0100
0020
0000
,  // measure 43
0130
1000
0100
0001
0100
1000
0100
0000
,  // measure 44
0011
0000
1000
0010
0001
0000
1000
0010
,  // measure 45
0001
0100
1000
0100
0001
0000
1100
0000
,  // measure 46
0002
0203
0320
2030
,  // measure 47
3001
0010
0100
0000
0001
0010
0100
0000
,  // measure 48
0001
0000
1001
0000
1000
0001
0100
0000
,  // measure 49
0001
1000
0100
1000
0001
0000
0110
0000
,  // measure 50
1020
0130
0201
0310
,  // measure 51
0001
0000
0010
1000
0000
1000
0010
0001
,  // measure 52
1000
0100
0010
0001
0100
0010
0001
0010
,  // measure 53
2000
0100
0010
3001
,  // measure 54
0002
0103
0200
0310
,  // measure 55
0010
1000
0001
0200
0000
0010
0310
0000
,  // measure 56
0010
0000
1000
0100
0001
0000
0001
0100
,  // measure 57
1000
0101
1100
1001
,  // measure 58
0001
0000
0000
0110
0000
0000
1000
0000
0000
0110
0000
0000
0001
0000
1000
0000
,  // measure 59
1001
0000
0000
0000
;

//---------------dance-single - ----------------
#NOTES:
     dance-single:
     :
     Challenge:
     9:
     0.679,0.642,0.380,0.464,0.253: // measure 1
0000
0000
0000
0000
,  // measure 2
0000
0000
0000
0000
,  // measure 3
0000
0000
0000
0000
,  // measure 4
0000
0000
0000
0000
,  // measure 5
0011
0000
0000
0000
1100
0000
0001
0010
0001
0000
0010
0000
0001
0000
0100
0000
,  // measure 6
0020
0000
0000
0000
1030
0000
0010
0100
0010
0000
1000
0000
0100
0000
0010
0000
,  // measure 7
0002
0000
0000
0000
0103
0000
0010
1000
0010
0000
1000
0000
0001
0000
0100
0000
,  // measure 8
0020
0000
0000
0000
0130
0000
0100
0001
0100
0000
0001
0000
1000
0000
0001
0000
,  // measure 9
2002
0000
0000
3003
,  // measure 10
1000
0100
1000
0100
1000
0000
0000
0000
1000
0000
0100
0000
0010
0000
0001
0000
,  // measure 11
0010
0001
0010
0001
0010
0000
0000
0000
0001
0000
1000
0000
1100
0000
0000
0000
,  // measure 12
0001
0000
0010
0000
1000
0000
0010
0000
0001
1000
0001
0000
1000
0000
0100
0000
,  // measure 13
0010
0001
1000
0010
2000
0000
3001
0000
,  // measure 14
0001
0010
0001
0000
1000
0000
0100
0000
1000
0100
1000
0000
0002
0000
0000
0000
,  // measure 15
0103
0010
0100
0000
0001
0000
1000
0000
0200
0000
1000
0000
1300
0000
0000
0000
,  // measure 16
1000
0000
0100
0000
0010
0000
0001
0000
0010
0001
0010
0000
0001
0000
0100
0000
,  // measure 17
0001
1000
0010
0100
0110
0000
1001
0000
,  // measure 18
0001
0010
0000
0000
0101
0000
0000
0000
0012
0000
0000
0000
1003
0000
0000
0000
,  // measure 19
1000
0000
0100
0000
0010
0000
0001
0000
1000
0010
0100
0000
0020
0000
0000
0000
,  // measure 20
1030
0100
0000
0000
1010
0000
0000
0000
2010
0000
0000
0000
3001
0000
0000
0000
,  // measure 21
0001
0000
0010
0000
0001
0100
0010
0000
1000
0000
0100
0000
2000
0000
0000
0000
,  // measure 22
3001
1100
1020
0130
,  // measure 23
1000
0100
0002
0000
1003
0010
0002
0000
,  // measure 24
1003
0000
0100
0000
0010
0000
0001
0000
0100
0010
0100
0000
0001
0000
1000
0000
,  // measure 25
0010
0000
1000
0000
0010
0100
0010
0000
0100
0000
0001
0000
1001
0000
0000
0000
,  // measure 26
2100
3010
0201
0310
,  // measure 27
1000
0100
0001
0200
0000
1300
0001
0100
,  // measure 28
0001
0010
1000
0010
0001
0010
0100
0001
,  // measure 29
0010
0100
0001
1000
0001
0000
1100
0000
,  // measure 30
0102
0000
0000
0000
1003
0001
0000
0000
2010
0000
0000
0000
3001
0100
0000
0000
,  // measure 31
0001
0000
0010
0000
0001
0000
1000
0000
0010
1000
0010
0000
2000
0000
0000
0000
,  // measure 32
3010
0100
0001
0100
0010
0100
1000
0100
,  // measure 33
0110
1001
0220
0330
,  // measure 34
0001
0010
0000
0000
0010
0200
0000
0000
0000
0000
1300
0000
0001
0000
1000
0000
,  // measure 35
0002
0103
0210
0301
,  // measure 36
0001
0000
1000
0000
0100
0000
1000
0000
0002
0000
0000
0000
1003
0000
0010
0100
,  // measure 37
0020
0000
0000
0000
0000
0000
1030
0001
2000
0000
0000
0000
0000
0000
0000
0000
,  // measure 38
3010
0100
0000
0000
0100
0001
0000
0000
0000
0000
0001
1000
0000
0000
1000
0010
,  // measure 39
0000
0000
0010
0100
0000
0000
0100
0001
0000
0000
0001
0000
1000
0000
0001
0000
,  // measure 40
0010
0001
0020
0000
0130
1000
0200
0000
,  // measure 41
2300
3001
0110
1001
,  // measure 42
1100
0000
0000
0000
0101
0000
0000
0000
1000
0010
1000
0000
0001
0000
0000
0000
,  // measure 43
0001
0000
0010
0000
0001
0000
0100
0000
0010
1000
0010
0000
1000
0000
0100
0000
,  // measure 44
0020
0001
0031
0000
2000
0100
3100
0000
,  // measure 45
1000
0000
0010
0000
0001
0000
0010
1000
0001
0000
1000
0000
1001
0000
0000
0000
,  // measure 46
0001
0010
2000
0000
3001
0100
2000
0000
,  // measure 47
3001
0010
0100
1000
0010
0100
0002
0000
,  // measure 48
1003
0100
1000
0100
2000
0000
0000
0000
3010
0100
0010
0100
0020
0000
0000
0000
,  // measure 49
1030
0000
0100
0000
1000
0000
0001
0000
0100
0010
0100
0000
0110
0000
0000
0000
,  // measure 50
1002
0103
0201
0310
,  // measure 51
0100
0000
0001
0000
1000
0000
0010
0000
1000
0000
0001
0000
0100
0000
0001
1000
,  // measure 52
0001
1000
0100
0010
0100
2000
0000
3001
,  // measure 53
0100
1000
0100
0001
1000
0000
0101
0000
,  // measure 54
1010
0000
0110
0000
0001
1000
0100
0000
,  // measure 55
0100
1000
0100
0001
0100
1000
0100
0000
,  // measure 56
1000
0000
0010
0000
0100
0000
0001
0000
1000
0100
1000
0000
0001
0000
0100
0000
,  // measure 57
0011
1100
2002
3003
,  // measure 58
1000
0100
0000
1000
0100
0000
0010
0001
0000
0010
0001
0000
1000
0001
1000
0001
,  // measure 59
1000
0000
0000
0000
;
