#TITLE:CRAZY♥LOVE;
#SUBTITLE:;
#ARTIST:jun;
#TITLETRANSLIT:CRAZY LOVE;
#SUBTITLETRANSLIT:;
#ARTISTTRANSLIT:;
#CREDIT:;
#BANNER:CRAZY LOVE.png;
#BACKGROUND:CRAZY LOVE-bg.png;
#LYRICSPATH:;
#CDTITLE:./CDTITLES/DanceDanceRevolution 2010.png;
#MUSIC:CRAZY LOVE.mp3;
#OFFSET:1.171;
#SAMPLESTART:38.060;
#SAMPLELENGTH:15.000;
#SELECTABLE:YES;
#BPMS:0.000=177.000,274.000=365.499,276.000=177.000;
#STOPS:274.000=0.180
,275.000=0.180
;
#BGCHANGES:;

//---------------dance-single - ----------------
#NOTES:
     dance-single:
     :
     Hard:
     9:
     0.686,0.654,0.118,0.182,0.000:
0000
0000
0000
0000
,
0000
0000
0000
0000
,
0000
0000
0000
0000
,
0000
0000
0000
0000
,
0000
0000
0000
0000
,
1000
0100
1000
0100
0000
0010
0100
0001
,
0100
0001
0010
0100
0000
1000
0010
0001
,
0010
0100
0010
0100
0000
0010
0001
0010
,
0100
0100
1000
1000
0001
0000
0001
0000
,
1000
0100
1000
0100
0000
0010
0001
0010
,
0100
0010
0100
0010
0000
1000
0100
1000
,
0010
0100
0010
0100
0001
0010
1000
0100
,
0100
1000
1000
0000
0010
0000
0010
0000
,
0100
0001
0010
0100
0000
1000
0100
1000
,
0010
0001
0010
0001
0000
0010
0100
1000
,
0100
1000
0100
1000
0000
0010
0001
0010
,
0100
0010
0100
1000
0000
0010
0100
0010
,
0001
0010
0001
0100
0000
1000
0100
0010
,
0100
0010
0100
1000
0000
0001
0010
0100
,
0010
0001
0010
0100
0000
1000
0100
0010
,
0100
0000
0100
0010
0000
1000
0100
1000
,
0100
0010
0001
0010
0000
0001
0100
0010
,
0100
0010
0100
1000
0000
0100
0010
0001
,
0010
0001
0010
0100
0000
0100
0010
0100
,
0010
0001
0010
0001
0000
0100
0010
0100
,
0010
1000
0100
1000
0000
0010
0001
0100
,
0010
0100
0010
1000
0000
0100
0100
0010
,
0001
0010
0010
0001
0000
0010
0000
0100
,
0000
1000
0002
0000
1003
0000
2002
3003
,
0110
0010
0001
1000
0100
0010
0100
0001
,
0010
0001
0010
0100
1000
0100
0010
0001
,
0010
0100
0010
1000
0100
1000
0010
0001
,
0100
0010
0100
0010
0001
0010
0001
1000
,
0100
0010
0100
0001
0010
0001
1000
0100
,
0010
0100
0010
1000
0100
0010
0100
0010
,
1000
0100
0001
0010
0001
0010
0100
0010
,
0001
0100
1000
0000
0100
0000
0110
0000
,
1001
1000
0100
0010
0001
0010
0001
0100
,
0010
1000
0100
0010
0100
0010
1000
0100
,
0010
0001
0010
0100
0010
0001
0010
0100
,
1000
0100
0010
0100
1000
0100
0010
0100
,
0001
0010
0001
1000
0001
0100
0010
1000
,
0100
0010
0100
1000
0001
0010
0100
1000
,
0100
0010
0001
0010
0001
0100
0000
1000
,
0000
0100
0010
0100
0010
0000
2002
3003
,
0110
0100
0001
0010
0000
1000
0100
1000
,
0100
0010
0001
0010
0000
0100
0010
0001
,
0100
0010
1000
0010
0000
0100
0001
0100
,
0010
0010
0100
0100
1000
0000
0100
0000
,
0001
0010
0001
0100
0000
1000
0100
1000
,
0010
0100
0001
1000
0000
0100
0010
0100
,
0001
0100
0010
1000
0000
0100
0100
0010
,
0001
0010
0001
0100
0020
0000
1030
0000
,
0100
1000
0100
0010
0000
0001
0010
0001
,
0100
0010
1000
0100
0000
0010
0100
0001
,
0010
0001
0010
0100
0000
1000
0100
0010
,
0001
0010
0001
0100
0000
1000
0100
0010
,
1000
0100
1000
0100
0000
0010
0001
0100
,
1000
0100
0010
0001
0000
0010
0100
0010
,
1000
0100
1000
0001
0000
0100
0010
1000
,
0100
0001
0010
0001
2000
0001
0000
3010
,
0200
0010
0000
0010
0000
0010
0300
0010
,
2000
0001
0000
0001
0000
0001
3000
0001
,
0020
0100
0000
0100
0000
0100
0030
0100
,
0002
1000
0000
1000
0000
1000
0003
1000
,
0200
1000
0000
1000
0000
1000
0300
1000
,
0020
0001
0000
0001
0000
0001
0030
0001
,
2000
0100
0000
0100
0000
0100
3000
0100
,
0000
0010
0000
0010
0002
0000
2000
3003
,
1001
0000
1000
0100
0010
0100
0010
1000
,
0010
0001
0100
0010
1000
0100
0010
0000
,
1000
0100
1000
0100
0010
0001
0010
0001
,
0100
1000
0010
0001
0100
0010
0100
0010
,
0001
1000
0100
0010
0100
0010
1000
0100
,
0010
1000
0001
0010
0001
0100
0010
0100
,
1001
0000
0000
1000
2000
0000
3000
0011
,
0011
0000
0000
0100
0200
0000
0300
0110
,
0110
0000
0000
1000
0100
1000
0010
0001
,
0000
0100
0010
0100
0010
0000
2002
0000
,
0000
0000
0000
0000
,
3003
0000
0000
0000
;

//---------------dance-single - ----------------
#NOTES:
     dance-single:
     :
     Beginner:
     1:
     0.062,0.107,0.027,0.000,0.000: // measure 1
0000
0000
0000
0000
,  // measure 2
0000
0000
0000
0000
,  // measure 3
0000
0000
0000
0000
,  // measure 4
0000
0000
0000
0000
,  // measure 5
0000
0000
0000
0000
,  // measure 6
0000
0000
0000
0000
,  // measure 7
0000
0000
0000
0000
,  // measure 8
0000
0000
0000
0000
,  // measure 9
0000
0000
0000
0000
,  // measure 10
1000
0000
0000
0000
,  // measure 11
0000
0000
0000
0000
,  // measure 12
0001
0000
0000
0000
,  // measure 13
0000
0000
0000
0000
,  // measure 14
0100
0000
0000
0000
,  // measure 15
0000
0000
0000
0000
,  // measure 16
0000
0000
0000
0000
,  // measure 17
0000
0000
0000
0000
,  // measure 18
0010
0000
0000
0000
,  // measure 19
0000
0000
0000
0000
,  // measure 20
0000
0000
0000
0000
,  // measure 21
0000
0000
0000
0000
,  // measure 22
1000
0000
0000
0000
,  // measure 23
0000
0000
0000
0000
,  // measure 24
0100
0000
0000
0000
,  // measure 25
0000
0000
0000
0000
,  // measure 26
0010
0000
0000
0000
,  // measure 27
0000
0000
0000
0000
,  // measure 28
0001
0000
0000
0000
,  // measure 29
0000
0000
0000
0000
,  // measure 30
1000
0000
0000
0000
,  // measure 31
1000
0000
0000
0000
,  // measure 32
0001
0000
0000
0000
,  // measure 33
0000
0000
0000
0000
,  // measure 34
0100
0000
0000
0000
,  // measure 35
0100
0000
0000
0000
,  // measure 36
0010
0000
0000
0000
,  // measure 37
0000
0000
0000
0000
,  // measure 38
0001
0000
0000
0000
,  // measure 39
0001
0000
0000
0000
,  // measure 40
1000
0000
0000
0000
,  // measure 41
0000
0000
0000
0000
,  // measure 42
0010
0000
0000
0000
,  // measure 43
0010
0000
0000
0000
,  // measure 44
0100
0000
0000
0000
,  // measure 45
0100
0000
0000
0000
,  // measure 46
0010
0000
0000
0000
,  // measure 47
0000
0000
0000
0000
,  // measure 48
0000
0000
0000
0000
,  // measure 49
0000
0000
0000
0000
,  // measure 50
0100
0000
0000
0000
,  // measure 51
0000
0000
0000
0000
,  // measure 52
0000
0000
0000
0000
,  // measure 53
0000
0000
0000
0000
,  // measure 54
1000
0000
0000
0000
,  // measure 55
0001
0000
0000
0000
,  // measure 56
1000
0000
0000
0000
,  // measure 57
0001
0000
0000
0000
,  // measure 58
0100
0000
0000
0000
,  // measure 59
0010
0000
0000
0000
,  // measure 60
0100
0000
0000
0000
,  // measure 61
0010
0000
0000
0000
,  // measure 62
1001
0000
0000
0000
,  // measure 63
0000
0000
0000
0000
,  // measure 64
0000
0000
0000
0000
,  // measure 65
0000
0000
0000
0000
,  // measure 66
0110
0000
0000
0000
,  // measure 67
0000
0000
0000
0000
,  // measure 68
0000
0000
0000
0000
,  // measure 69
0000
0000
0000
0000
,  // measure 70
1000
0000
0100
0000
,  // measure 71
0001
0000
0000
0000
,  // measure 72
0100
0000
0000
0000
,  // measure 73
0010
0000
0000
0000
,  // measure 74
0001
0000
0000
0000
,  // measure 75
0001
0000
0000
0000
,  // measure 76
1000
0000
0000
0000
,  // measure 77
1000
0000
0000
0000
,  // measure 78
0001
0000
0000
0000
,  // measure 79
0100
0000
0000
0110
;

//---------------dance-single - ----------------
#NOTES:
     dance-single:
     :
     Easy:
     4:
     0.283,0.471,0.227,0.163,0.000:
0000
0000
0000
0000
,
0000
0000
0000
0000
,
0000
0000
0000
0000
,
0000
0000
0000
0000
,
0000
0000
0000
0000
,
1000
0000
1000
0000
,
0001
0000
0001
0000
,
1000
0000
1000
0000
,
0100
0010
0100
0010
,
1001
0000
0100
0000
,
0101
0000
0100
0000
,
1100
0000
0100
0000
,
0110
0000
0100
0000
,
0001
1000
0000
1000
,
1000
0001
0000
0001
,
0001
0010
0000
1000
,
1000
0100
0000
0100
,
0100
0010
0000
0010
,
0010
1000
0000
1000
,
1000
0001
0000
0001
,
0001
0100
0000
0100
,
0010
0001
0000
0001
,
0000
0010
0000
0010
,
0000
1000
0000
0100
,
0000
1000
0000
0001
,
0000
0100
0000
0010
,
0000
1000
0000
0001
,
0000
0100
0000
0010
,
0000
1000
0001
1001
,
0110
0000
0010
0000
,
1000
0100
1000
0000
,
0001
0000
0101
0000
,
0010
0001
0010
0000
,
1000
0000
1100
0000
,
0010
1000
0010
0000
,
0001
0000
0101
0000
,
0001
0010
0001
0010
,
0011
0000
1000
0000
,
0100
1000
0010
0000
,
0100
0001
0010
0000
,
0100
0100
0010
0000
,
1010
0000
0001
0000
,
0100
0001
0100
0000
,
1000
0100
0000
0100
,
0000
0010
0110
1001
,
0110
0000
0010
0000
,
0100
0000
0100
0000
,
1000
0000
1000
0000
,
0001
1000
0001
0100
,
0010
0000
0010
0000
,
1000
0000
1000
0000
,
0100
0000
0100
0000
,
0010
0001
0010
0001
,
0100
0000
0100
0000
,
0001
1000
0001
0000
,
1000
0000
0100
0000
,
0010
1000
0100
0000
,
0001
0000
0100
0000
,
0100
0001
0010
0000
,
0100
0010
0100
0000
,
0001
1000
0010
0100
,
2002
0000
0000
0000
,
0000
0000
0000
3003
,
0220
0000
0000
0000
,
0000
0000
0000
0330
,
2020
0000
0000
0000
,
0000
0000
0000
3030
,
0202
0000
0000
0000
,
0000
0303
1001
0110
,
1000
1000
0001
0000
,
0010
1000
0100
0000
,
0100
1000
0001
0000
,
0010
0100
0010
0000
,
1000
0000
0001
0000
,
1000
0000
0010
0000
,
0220
0000
0000
0330
,
2002
0000
0000
3003
,
2020
3030
0202
0303
,
1000
0001
0010
0220
,
0000
0000
0000
0000
0000
0000
0000
0000
0000
0000
0000
0000
0000
0000
0000
0000
0000
0000
0000
0000
0000
0000
0000
0000
0000
0000
0000
0000
0000
0000
0000
0000
0000
0000
0000
0000
0000
0000
0000
0000
0000
0000
0000
0000
0000
0000
0000
0000
0000
0000
0000
0000
0000
0000
0000
0000
0000
0000
0000
0000
0000
0000
0000
0000
0000
0000
0000
0000
0000
0000
0000
0000
0000
0000
0000
0000
0000
0000
0000
0000
0000
0000
0000
0000
0000
0000
0000
0000
0000
0000
0000
0000
0000
0000
0000
0000
0000
0000
0000
0000
0000
0000
0000
0000
0000
0000
0000
0000
0000
0000
0000
0000
0000
0000
0000
0000
0000
0000
0000
0000
0000
0000
0000
0000
0000
0000
0000
0000
0000
0000
0000
0000
0000
0000
0000
0000
0000
0000
0000
0000
0000
0000
0000
0000
0000
0330
0000
0000
0000
0000
0000
0000
0000
0000
0000
0000
0000
0000
0000
0000
0000
0000
0000
0000
0000
0000
0000
0000
0000
0000
0000
0000
0000
0000
0000
0000
0000
0000
0000
0000
0000
0000
0000
0000
0000
0000
0000
0000
0000
0000
0000
0000
;

//---------------dance-single - ----------------
#NOTES:
     dance-single:
     :
     Medium:
     7:
     0.544,0.654,0.581,0.327,0.000:
0000
0000
0000
0000
,
0000
0000
0000
0000
,
0000
0000
0000
0000
,
0000
0000
0000
0000
,
0000
0000
0000
0000
,
1000
0000
0010
0001
0000
0000
1000
0000
,
0100
0000
0010
0100
0000
0000
0001
0000
,
1000
0000
0001
0010
0000
0000
0100
0000
,
1000
0100
1000
0000
0010
0001
0010
0000
,
0100
0000
0010
0000
1000
0100
1000
0000
,
0001
0000
0100
0000
0010
0001
0010
0000
,
1000
0100
1000
0000
0010
0001
0010
0000
,
1000
0100
0022
0033
,
1000
0000
0100
1000
0000
0000
0010
0000
,
0011
0000
0001
0100
0000
0000
1000
0000
,
1100
0000
0100
0010
0000
0000
0010
0000
,
0110
0000
0001
1000
0000
0000
0100
0000
,
0101
0000
0001
0010
0000
0000
1000
0000
,
1010
0000
0010
0100
0000
0000
0100
0000
,
0011
0000
1000
0100
0000
0000
0010
0000
,
1100
0000
0001
0010
0000
0000
0100
0000
,
1000
0100
1000
0000
0010
0000
0010
0000
,
0001
0100
0001
0000
0010
0000
0010
0000
,
1000
0100
0010
0000
0100
0000
0100
0000
,
0001
0010
1000
0000
0100
0000
0100
0000
,
1000
0100
0010
0000
0100
0000
0100
0000
,
1000
1000
1000
0000
0001
0000
0011
0000
,
0100
0010
0100
0000
1000
0100
1000
0000
,
0001
0010
0100
1100
,
1000
0000
1000
0001
0000
0000
1001
0000
,
0010
0000
0100
0010
0000
0000
0110
0000
,
1000
0100
1000
0000
0010
0001
0010
0000
,
1100
0011
0110
1001
,
1010
0000
0100
0010
0000
0000
1001
0000
,
0011
0000
0001
0100
0000
0000
1010
0000
,
1000
0010
1000
0000
0100
0001
0100
0000
,
1010
0101
1001
0110
,
0001
0000
0001
1000
0000
0000
1001
0000
,
0100
0000
0010
0100
0000
0000
0110
0000
,
0001
0010
0001
0000
0100
1000
0100
0000
,
0011
1100
0110
1001
,
0101
0000
0010
0100
0000
0000
1001
0000
,
1100
0000
1000
0010
0000
0000
0101
0000
,
0001
0100
0001
0000
0010
1000
0010
0000
,
2002
0000
3003
0110
,
0010
0000
0100
0000
0001
0010
0001
0000
,
1000
0000
0010
0000
0100
1000
0100
0000
,
0001
0010
0001
0000
0100
1000
0100
0000
,
0001
0010
2200
3300
,
1000
0000
0001
0000
0010
1000
0010
0000
,
0100
0000
1000
0000
0001
0100
0001
0000
,
0010
1000
0010
0000
0001
0100
0001
0000
,
0010
1000
0202
0303
,
1001
0000
0001
0100
0000
0100
0010
0000
,
1100
0000
0100
0010
0000
0001
0010
0000
,
0110
0000
0100
0010
0000
0010
0100
0000
,
1010
0000
0100
0001
0000
1000
0001
0000
,
0110
0000
0001
1000
0000
1000
0001
0000
,
1010
0000
0100
0001
0000
0010
0100
0000
,
1100
0000
1000
0001
0000
0100
0010
0000
,
1100
0000
0001
0010
0000
1000
0010
0000
,
2100
0000
0100
3000
,
1020
0000
1000
0030
,
0012
0000
0010
0003
,
2001
0000
0001
3000
,
0200
0000
0020
0330
,
0002
0000
2000
3003
,
0200
0000
0020
0330
,
2002
0000
3003
0000
2000
0000
0002
3003
,
1001
0000
1000
0100
0000
0100
1000
0000
,
0110
0000
0001
0010
0100
0010
0000
0000
,
1000
0100
1000
0000
0010
0001
0010
0000
,
0110
1001
1010
0011
,
1000
0100
1000
0000
0001
0010
0001
0000
,
0100
0010
0100
0000
1000
0100
1000
0000
,
0022
0033
2200
3300
,
0220
0330
2002
3003
,
2200
0000
3300
0000
0022
0033
1000
0100
,
0000
0100
0010
0100
0010
0000
2002
0000
,
0000
0000
0000
0000
,
3003
0000
0000
0000
;
