#TITLE:tant pis pour toi;
#SUBTITLE:-Techno-;
#ARTIST:AKIRA YAMAOKA;
#TITLETRANSLIT:too bad for you;
#SUBTITLETRANSLIT:;
#ARTISTTRANSLIT:;
#GENRE:;
#CREDIT:;
#BANNER:;
#BACKGROUND:;
#LYRICSPATH:;
#CDTITLE:;
#MUSIC:tant pis pour toi.mp3;
#OFFSET:-10.544;
#SAMPLESTART:24.620;
#SAMPLELENGTH:12.000;
#SELECTABLE:YES;
#BPMS:0.000=137.990,88.500=275.980,96.500=137.990,124.500=275.980,128.500=137.990,208.250=68.995;
#STOPS:88.500=0.217
,89.500=0.217
,90.500=0.217
,91.500=0.217
,92.500=0.217
,93.500=0.217
,94.500=0.217
,95.500=0.217
,124.500=0.217
,125.500=0.217
,126.500=0.054
,126.750=0.054
,127.000=0.163
,127.750=0.054
,128.000=0.054
,128.250=0.054
;
#BGCHANGES:;
#KEYSOUNDS:;

//---------------dance-single - ----------------
#NOTES:
     dance-single:
     :
     Hard:
     9:
     0.708,0.670,0.425,0.099,0.668:
1000
0010
0000
0100
0000
0000
0010
0000
0100
0001
0000
1000
0000
0000
0001
0000
,
0010
0100
0000
1000
0000
0000
0010
0000
0100
0010
0100
0001
0010
0001
1000
0001
,
0100
1000
0000
0000
0100
0000
0001
0000
0100
1000
0000
0100
0000
0000
0001
0000
,
0010
0001
0000
0100
0000
0000
0001
0000
1000
0010
0100
0001
1000
0100
0010
0001
,
1000
0100
0000
0000
0010
0001
0010
0000
0001
0100
0010
0000
0100
0010
1000
0000
,
0100
0010
0001
0000
1000
0100
0010
0000
0001
0100
0010
1000
0010
0100
0010
1000
,
0100
0000
0002
0000
0000
0203
0300
0000
1000
0000
0002
0000
0000
0023
0030
0000
,
1000
0010
0100
0110
0000
0010
0100
1001
,
MMMM
0011
0000
0110
0000
1100
0000
1000
,
0000
0000
0010
1000
0010
0100
0001
0000
0000
0000
0101
0000
0000
0000
1010
0000
,
0000
0000
1100
0000
0000
0000
1000
0000
0000
0000
0001
0010
0100
1000
0100
0000
,
0000
0011
0000
0101
0000
1001
0000
1000
,
0000
0000
0002
0000
0000
0203
0300
0000
0002
0003
2000
0000
0000
3200
0300
0000
,
0020
0030
0001
0000
0010
0000
0011
0000
0000
0000
0001
0000
1000
0000
1010
0000
,
0000
0000
0010
0000
0100
0000
0010
0100
0000
0001
1000
0000
0100
0000
0101
0000
,
0000
0000
0100
1000
0010
1000
0100
0000
0000
0000
1000
0000
1001
0000
0000
0000
,
0101
0000
0100
0000
0000
0000
0001
0000
0000
0000
0001
0010
0001
0100
0001
0000
,
0000
1000
1100
0000
1100
0100
0000
0010
,
0000
0000
0100
1000
0100
0001
0100
0000
0000
0000
0001
0000
0101
0000
0000
0000
,
1100
0000
1000
0000
0000
0000
0010
0000
0100
0001
0100
1000
0100
0000
0010
0000
,
0100
0001
0001
0100
0100
0010
0010
1000
,
1000
0100
0100
0001
0001
0100
0100
1000
,
1000
1100
0000
0110
0000
0011
0000
0101
,
0000
0011
0000
0110
0000
1100
0000
1010
,
0000
0000
1000
0100
0000
0010
0000
0000
0001
0000
1000
0010
0100
0001
0010
0000
,
0001
0000
1000
0000
0000
0000
0001
0000
1000
0001
1000
0010
0000
0000
0100
0001
,
0000
0010
0001
0000
0000
0000
0010
0000
0001
0100
0001
0100
1000
0100
0010
0000
,
0100
0000
0001
0000
0000
0000
1000
0000
0010
0100
0001
0010
0100
0000
1000
0100
,
0000
0001
0100
0000
0000
0000
1000
0000
0010
0100
0001
1000
0010
1000
0100
0000
,
0010
0000
0001
0000
0000
0000
0100
0000
1000
0100
0001
0100
0010
0000
0100
0001
,
0000
0001
0010
0000
0000
0000
0100
0000
1000
0001
0100
0010
1000
0100
1000
0000
,
0100
0000
1100
0000
0000
0000
1001
0000
0000
0000
1000
0100
0010
0001
0000
0100
,
0000
0100
0010
0000
0000
0000
0100
0000
0000
0000
0010
1000
0000
0001
0100
0000
,
0001
0000
0011
0000
0000
0000
0100
0000
0000
0000
1000
0010
0000
0001
0010
0000
,
0100
0000
0110
0000
0000
0000
1000
0000
0000
0000
0001
0010
0000
0100
1000
0000
,
0001
0000
0101
0000
0000
0000
1000
0000
0000
0000
0100
0001
0000
0100
1000
0000
,
1000
0000
0010
0000
0100
0001
0010
0000
0001
0100
0001
1000
0010
0100
0000
0000
,
0001
0000
1000
0000
0010
0100
0010
0000
0100
0001
1000
0100
0010
0001
0000
0000
,
0100
0000
0010
0000
1000
0100
1000
0000
0001
0010
0001
0100
0010
1000
0000
0000
,
0001
0000
1000
0010
0100
0001
0010
0001
0100
0010
1000
0100
1000
0010
0100
0001
,
1000
0000
0010
0000
0100
0000
0001
0000
1000
0100
1000
0001
0100
0001
0000
0000
,
1000
0000
1001
0000
0001
0000
0100
0000
0010
0100
0010
1000
0100
0001
0000
0000
,
0100
0000
0110
0000
0100
0000
1000
0000
0001
1000
0100
1000
0010
0100
0000
0000
,
0001
0000
0101
0000
0100
0000
0010
0000
0100
0010
0100
0001
1000
0010
0000
0000
,
0100
0000
0101
0000
0001
0000
0010
0000
0001
0010
0100
1000
0001
0010
0000
0000
,
0001
0000
0101
0000
0100
0000
0010
0000
1000
0100
1000
0001
1000
0010
0000
0000
,
0100
0000
0101
0000
0001
0000
0010
0000
0001
0010
0100
0010
0001
0100
0000
0000
,
0100
0000
0110
0000
0010
0000
1000
0000
0001
0100
0010
1000
0010
1000
0000
0000
,
0010
1000
0010
1000
1100
0000
0000
0010
,
0001
1000
0110
0000
0000
0001
0100
1000
,
0110
0000
0000
1000
0100
0010
0001
0001
,
0100
0000
0010
1000
0010
0100
0001
0100
0010
1000
0001
0010
1000
0010
0100
0010
,
0001
1000
0000
0000
0000
0000
0000
0000
0000
0000
0000
0000
0000
0000
0000
0000
;

//---------------dance-single - ----------------
#NOTES:
     dance-single:
     :
     Medium:
     6:
     0.394,0.360,0.040,0.030,0.064:
0000
0000
0000
0000
,
0000
0000
0000
0000
,
0000
0000
0000
0000
,
0000
0000
0000
0000
,
0000
0100
0010
0000
0010
0100
0010
0000
,
0010
0100
0010
0000
0010
0100
0001
0010
,
0100
0000
1000
0000
0000
0100
0000
0000
0010
0000
0100
0000
0000
0010
0000
0000
,
0001
1000
0001
0010
0000
0001
1000
0100
,
0000
0001
0000
0010
0000
1000
0000
0100
,
0000
0010
0100
0010
0000
0001
0000
0010
,
0000
0100
0000
1000
0000
0010
0100
0010
,
0000
1000
0000
0100
0000
0010
0000
0001
,
0000
0000
0100
0000
0000
0010
0000
0000
0100
0000
0001
0000
0000
1000
0000
0000
,
0001
1000
0100
0010
0000
0010
0100
1000
,
0000
0010
0100
0010
0100
0010
0000
1001
,
0000
0001
0100
0010
0000
1000
0000
0100
,
0000
0010
0000
0000
0000
0001
0100
1000
,
0100
0001
0000
0010
0000
0100
0000
0001
,
0000
0000
0100
0000
0000
1000
0000
0000
0100
0000
0010
0000
0000
0001
0000
0000
,
0010
0001
0010
0100
0000
0010
0100
1000
,
0000
0020
0000
1000
0000
0100
0000
0001
,
0000
0001
0000
0100
0000
0100
0000
1030
,
0000
0010
0000
0100
0000
0001
0000
0010
,
0000
0100
0000
1000
0000
0100
0000
0010
,
0000
0000
0001
0000
0000
1000
0000
0000
0100
0000
0010
0000
0100
0000
1000
0000
,
0001
0000
0100
0000
0000
0001
0000
0000
1000
0000
0100
0000
0001
0000
0100
0000
,
1000
0000
0010
0000
0000
0100
0000
0000
0001
0000
0100
0000
1000
0000
0100
0000
,
0001
0000
0100
0000
0000
0010
0000
0000
1000
0000
0010
0000
0100
0000
0001
0000
,
0100
0000
1000
0000
0000
0100
0000
0000
0010
0000
0100
0000
0001
0000
1000
0000
,
0001
0000
0010
0000
0000
0001
0000
0000
1000
0000
0010
0000
0100
0000
0010
0000
,
1000
0000
0100
0000
0000
0001
0000
0000
0100
0000
1000
0000
0100
0000
1000
0000
,
0010
0010
0000
0010
0000
0010
0000
0000
,
0000
0010
0000
0100
0000
0001
0010
0001
,
1000
1001
0000
0000
0000
1000
0010
0100
,
0001
0011
0000
0000
0000
0100
0010
0001
,
0100
0101
0000
0000
0000
0001
1000
0010
,
0000
0100
0001
1000
0001
0100
0001
0010
,
0000
0001
0010
0100
1000
0100
0010
0001
,
0000
0001
0100
0010
0100
0001
1000
0000
,
0002
2000
0000
0000
0000
0000
0000
3003
,
1000
0010
0000
1000
0000
0010
1000
0001
,
0010
0100
0000
0010
0000
0001
0100
1000
,
0100
0010
0000
0100
0000
0010
1000
0100
,
1000
0001
0000
1000
0000
0001
0010
1000
,
0010
0001
0000
0100
0000
0010
0100
0010
,
1000
0100
0000
0010
0000
0001
0010
0001
,
0100
0001
0000
1000
0000
0100
1000
0010
,
1000
0001
0000
1000
0000
0010
1000
0001
,
1000
0100
0010
0001
1000
0000
0000
0100
,
1000
0001
0001
0000
0000
1000
0010
0100
,
0100
0000
0000
0001
0001
1000
1000
0001
,
0100
1000
1000
0100
0100
0001
0001
0010
,
0010
0000
0000
0000
;

//---------------dance-single - ----------------
#NOTES:
     dance-single:
     :
     Easy:
     3:
     0.243,0.308,0.030,0.059,0.000:
0000
0000
0000
0000
,
0000
0000
0000
0000
,
0000
0000
0000
0000
,
0000
0000
0000
0000
,
0000
0000
0000
0000
,
0000
0000
0000
0000
,
0000
1000
0000
0000
0000
0100
0000
0000
,
0000
0010
0000
0010
0000
0001
0000
0001
,
0000
1000
0000
0001
0000
0100
0000
0000
,
0000
0010
0000
0000
0000
1000
0000
0001
,
0000
0010
0000
0000
0000
0100
0000
0000
,
0000
1000
0000
0010
0000
0100
0000
0000
,
0000
0100
0000
0000
0000
0100
0000
0000
,
0000
0010
0000
0010
0000
0100
0000
0100
,
0000
0001
0000
0010
0000
0100
0000
0000
,
0000
1000
0000
0000
0000
0010
0000
1000
,
0000
0001
0000
0000
0000
0010
0000
0000
,
0000
0001
0000
1000
0000
0010
0000
0000
,
0000
0100
0000
0000
0000
0100
0000
0000
,
0000
0001
0000
0001
0000
0010
0000
0010
,
0000
0002
0000
0000
0000
0000
0000
0000
,
0000
0000
0000
0000
0000
0000
0000
0003
,
0000
1000
0000
0000
0000
1000
0000
0000
,
0000
0100
0000
0000
0000
0100
0000
0000
,
0000
0010
0000
0001
0000
0010
0001
0010
,
0000
0001
0000
1000
0000
0001
1000
0001
,
0000
1000
0000
0010
0000
0100
0010
1000
,
0000
0100
0000
0010
0000
0001
1000
0001
,
0000
1000
0000
0010
0000
0100
0010
0100
,
0000
0001
0000
1000
0000
0001
0010
0100
,
0000
1000
0000
0001
0000
1000
0010
0100
,
0000
0200
0000
0000
0000
0300
0000
0000
,
0000
0010
0000
0000
0000
1000
0001
1000
,
0000
1001
0000
0000
0000
0010
0100
0010
,
0000
0110
0000
0000
0000
0001
0010
0001
,
0000
0011
0000
0000
0000
1000
0010
1000
,
0000
1000
0100
1000
0000
0010
0100
0010
,
0000
0100
0001
0100
0000
0001
1000
0001
,
0000
0100
0001
0100
0000
0010
1000
0010
,
0000
0200
0000
0000
0000
0000
0000
0300
,
0000
0010
0000
0000
0000
1000
0001
1000
,
0000
0100
0000
0000
0000
0010
0001
0010
,
0000
0001
0000
0000
0000
1000
0010
1000
,
0000
0100
0000
0000
0000
0010
0001
1000
,
0000
0010
0000
0000
0000
0100
0010
0100
,
0000
0001
0000
0000
0000
1000
0010
0100
,
0000
0001
0000
1000
0001
1000
0000
0010
,
0000
0100
0010
0100
0000
0001
0000
1000
,
0200
0000
0000
0000
0310
0000
0000
0020
,
0000
0000
0031
0000
0000
0002
0000
0000
,
1003
0000
0000
0001
0000
0001
0000
1000
,
0000
1000
0000
0100
0000
0010
0000
0001
;
