#TITLE:Target Planet Has Been Destroyed;
#SUBTITLE:;
#ARTIST:DJ TECHNORCH;
#TITLETRANSLIT:;
#SUBTITLETRANSLIT:;
#ARTISTTRANSLIT:;
#GENRE:;
#CREDIT:;
#MENUCOLOR:;
#METERTYPE:DDR;
#BANNER:Target Planet Has Been Destroyed.png;
#BACKGROUND:Target Planet Has Been Destroyed-bg.png;
#LYRICSPATH:;
#CDTITLE:;
#MUSIC:Target Planet Has Been Destroyed.mp3;
#OFFSET:-0.075;
#SAMPLESTART:79.140;
#SAMPLELENGTH:12.000;
#SELECTABLE:YES;
#LISTSORT:;
#BPMS:0.000=200.000;
#STOPS:60.000=0.300
,255.000=0.900
;
#BGCHANGES:;
#ATTACKS:;

//---------------dance-single - ----------------
#NOTES:
     dance-single:
     :
     Hard:
     9:
     0.760,0.845,0.398,0.435,0.000: // measure 1
1001
1000
0010
0001
,  // measure 2
0010
0100
0001
0010
,  // measure 3
0100
0010
0001
0100
,  // measure 4
1000
0100
0001
1000
,  // measure 5
0010
0001
0010
0100
,  // measure 6
0001
0010
0100
0010
,  // measure 7
0100
1000
0001
1000
,  // measure 8
0010
0100
0001
0010
,  // measure 9
0110
0000
0100
1000
0000
0001
0100
0000
,  // measure 10
0010
0000
1000
0100
0000
0010
0001
0000
,  // measure 11
1000
0000
0010
0100
0000
0001
1000
0000
,  // measure 12
0100
0000
0010
0001
0000
0100
0010
1000
,  // measure 13
0010
0000
0100
0010
0000
1000
0100
0000
,  // measure 14
0010
0000
0001
1000
0000
0010
0100
0000
,  // measure 15
0001
0010
0100
1000
0100
0010
0001
0100
,  // measure 16
0110
0000
2002
0000
0000
0003
3001
0000
,  // measure 17
0110
0000
1000
0001
0011
0000
0010
0000
,  // measure 18
0110
0000
0100
1000
1010
0000
0001
0000
,  // measure 19
0101
0000
0100
0010
1010
0000
1000
0010
,  // measure 20
0100
0001
0101
0000
1001
0000
1000
0000
,  // measure 21
0110
0000
0010
1000
1100
0000
0100
0000
,  // measure 22
0110
0000
0010
0001
0101
0000
0001
0000
,  // measure 23
1001
0000
1000
0010
1010
0000
0100
0100
,  // measure 24
0110
1010
1001
0011
,  // measure 25
0001
0000
0001
1000
1010
0000
0010
0000
,  // measure 26
0110
0000
0100
0001
0011
0000
1000
0000
,  // measure 27
1001
0000
1000
0100
0110
0000
0010
0000
,  // measure 28
0011
0101
0110
0010
,  // measure 29
1010
0000
1000
0100
0110
0000
0010
0000
,  // measure 30
0011
0000
0001
1000
1001
0000
0110
0000
,  // measure 31
0011
0001
0010
0100
1000
0010
0220
0000
,  // measure 32
0000
0000
0000
0000
0000
0000
0330
0010
,  // measure 33
0100
0000
0001
0010
0000
0100
1000
0000
,  // measure 34
0010
1000
0000
0001
0200
0000
0000
0310
,  // measure 35
0100
0000
0001
0010
0000
0100
1000
0000
,  // measure 36
0001
0010
0000
0100
0020
0000
0000
0031
,  // measure 37
0100
0000
0010
0100
0000
0001
1000
0000
,  // measure 38
0100
0010
0000
0010
0002
0000
0000
0103
,  // measure 39
0001
0000
0100
0010
0000
1000
2002
0000
,  // measure 40
0000
0000
0000
0000
0000
0003
3001
0100
,  // measure 41
0010
0000
1000
0010
0001
0000
0001
0010
,  // measure 42
1000
0000
0100
0010
0001
0000
0100
0010
,  // measure 43
1000
0000
0100
0010
0001
0000
1000
0100
,  // measure 44
0010
0000
0100
1000
0010
0000
0001
0010
,  // measure 45
1000
0000
0001
1000
0100
0000
0010
0100
,  // measure 46
1000
0000
0010
0100
1000
0000
0100
0010
,  // measure 47
1000
0000
0001
0010
0100
1000
0100
0010
,  // measure 48
0001
1000
0020
0000
0000
0000
0130
0010
,  // measure 49
0000
0001
1000
0000
0100
0010
0000
0001
,  // measure 50
0100
0010
2000
0000
3002
0000
0103
0010
,  // measure 51
0000
1000
0100
0000
0010
0100
0000
1000
,  // measure 52
0100
0010
0200
0000
2300
0000
3010
0100
,  // measure 53
0000
0001
1000
0000
0010
0100
0000
0010
,  // measure 54
1000
0001
0200
0000
0320
0000
1030
0100
,  // measure 55
0000
0010
0001
0000
0100
0010
0000
1000
,  // measure 56
0001
0100
0020
0000
0230
0000
0310
1000
,  // measure 57
0001
0100
0010
0000
1000
0100
0000
0010
,  // measure 58
0100
1000
0020
0000
0230
0000
0301
1000
,  // measure 59
0010
0100
0001
0000
1000
0100
0000
0010
,  // measure 60
0001
0010
0200
0000
0320
0000
0031
1000
,  // measure 61
0010
0100
0010
0000
1000
0100
0000
0010
,  // measure 62
0100
1000
0002
0000
0203
0000
0310
1000
,  // measure 63
0001
0100
0010
0000
1000
0100
2000
0000
,  // measure 64
0000
0000
0000
3010
,  // measure 65
0100
0001
1000
0010
0100
0010
1000
1000
,  // measure 66
0001
1000
0010
0001
0010
1000
0001
1000
,  // measure 67
0100
0001
0100
1000
0020
0000
0230
0000
,  // measure 68
0301
1000
0010
0001
0010
1000
0001
0010
,  // measure 69
0100
1000
0100
0001
0200
0000
2300
0000
,  // measure 70
3010
0001
0010
1000
0001
0100
1000
0100
,  // measure 71
0010
1000
0100
0010
0200
0000
2300
0000
,  // measure 72
3010
0001
0010
1000
0001
0100
1000
0100
,  // measure 73
0010
1000
0100
0010
0002
0000
2003
0000
,  // measure 74
3010
0100
0001
0100
1000
0100
0001
1000
,  // measure 75
0100
0010
0001
0010
0200
1000
2300
0001
,  // measure 76
3001
0100
1000
0100
0001
1000
0010
0100
,  // measure 77
0001
0010
0100
1000
0020
0100
0230
0001
,  // measure 78
0301
0100
1000
0100
0001
1000
0100
0010
,  // measure 79
0001
0010
0100
1000
0002
0100
0203
0010
,  // measure 80
0310
0100
0001
0100
1000
0100
0001
1000
,  // measure 81
0100
0010
0100
1000
0020
0100
0230
0010
,  // measure 82
0301
1000
0010
0001
0010
1000
0001
0010
,  // measure 83
0100
0010
0001
1000
2010
3010
0120
0130
,  // measure 84
0010
1000
0010
0001
0010
1000
0001
0010
,  // measure 85
0100
0010
0001
0100
0201
0301
0012
0013
,  // measure 86
0220
0000
0000
0000
,  // measure 87
0000
0000
0000
0000
,  // measure 88
0330
0000
0000
0000
;

//---------------dance-single - ----------------
#NOTES:
     dance-single:
     :
     Medium:
     7:
     0.625,0.604,0.148,0.370,0.000: // measure 1
1001
1000
0100
0010
,  // measure 2
0100
0010
0001
0100
,  // measure 3
0001
0100
0010
1000
,  // measure 4
0001
1000
0010
0100
,  // measure 5
0001
0010
0100
1000
,  // measure 6
0010
1000
0001
0100
,  // measure 7
0001
0010
0100
1000
,  // measure 8
0010
1000
0001
0100
,  // measure 9
0110
0010
0100
0010
,  // measure 10
1000
0100
0010
0001
,  // measure 11
0100
0010
1000
0100
,  // measure 12
0010
0001
0100
0010
,  // measure 13
1000
0001
0010
0100
,  // measure 14
0010
0001
0100
0010
,  // measure 15
1000
0001
1000
0001
1000
0001
1000
0001
,  // measure 16
1000
0120
0000
0130
,  // measure 17
0010
0000
1000
0100
1000
0000
0001
0000
,  // measure 18
0010
0000
0001
0010
0001
0000
0100
0000
,  // measure 19
0010
0000
1000
0010
1000
0000
0100
0000
,  // measure 20
0010
1010
0110
0010
,  // measure 21
1000
0000
0001
0010
0001
0000
0010
0000
,  // measure 22
0100
0000
1000
0010
1000
0000
0001
0000
,  // measure 23
1000
0000
0001
0010
0001
0000
1000
0100
,  // measure 24
1100
0110
0011
1000
,  // measure 25
0010
0000
0100
0010
1000
0000
0001
0000
,  // measure 26
0010
0000
0100
0010
0001
0000
1000
0000
,  // measure 27
0010
0000
1000
0010
0100
0000
0001
0000
,  // measure 28
1000
1100
0110
0010
,  // measure 29
0001
0000
0100
0010
1000
0000
0100
0000
,  // measure 30
0010
0000
0001
0100
0010
0000
1010
0000
,  // measure 31
0010
0100
0010
0100
0010
0100
0020
0000
,  // measure 32
0000
0000
0000
0000
0000
0000
0000
0130
,  // measure 33
0010
0000
0100
0001
0000
1000
0010
0000
,  // measure 34
1000
0001
0000
1000
0200
0000
0000
0310
,  // measure 35
0100
0000
0010
0001
0000
1000
0001
0000
,  // measure 36
1000
0010
0000
1000
0200
0000
0000
0310
,  // measure 37
0100
0000
0010
0001
0000
0010
0100
0000
,  // measure 38
1000
0001
0000
1000
0020
0000
0000
1030
,  // measure 39
0100
0000
0010
0001
0000
0100
0020
0000
,  // measure 40
0000
0000
0000
0130
,  // measure 41
0010
1000
0001
0010
,  // measure 42
0100
0010
0100
1000
,  // measure 43
0010
0100
0001
0010
,  // measure 44
0100
0010
0001
1000
,  // measure 45
0100
0010
0001
0010
,  // measure 46
0100
1000
0010
0100
,  // measure 47
0001
0000
1000
0000
0100
0000
1000
0100
,  // measure 48
0010
0001
0200
0000
0000
0000
0310
0100
,  // measure 49
0000
0001
0010
0000
0100
0010
0000
0001
,  // measure 50
0000
0100
0020
0000
2030
0000
3100
0010
,  // measure 51
0000
0001
0100
0000
0010
1000
0000
0100
,  // measure 52
0000
0010
0002
0000
0203
0000
0310
0100
,  // measure 53
0000
0001
1000
0000
0100
0010
0000
0100
,  // measure 54
0000
1000
0020
0000
0230
0000
0301
1000
,  // measure 55
0000
0100
0010
0000
0001
0100
0000
0010
,  // measure 56
0000
1000
0200
0000
0320
0000
0031
0100
,  // measure 57
0000
0010
1000
0000
0100
1000
0100
1000
,  // measure 58
0000
0100
0020
0000
0032
0000
0103
0001
,  // measure 59
0000
0100
0010
0000
1000
0010
1000
0010
,  // measure 60
0000
0100
0002
0000
0023
0000
0130
0010
,  // measure 61
0000
0001
0100
0000
0001
0100
0001
0100
,  // measure 62
0000
0001
2000
0000
3020
0000
0130
0010
,  // measure 63
0100
0010
0100
0010
0100
0010
2000
0000
,  // measure 64
0000
0000
0000
3001
,  // measure 65
0100
0000
0010
0000
1000
0100
0010
0001
,  // measure 66
0100
0010
0000
1000
0100
0000
0010
0001
,  // measure 67
0100
0010
0000
1000
0200
0000
0320
0000
,  // measure 68
0031
0100
0000
0010
1000
0000
0100
0010
,  // measure 69
0001
0100
0000
0010
2000
0000
3200
0000
,  // measure 70
0310
0001
0000
0100
0010
0000
1000
0100
,  // measure 71
0010
0001
0000
1000
0200
0000
0320
0000
,  // measure 72
0130
1000
0000
0010
0100
0000
0010
1000
,  // measure 73
0100
0010
0000
0100
2000
0000
3020
0000
,  // measure 74
1030
0100
0010
0100
1000
0000
0010
0100
,  // measure 75
0001
1000
0000
0001
0020
0000
0230
0000
,  // measure 76
0310
0001
0010
0100
0010
0000
0001
1000
,  // measure 77
0010
0100
0000
0010
2000
0000
3200
0000
,  // measure 78
1300
0100
0010
0001
0010
0000
0001
1000
,  // measure 79
0010
0100
0000
0010
0200
0000
0302
0000
,  // measure 80
0103
0010
0100
0001
1000
0000
0100
0010
,  // measure 81
0100
1000
0000
0010
0200
0000
0302
0000
,  // measure 82
1003
0010
0100
0001
0010
0000
0100
1000
,  // measure 83
0010
0100
0000
0001
1001
0000
0101
0000
,  // measure 84
0010
0001
0100
0010
1000
0000
0001
0010
,  // measure 85
0100
0010
0000
0001
0101
0000
1010
0000
,  // measure 86
0220
0000
0000
0000
,  // measure 87
0000
0000
0000
0000
,  // measure 88
0330
0000
0000
0000
;

//---------------dance-single - ----------------
#NOTES:
     dance-single:
     :
     Challenge:
     10:
     1.000,1.000,0.157,0.352,0.629: // measure 1
1001
0000
1000
0010
0000
0100
0001
0010
,  // measure 2
0100
0000
0010
0001
0000
0100
0010
0100
,  // measure 3
0001
0000
1000
0100
0000
0010
0100
1000
,  // measure 4
0010
0000
0100
0001
0000
0010
0100
0010
,  // measure 5
0001
0000
0100
0010
0000
1000
0001
0100
,  // measure 6
0010
0000
1000
0001
0000
0010
0100
1000
,  // measure 7
0010
0000
0100
0001
0000
0100
0010
1000
,  // measure 8
0010
0000
0100
0001
0000
0010
0100
1000
,  // measure 9
1010
0010
1000
0001
0010
0100
1000
0000
,  // measure 10
0001
0010
0100
0010
0001
0100
0010
0000
,  // measure 11
0100
0001
0100
1000
0100
0001
1000
0000
,  // measure 12
0010
0100
0001
0010
0100
1000
0010
0000
,  // measure 13
0100
0001
0010
0100
1000
0010
0100
0000
,  // measure 14
0001
0010
1000
0010
0001
0100
0010
0000
,  // measure 15
0100
0000
0001
0000
1000
0000
0100
0000
0010
0100
0010
0100
0010
0100
0010
0100
,  // measure 16
0010
0000
0000
0000
1000
0001
1000
0001
1000
0001
1000
0001
1000
0000
0010
0000
,  // measure 17
0100
0000
0001
0000
0010
0100
0010
0000
0100
0000
1000
0000
0010
0000
0100
0000
,  // measure 18
0010
0000
1000
0100
1000
0100
1000
0000
0010
0000
0100
0001
0100
0000
0001
0000
,  // measure 19
0100
0000
0010
1000
0010
1000
0010
1000
0010
0000
0100
0001
0100
0000
0010
0000
,  // measure 20
0100
0010
0100
0000
0110
0000
0000
0000
1010
0000
0000
0000
1000
0000
0100
0000
,  // measure 21
0010
0000
0100
0000
1000
0010
1000
0000
0010
0100
0010
0100
0010
0000
0100
0001
,  // measure 22
0100
0000
0010
1000
0010
0000
0100
0000
0001
0000
1000
0001
1000
0000
0100
0000
,  // measure 23
0010
0000
0001
0010
0001
0010
0001
0010
0001
0010
0001
0000
0101
0000
0101
0000
,  // measure 24
0110
0000
1010
0000
1001
0000
0110
0010
,  // measure 25
1000
0000
0100
1000
0010
1000
0100
0000
1000
0000
0010
0100
0001
0000
1000
0000
,  // measure 26
0010
0000
0100
0001
0010
0000
0100
0000
0010
0000
0100
1000
0001
0000
0100
0000
,  // measure 27
0010
0000
0100
0001
0010
0001
0100
0000
0010
0000
0100
0010
1000
0000
0100
0000
,  // measure 28
0010
0100
1000
0000
1010
0000
0000
0000
0110
0000
0000
0000
0100
0000
0001
0000
,  // measure 29
0100
0000
0001
0010
0100
0010
0001
0000
0010
0000
0100
0010
0001
0000
1000
0000
,  // measure 30
0010
0000
0100
0001
1000
0000
0010
0000
0100
0000
0001
0000
0101
0000
0100
0000
,  // measure 31
0010
0100
0010
0100
0010
0100
0010
0100
0010
0100
0010
0000
0100
0001
0100
0001
,  // measure 32
0100
0001
0100
0001
0100
0001
0100
0001
0100
0001
0100
0001
0100
0000
0010
0000
,  // measure 33
0010
1000
0100
0100
0010
0001
0001
1000
,  // measure 34
0010
0010
0100
0001
0002
0000
0103
0010
,  // measure 35
0010
1000
0001
0001
0010
0100
0100
1000
,  // measure 36
0010
0010
0100
0001
0002
0000
0103
0010
,  // measure 37
0010
1000
0100
0100
0010
0001
0001
1000
,  // measure 38
0010
0010
0100
0001
0002
0000
1003
0100
,  // measure 39
0100
0000
0010
0000
0001
0000
0001
0000
1000
0000
0010
1000
0010
1000
0010
1000
,  // measure 40
0010
1000
0010
1000
0010
1000
0010
1000
0010
1000
0010
1000
0010
0000
0100
0000
,  // measure 41
0001
1000
0100
0010
0001
0000
0010
1000
,  // measure 42
0010
0001
0100
0010
1000
0000
0001
0100
,  // measure 43
1000
0100
0001
1000
0010
0000
0100
0001
,  // measure 44
0010
1000
0010
0001
0100
0000
0010
0100
,  // measure 45
0001
1000
0100
0010
0001
0000
0010
0100
,  // measure 46
0010
1000
0010
0001
0100
0000
1000
0100
,  // measure 47
0001
0000
1000
0000
0010
0100
0010
0100
0010
0100
0010
0100
0010
0100
0010
0100
,  // measure 48
0010
0100
0010
0000
0100
0001
0100
0001
0100
0001
0100
0001
0100
0000
0010
0000
,  // measure 49
0100
0001
0010
0000
0100
1000
0000
0010
,  // measure 50
0100
0001
0020
0000
0230
0000
1300
0010
,  // measure 51
0100
0001
0010
0000
0100
1000
0000
0100
,  // measure 52
0010
0001
0020
0000
0230
0000
0310
0001
,  // measure 53
0100
1000
0100
0000
0001
1000
0000
0010
,  // measure 54
0100
0001
0020
0000
0230
0000
0310
0001
,  // measure 55
0100
1000
0100
0000
0001
1000
0000
0010
,  // measure 56
0100
0001
0020
0000
0130
0000
1100
1000
,  // measure 57
0001
0100
1000
0100
0001
0010
0100
1000
,  // measure 58
0010
0100
0002
0000
0023
0000
0130
0010
,  // measure 59
0001
0100
1000
0100
0001
1000
0010
0100
,  // measure 60
0001
0010
0200
0000
2300
0000
3001
0100
,  // measure 61
1000
0100
0001
1000
0010
0100
0001
0010
,  // measure 62
0100
0010
0002
0000
0203
0000
0310
0100
,  // measure 63
0001
0000
0100
0000
1000
0000
0100
0000
0001
0000
1000
0000
0010
0100
0010
0100
,  // measure 64
0010
0100
0010
0100
0010
0100
0010
0100
0010
0100
0010
0100
0010
0000
0000
0000
,  // measure 65
0100
0000
0001
0000
1000
0001
1000
0001
1000
0001
1000
0000
1010
0000
0110
0000
,  // measure 66
0010
0000
1000
0000
0001
0000
0100
0010
1000
0000
0100
0000
0010
0000
0001
0100
,  // measure 67
0010
0000
1000
0000
0100
0000
0010
0001
0200
0000
0010
0000
0320
0000
1000
0000
,  // measure 68
1030
0000
0100
0000
0010
0000
0001
0100
0010
0000
1000
0000
0100
0000
0010
0001
,  // measure 69
0100
0000
0010
0000
1000
0000
0100
0010
0002
0000
0100
0000
0203
0000
0010
0000
,  // measure 70
0310
0000
1000
0000
0100
0000
0010
0001
0100
0000
0010
0000
1000
0000
0100
0010
,  // measure 71
0001
0000
0100
0000
0010
0000
1000
0100
0020
0000
0001
0000
0032
0000
1000
0000
,  // measure 72
1003
0000
0010
0000
0100
0000
0001
1000
0100
0000
0010
0000
0100
0000
1000
0010
,  // measure 73
0100
0000
0010
0000
1000
0000
0001
0100
0020
0000
0100
0000
0230
0000
0001
0000
,  // measure 74
0301
0100
0010
1000
0100
0000
0010
0001
0100
0000
0010
0000
1000
0000
0100
0010
,  // measure 75
0001
0000
0100
0000
0010
1000
0100
0010
0002
0000
0100
0000
0203
0000
0010
0000
,  // measure 76
0310
1000
0001
0100
0010
0000
1000
0100
0010
0000
0001
0000
0100
0000
0010
1000
,  // measure 77
0100
0000
0010
0000
0001
0100
0010
1000
0002
0000
0100
0000
0203
0000
0010
0000
,  // measure 78
0310
1000
0001
0100
0001
0000
1000
0001
0100
0000
0010
0000
1000
0000
0100
0010
,  // measure 79
0001
0000
0100
0000
0010
1000
0001
0100
0020
0000
1000
0000
2030
0000
0001
0000
,  // measure 80
3001
0100
0010
1000
0100
0000
0010
0001
0100
0000
0010
0000
1000
0000
0100
0010
,  // measure 81
0001
0000
0100
0000
0010
1000
0001
0100
0020
0000
1000
0000
2030
0000
0100
0000
,  // measure 82
3100
0010
0001
1000
0100
0000
0010
0001
0100
0000
0010
0100
0001
0000
0010
0100
,  // measure 83
1000
0000
0100
0010
0100
1000
0100
0010
0200
0000
0010
0000
0320
0000
0001
0000
,  // measure 84
0031
0010
0100
1000
0100
0000
0010
0001
0100
0000
0010
1000
0001
0000
0100
0010
,  // measure 85
1000
0000
0001
0100
0010
1000
0001
0010
0200
0000
1000
0000
2300
0000
3010
0000
,  // measure 86
0220
0000
0000
0000
,  // measure 87
0000
0000
0000
0000
,  // measure 88
0330
0000
0000
0000
;

//---------------dance-single - ----------------
#NOTES:
     dance-single:
     :
     Easy:
     4:
     0.477,0.523,0.130,0.407,0.000: // measure 1
1001
1000
0010
0000
,  // measure 2
0100
0001
0010
0000
,  // measure 3
0100
1000
0010
0000
,  // measure 4
0100
0001
0010
0000
,  // measure 5
0100
1000
0010
0000
,  // measure 6
0100
0001
1000
0000
,  // measure 7
0010
0100
0010
0000
,  // measure 8
1000
0001
0010
0000
,  // measure 9
0110
0010
1000
0100
,  // measure 10
0010
0001
0010
0100
,  // measure 11
1000
0010
0100
0010
,  // measure 12
1000
0100
0010
0100
,  // measure 13
1000
0010
0100
0001
,  // measure 14
0010
0100
1000
0100
,  // measure 15
0010
0001
0100
0010
,  // measure 16
1000
0002
0000
1003
,  // measure 17
0100
0010
0001
0010
,  // measure 18
0100
1000
0010
0100
,  // measure 19
0010
1000
0001
0010
,  // measure 20
0100
0110
0110
0010
,  // measure 21
0001
1000
0010
1000
,  // measure 22
0100
0010
0001
0100
,  // measure 23
0001
1000
0010
0020
,  // measure 24
0130
1010
1010
0110
,  // measure 25
0010
1000
0100
0010
,  // measure 26
0001
0010
0100
1000
,  // measure 27
0010
0100
0010
1000
,  // measure 28
0001
0011
0011
0001
,  // measure 29
0100
0010
1000
0100
,  // measure 30
0010
0100
1000
0110
,  // measure 31
0101
1001
0110
0200
,  // measure 32
0000
0000
0000
0000
0000
0000
0000
0310
,  // measure 33
0000
0000
1000
0000
0000
0100
0000
0000
,  // measure 34
0010
0000
0000
0002
0000
0000
0000
0103
,  // measure 35
0000
0000
0010
0000
0000
1000
0000
0000
,  // measure 36
0100
0000
0000
0020
0000
0000
0000
0130
,  // measure 37
0000
0000
1000
0000
0000
0010
0000
0000
,  // measure 38
0100
0000
0000
0020
0000
0000
0000
1030
,  // measure 39
0000
0000
0100
0000
0000
0020
0000
0000
,  // measure 40
0000
0000
0000
0130
,  // measure 41
0010
1000
0001
0010
,  // measure 42
0100
1000
0100
0010
,  // measure 43
0001
0100
0010
1000
,  // measure 44
0001
0100
0010
1000
,  // measure 45
0100
0010
0001
1000
,  // measure 46
0010
0100
0010
1000
,  // measure 47
0100
0010
0100
0010
,  // measure 48
0100
2000
0000
3010
,  // measure 49
0000
0100
0000
0000
0001
0000
0000
1000
,  // measure 50
0000
0020
0230
0301
,  // measure 51
0000
0010
0000
0000
0100
0000
0000
1000
,  // measure 52
0000
0020
0230
0301
,  // measure 53
0000
1000
0000
0000
0010
0000
0000
0100
,  // measure 54
0000
0002
0023
0130
,  // measure 55
0000
0010
0000
0000
0001
0000
0000
0100
,  // measure 56
0000
0020
0230
0301
,  // measure 57
1000
0100
0010
0100
,  // measure 58
1000
0020
0230
0301
,  // measure 59
0010
0100
1000
0100
,  // measure 60
0010
0002
0203
0310
,  // measure 61
0100
0001
1000
0001
,  // measure 62
0010
0200
0320
0031
,  // measure 63
0010
0100
1000
0020
,  // measure 64
0000
0000
0000
0130
,  // measure 65
0010
0100
0001
1000
,  // measure 66
0010
0100
0001
1000
,  // measure 67
0010
0100
0002
0023
,  // measure 68
0130
1000
0001
0100
,  // measure 69
0010
0100
0002
0023
,  // measure 70
0130
1000
0001
0100
,  // measure 71
0010
1000
0002
2003
,  // measure 72
3100
0010
0001
0100
,  // measure 73
0010
0100
0002
0023
,  // measure 74
0130
0001
1000
0100
,  // measure 75
0010
0001
0020
0230
,  // measure 76
0310
0001
0100
0010
,  // measure 77
1000
0001
0020
0230
,  // measure 78
0310
0001
0100
0010
,  // measure 79
1000
0001
0020
0230
,  // measure 80
1300
0100
0010
0100
,  // measure 81
0010
0001
0200
0320
,  // measure 82
1030
0001
0010
0100
,  // measure 83
0010
0001
0200
0320
,  // measure 84
1030
0001
0010
0100
,  // measure 85
1000
0010
2000
3010
,  // measure 86
0220
0000
0000
0000
,  // measure 87
0000
0000
0000
0000
,  // measure 88
0330
0000
0000
0000
;

//---------------dance-single - ----------------
#NOTES:
     dance-single:
     :
     Beginner:
     3:
     0.250,0.472,0.102,0.000,0.000: // measure 1
1001
0000
0000
0000
,  // measure 2
1000
0000
0000
0000
,  // measure 3
0010
0000
0000
0000
,  // measure 4
0010
0000
0000
0000
,  // measure 5
0100
0000
0000
0000
,  // measure 6
0100
0000
0000
0000
,  // measure 7
0001
0000
0000
0000
,  // measure 8
0001
0000
0000
0000
,  // measure 9
1001
0000
1000
0000
,  // measure 10
1000
0000
1000
0000
,  // measure 11
0010
0000
0010
0000
,  // measure 12
0010
0000
0010
0000
,  // measure 13
0100
0000
0100
0000
,  // measure 14
0100
0000
0100
0000
,  // measure 15
0010
0000
0010
0000
,  // measure 16
0010
1000
0000
0001
,  // measure 17
0001
0000
0001
0000
,  // measure 18
0100
0000
0100
0000
,  // measure 19
0010
0000
0010
0000
,  // measure 20
1000
1001
1001
0001
,  // measure 21
0001
0000
0100
0000
,  // measure 22
0100
0000
0010
0000
,  // measure 23
0010
0000
0100
0100
,  // measure 24
0110
0110
0110
0110
,  // measure 25
0010
0000
1000
0000
,  // measure 26
0100
0000
0010
0000
,  // measure 27
0001
0000
0100
0000
,  // measure 28
0010
0110
0110
0100
,  // measure 29
0010
0000
1000
0000
,  // measure 30
0001
0000
1000
1001
,  // measure 31
0001
0000
0000
1000
,  // measure 32
0000
0000
0000
0001
,  // measure 33
0000
0000
0001
0000
,  // measure 34
0000
0000
0010
0000
,  // measure 35
0100
0000
0000
0100
,  // measure 36
0000
0000
0010
0000
,  // measure 37
1000
0000
1000
0000
,  // measure 38
0000
0000
0001
0000
,  // measure 39
0100
0000
0100
0000
,  // measure 40
0000
0000
0000
0010
,  // measure 41
0000
0000
0000
0100
,  // measure 42
0000
0001
0000
0001
,  // measure 43
0000
0000
0000
1000
,  // measure 44
0000
0100
0000
0100
,  // measure 45
0000
0000
0000
0010
,  // measure 46
0000
0001
0000
0001
,  // measure 47
0000
0000
0000
0100
,  // measure 48
0000
0010
0000
1000
,  // measure 49
0000
0001
0000
0100
,  // measure 50
0000
0010
0010
0010
,  // measure 51
0000
1000
0000
0100
,  // measure 52
0000
0010
0010
0010
,  // measure 53
0000
0001
0000
1000
,  // measure 54
0000
0100
0100
0100
,  // measure 55
0000
0010
0000
0001
,  // measure 56
0000
1000
1000
1000
,  // measure 57
0000
0001
0000
0100
,  // measure 58
0000
0010
0010
0010
,  // measure 59
0000
1000
0000
0100
,  // measure 60
0000
0010
0010
0010
,  // measure 61
0000
0100
0000
1000
,  // measure 62
0000
0001
0001
0001
,  // measure 63
0000
0100
0000
0010
,  // measure 64
0000
0000
0000
1000
,  // measure 65
0001
0000
1000
0000
,  // measure 66
0001
0000
0100
0000
,  // measure 67
0010
0000
1000
1000
,  // measure 68
1000
0000
0100
0000
,  // measure 69
0010
0000
0001
0001
,  // measure 70
0001
0000
0100
0000
,  // measure 71
0010
0000
1000
1000
,  // measure 72
1000
0000
0100
0000
,  // measure 73
0010
0000
0100
0100
,  // measure 74
0100
0000
1000
0000
,  // measure 75
0001
0000
0010
0010
,  // measure 76
0010
0000
0100
0000
,  // measure 77
1000
0000
0001
0001
,  // measure 78
0001
0000
0100
0000
,  // measure 79
0010
0000
1000
1000
,  // measure 80
1000
0000
0100
0000
,  // measure 81
0010
0000
0001
0001
,  // measure 82
0001
0000
1000
0000
,  // measure 83
0100
0000
0010
0010
,  // measure 84
0010
0000
0100
0000
,  // measure 85
1000
0000
0010
0010
,  // measure 86
0010
0000
0000
0000
;
