#TITLE:Sweet Rain;
#SUBTITLE:;
#ARTIST:Y&Co. feat Karin;
#TITLETRANSLIT:;
#SUBTITLETRANSLIT:;
#ARTISTTRANSLIT:;
#CREDIT:;
#BANNER:Sweet Rain.png;
#BACKGROUND:Sweet Rain-bg.png;
#LYRICSPATH:;
#CDTITLE:;
#MUSIC:Sweet Rain.mp3;
#OFFSET:-0.048;
#SAMPLESTART:34.320;
#SAMPLELENGTH:14.120;
#SELECTABLE:YES;
#DISPLAYBPM:140.000;
#BPMS:0.000=155.000;
#STOPS:;
#BGCHANGES:;

//---------------dance-single - ----------------
#NOTES:
     dance-single:
     :
     Beginner:
     2:
     0.156,0.186,0.000,0.000,0.000: // measure 1
0000
0000
0000
0000
,  // measure 2
0000
0000
0000
0000
,  // measure 3
1000
0000
0001
0000
,  // measure 4
0001
0000
0001
0000
,  // measure 5
1000
0000
0100
0000
,  // measure 6
0100
0000
0001
0000
,  // measure 7
1000
0000
0001
0000
,  // measure 8
1000
0000
0001
0000
,  // measure 9
1000
0000
0001
0000
,  // measure 10
1000
0000
0001
0000
,  // measure 11
1000
0000
0100
0000
,  // measure 12
0010
0000
0001
0000
,  // measure 13
0001
0000
0001
0000
,  // measure 14
1000
0000
1000
0000
,  // measure 15
0100
0000
0010
0000
,  // measure 16
0100
0000
1000
0000
,  // measure 17
0100
0000
0010
0000
,  // measure 18
1000
0000
0001
0000
,  // measure 19
1000
0000
0100
0000
,  // measure 20
0001
0000
1000
0000
,  // measure 21
1000
0000
0100
0000
,  // measure 22
0001
0000
0001
0000
,  // measure 23
1000
0000
1000
0000
,  // measure 24
0001
0000
1000
0000
,  // measure 25
0001
0000
1000
0000
,  // measure 26
0001
0000
1000
0000
,  // measure 27
0001
0000
1000
0000
,  // measure 28
0100
0000
0100
0000
,  // measure 29
0001
0000
0001
0000
,  // measure 30
0001
0000
1000
0000
,  // measure 31
1000
0000
1000
0000
,  // measure 32
0100
0000
0100
0000
,  // measure 33
0000
0000
0100
0000
,  // measure 34
0000
0000
0001
0000
,  // measure 35
0000
0000
1000
0000
,  // measure 36
0000
0000
0100
0000
,  // measure 37
0000
0000
0001
0000
,  // measure 38
0000
0000
1000
0000
,  // measure 39
0000
0000
0000
0000
,  // measure 40
0100
0000
0000
0000
,  // measure 41
0100
0000
0000
0000
,  // measure 42
0001
0000
0000
0000
,  // measure 43
1000
0000
0000
0000
,  // measure 44
0001
0000
0000
0000
,  // measure 45
0100
0000
0000
0000
,  // measure 46
1000
0000
0000
0000
,  // measure 47
0001
0000
0000
0000
,  // measure 48
1000
0000
0000
0000
,  // measure 49
0100
0000
0000
0000
,  // measure 50
0001
0000
1000
0000
,  // measure 51
0001
0000
1000
0000
,  // measure 52
0001
0000
1000
0000
,  // measure 53
0001
0000
1000
0000
,  // measure 54
0001
0000
1000
0000
,  // measure 55
0100
0000
1000
0000
,  // measure 56
0100
0000
0001
0000
,  // measure 57
0100
0100
0100
0000
,  // measure 58
0001
0000
0100
0000
,  // measure 59
0001
0000
0100
0000
,  // measure 60
0001
0000
0100
0000
,  // measure 61
0100
0000
0100
0000
,  // measure 62
0001
0000
0001
0000
,  // measure 63
1000
0000
1000
0000
,  // measure 64
0001
0000
1000
0000
,  // measure 65
0001
0000
1000
0000
,  // measure 66
0100
0000
1000
0000
,  // measure 67
0100
0000
0001
0000
,  // measure 68
1000
0000
0001
0001
,  // measure 69
0001
0000
1000
0000
,  // measure 70
0001
0000
1000
1000
,  // measure 71
0000
0001
0001
0000
,  // measure 72
1000
0000
0001
0001
,  // measure 73
0000
1000
0000
0001
,  // measure 74
0000
1000
0000
0001
,  // measure 75
0000
0000
1000
0000
,  // measure 76
0001
0000
1000
1000
,  // measure 77
0000
0000
0001
0000
,  // measure 78
1000
0000
0000
0000
;

//---------------dance-single - ----------------
#NOTES:
     dance-single:
     :
     Hard:
     8:
     0.517,0.588,0.056,0.000,0.092: // measure 1
0000
0000
0000
0000
,  // measure 2
0000
0000
0000
0000
,  // measure 3
1000
0001
1000
0001
,  // measure 4
1000
0001
1000
0001
,  // measure 5
1000
0001
1000
0001
,  // measure 6
1000
0100
1000
0100
,  // measure 7
1000
0100
0010
1000
,  // measure 8
0100
0000
1000
0000
0100
1000
0100
1000
,  // measure 9
0100
0000
1000
0000
0010
0000
0001
0000
0010
0000
0001
0000
0010
0000
0000
1000
,  // measure 10
0000
0000
0100
0000
0000
0010
0000
0000
0001
0000
0010
0000
0100
0000
0000
0000
,  // measure 11
1000
0000
0000
0001
0000
0000
1000
0000
0010
0000
0100
0000
0000
0000
0000
0000
,  // measure 12
0010
1000
0100
0000
0010
0001
0010
0100
,  // measure 13
1000
0000
0001
1000
0000
0010
1000
0010
,  // measure 14
0100
0000
1000
0100
0010
0001
0010
0100
,  // measure 15
1000
0000
0000
0001
0000
0000
1000
0000
0010
0000
1000
0000
0010
0000
0000
0000
,  // measure 16
0100
0000
0000
0001
0000
0000
1000
0000
0010
0000
0000
0000
1000
0000
0100
0000
,  // measure 17
0010
0011
0110
1100
0110
1100
0101
0000
,  // measure 18
1000
0001
1000
0010
0000
0100
0000
0010
,  // measure 19
0000
0100
0000
1000
0001
1000
0001
1000
,  // measure 20
0010
1000
0010
0000
1000
0100
1000
0100
,  // measure 21
1000
0001
1000
0010
1000
0010
1000
0001
,  // measure 22
1000
0001
1000
0010
1000
0010
1000
0100
,  // measure 23
1000
0100
1000
0100
1000
0100
1000
0001
,  // measure 24
1000
0001
1000
0001
1000
0010
1000
0010
,  // measure 25
1000
0010
1000
0100
0010
0000
0100
0000
,  // measure 26
1000
0001
1000
0001
,  // measure 27
1000
0100
0010
0001
,  // measure 28
1000
0000
0001
0000
1000
0001
1000
0000
,  // measure 29
0010
0000
0100
0000
1000
0100
1000
0000
,  // measure 30
0001
0000
1000
0000
0001
0000
1000
0001
,  // measure 31
1000
0001
1000
0100
,  // measure 32
1000
0100
1000
0000
0001
1000
0001
1000
,  // measure 33
0001
1000
0001
1000
0001
0000
1000
0000
,  // measure 34
0001
0000
1000
0000
0001
1000
0010
0000
,  // measure 35
0100
1000
0100
0010
,  // measure 36
0001
0000
1000
0100
1000
0000
0100
0000
,  // measure 37
0010
0001
0010
0100
,  // measure 38
1000
0000
0000
0100
0010
0000
0001
0000
,  // measure 39
1000
0100
0010
0100
,  // measure 40
1000
0001
0010
0100
,  // measure 41
0010
0000
0001
0000
0010
1000
0010
1000
,  // measure 42
0100
1000
0100
1000
0100
1000
0001
1000
,  // measure 43
0001
1000
0010
1000
0010
1000
0100
1000
,  // measure 44
0100
1000
0100
1000
0001
1000
0001
1000
,  // measure 45
0001
1000
0010
1000
0010
1000
0010
1000
,  // measure 46
0010
1000
0100
1000
0100
1000
0100
1000
,  // measure 47
0100
1000
0001
1000
0001
1000
0001
1000
,  // measure 48
0010
1000
0010
1000
0010
1000
0010
1000
,  // measure 49
0100
1000
0100
1000
0100
1000
0100
1000
,  // measure 50
0001
0000
0000
0000
0001
0000
0000
0000
1000
0000
0000
0000
0100
0000
0000
1000
,  // measure 51
0000
0000
0100
0000
0000
0010
0000
0000
0001
0000
0010
0000
0100
0000
0010
0000
,  // measure 52
0100
0000
1000
0000
0100
1000
0100
1000
,  // measure 53
0001
0000
1000
0000
0001
0000
0100
0000
0001
0000
0100
0000
1000
0000
0000
0010
,  // measure 54
0000
0000
1000
0000
0000
0000
0100
0000
0000
0010
0000
0000
0001
0000
0000
0000
,  // measure 55
0010
0000
0100
0000
1000
0000
0100
0010
,  // measure 56
0000
0001
0000
0010
0100
0000
0010
0000
,  // measure 57
0100
1000
0100
0001
,  // measure 58
1000
0000
0000
0001
1000
0000
0001
0000
,  // measure 59
1000
0001
0000
1000
0010
1000
0010
1000
,  // measure 60
0100
1000
0100
1000
0100
1000
0001
1000
,  // measure 61
0001
0000
1000
0000
0000
0001
0000
0000
1000
0000
0000
0000
0010
0000
0000
0000
,  // measure 62
1000
0001
1000
0001
,  // measure 63
1000
0001
1000
0001
,  // measure 64
1000
0000
0001
0000
1000
0000
0001
1000
,  // measure 65
0010
0000
1000
0010
1000
0000
0100
0000
,  // measure 66
1000
0000
0100
1000
0100
0000
0010
0000
,  // measure 67
0001
0000
0010
1000
0100
1000
0000
0100
,  // measure 68
0000
0000
1000
0100
0010
0000
1000
0001
,  // measure 69
1000
0001
1000
0010
1000
0010
0100
0010
,  // measure 70
0100
0000
0000
1000
0000
0000
0100
0000
0010
0000
0001
0000
0010
0000
0100
0000
,  // measure 71
0000
1000
0000
0000
0100
0000
1000
0000
0100
0000
1000
0000
0100
0000
0001
0000
,  // measure 72
0000
1000
0000
0000
0000
0001
0000
0000
1000
0000
0010
0000
1000
0000
0010
0000
,  // measure 73
0100
0000
1000
0000
0100
0000
1000
0000
0100
0000
0001
0000
0100
0000
0000
0001
,  // measure 74
0000
0000
1000
0000
0000
0000
0010
0000
0000
1000
0100
0000
0100
1000
0000
0000
,  // measure 75
0001
0000
1000
0000
0001
0000
1000
0000
0000
0010
1000
0000
0010
0000
0000
0100
,  // measure 76
0000
1000
0000
0000
0100
0000
0000
0000
0010
0001
0000
0001
0010
0000
0100
0000
,  // measure 77
0000
1000
0000
0000
0100
0000
0010
0000
0001
0000
0000
0000
1000
0000
0000
0000
,  // measure 78
1100
0000
0000
0000
;

//---------------dance-single - ----------------
#NOTES:
     dance-single:
     :
     Easy:
     4:
     0.318,0.309,0.024,0.032,0.000: // measure 1
0000
0000
0000
0000
,  // measure 2
0000
0000
0000
0000
,  // measure 3
0000
0000
0000
0000
,  // measure 4
1000
0000
0001
0000
,  // measure 5
1000
0000
0001
0000
,  // measure 6
1000
0000
0100
0000
,  // measure 7
1000
0000
0100
0000
,  // measure 8
1000
0000
0100
0000
,  // measure 9
1000
0000
0100
0000
,  // measure 10
1000
0100
1000
0000
,  // measure 11
0001
1000
0001
1000
,  // measure 12
0000
0100
1000
0100
,  // measure 13
1000
0100
0010
0100
,  // measure 14
0010
0000
0000
1000
,  // measure 15
0100
1000
0000
0001
,  // measure 16
1000
0001
1000
0000
,  // measure 17
0100
0010
0100
0010
,  // measure 18
0000
1000
0100
1000
,  // measure 19
0100
0010
0001
0010
,  // measure 20
0001
0100
0010
0100
,  // measure 21
0010
0100
1000
0100
,  // measure 22
0010
0001
0010
0001
,  // measure 23
0010
0100
0010
0100
,  // measure 24
1000
0100
1000
0100
,  // measure 25
0010
0001
0010
0001
,  // measure 26
1000
0100
1000
0100
,  // measure 27
1000
0100
1000
0001
,  // measure 28
1000
0001
1000
0100
,  // measure 29
1000
0100
1000
0100
,  // measure 30
1000
0100
0010
0001
,  // measure 31
0010
0001
0010
0001
,  // measure 32
0010
0001
0010
0100
,  // measure 33
0010
0100
0010
0001
,  // measure 34
0010
0001
0010
0100
,  // measure 35
1000
0100
1000
0100
,  // measure 36
0010
0001
0010
0001
,  // measure 37
0010
0100
1000
0100
,  // measure 38
1000
0100
1000
0100
,  // measure 39
0010
0001
0010
0001
,  // measure 40
0010
0100
0010
0100
,  // measure 41
1000
0100
1000
0100
,  // measure 42
1000
0100
0010
0100
,  // measure 43
0010
0001
0010
0001
,  // measure 44
0010
0001
0010
0100
,  // measure 45
0010
0100
1000
0100
,  // measure 46
1000
0100
0010
0100
,  // measure 47
0010
0100
1000
0100
,  // measure 48
0010
0001
0010
0001
,  // measure 49
0010
0100
0010
0100
,  // measure 50
2000
0000
0000
3100
,  // measure 51
0002
0000
0000
0103
,  // measure 52
2000
0000
0000
3100
,  // measure 53
0002
0000
0000
0103
,  // measure 54
1000
0100
1000
0100
,  // measure 55
0010
0001
0010
0100
,  // measure 56
0010
0100
1000
0100
,  // measure 57
1001
1000
1000
1000
,  // measure 58
0001
1000
0001
1000
,  // measure 59
0100
1000
0100
0010
,  // measure 60
0001
0010
0100
1000
,  // measure 61
0100
1000
0100
1000
,  // measure 62
1100
0001
1000
0100
,  // measure 63
0010
0001
0010
0001
,  // measure 64
0010
0100
1000
0100
,  // measure 65
0010
0100
0010
1000
,  // measure 66
0100
1000
0100
0010
,  // measure 67
0100
0010
0100
1000
,  // measure 68
0100
1000
0001
1000
,  // measure 69
0001
1000
0100
1000
,  // measure 70
0100
1000
0100
0010
,  // measure 71
0001
0010
0001
0010
,  // measure 72
0100
0010
1000
0010
,  // measure 73
1000
0100
1000
0001
,  // measure 74
1000
0010
0100
0010
,  // measure 75
0100
1000
0100
1000
,  // measure 76
0100
0010
0100
0010
,  // measure 77
0001
0010
0100
1000
,  // measure 78
1100
0000
0000
0000
;

//---------------dance-single - ----------------
#NOTES:
     dance-single:
     :
     Medium:
     6:
     0.394,0.402,0.040,0.000,0.000: // measure 1
0000
0000
0000
0000
,  // measure 2
0000
0000
0000
0000
,  // measure 3
1000
0001
1000
0001
,  // measure 4
1000
0100
1000
0100
,  // measure 5
1000
0100
0010
0001
,  // measure 6
1000
0001
1000
0001
,  // measure 7
1000
0001
1000
0001
,  // measure 8
1000
0100
1000
0100
,  // measure 9
1000
0000
0100
1000
0100
1000
0000
0100
,  // measure 10
0001
0000
0010
0000
0100
1000
0100
0010
,  // measure 11
0000
0001
0000
1000
0001
1000
0000
0010
,  // measure 12
0000
1000
0000
0100
1000
0100
0000
0000
,  // measure 13
1000
0001
1000
0001
0000
0010
0100
0000
,  // measure 14
1000
0001
0000
1000
0000
0001
1000
0001
,  // measure 15
1000
0000
0001
1000
0001
1000
0010
0000
,  // measure 16
0100
1000
0000
0100
0010
0001
0000
0010
,  // measure 17
1000
0100
0000
0010
1000
0001
1010
0000
,  // measure 18
1000
0100
0010
0001
,  // measure 19
1000
0001
1000
0001
,  // measure 20
0010
0100
1000
0100
,  // measure 21
0010
0001
0010
1000
,  // measure 22
0100
1000
0100
1000
,  // measure 23
0100
0010
0001
1000
,  // measure 24
0001
1000
0001
1000
,  // measure 25
0100
1000
0100
0010
,  // measure 26
0001
0010
0001
0010
,  // measure 27
0001
0010
0100
0010
,  // measure 28
0100
0010
0100
0010
,  // measure 29
1000
0010
1000
0010
,  // measure 30
1000
0100
1000
0100
,  // measure 31
0010
0001
0010
0001
,  // measure 32
1000
0001
1000
0100
,  // measure 33
1000
0100
1000
0100
,  // measure 34
0001
1000
0001
1000
,  // measure 35
0001
0000
1000
0001
1000
0000
0010
0000
,  // measure 36
1000
0100
1000
0100
,  // measure 37
0010
0000
0001
0010
0001
0000
1000
0000
,  // measure 38
0001
0000
1000
0001
1000
0000
0010
0000
,  // measure 39
1000
0000
0100
0000
1000
0000
0100
1000
,  // measure 40
0100
0001
1000
0001
,  // measure 41
1000
0100
1000
0100
,  // measure 42
1000
0100
0010
0001
,  // measure 43
0010
0001
0010
0100
,  // measure 44
1000
0100
1000
0100
,  // measure 45
0010
0000
0001
0010
0001
0000
1000
0000
,  // measure 46
0001
0000
1000
0001
1000
0000
0010
0000
,  // measure 47
0100
1000
0100
0010
,  // measure 48
0001
0010
0100
1000
,  // measure 49
0001
1000
0001
1000
,  // measure 50
0001
1000
0001
1000
,  // measure 51
0100
0000
0010
0000
0001
1000
0001
0000
,  // measure 52
0010
0000
0100
0000
1000
0100
1000
0000
,  // measure 53
0001
1000
0001
1000
,  // measure 54
0001
1000
0001
1000
,  // measure 55
0010
0100
1000
0100
,  // measure 56
0010
0001
0100
0001
,  // measure 57
1000
0010
0100
1000
,  // measure 58
0001
0000
1000
0010
1000
0000
0100
0000
,  // measure 59
1000
0001
1000
0001
,  // measure 60
1000
0100
1000
0100
,  // measure 61
1000
0100
1000
1000
,  // measure 62
0010
0000
0010
0001
1000
0000
0001
0000
,  // measure 63
1000
0000
0001
1000
0001
0000
0010
0000
,  // measure 64
0100
0000
1000
0100
1000
0000
0001
0000
,  // measure 65
1000
0000
0001
1000
0001
0000
0010
0000
,  // measure 66
0100
0000
1000
0100
1000
0000
0010
0000
,  // measure 67
1000
0001
1000
0001
0010
0000
0100
0000
,  // measure 68
1000
0001
1000
0001
,  // measure 69
1000
0100
1000
0100
,  // measure 70
1000
0000
0100
1000
0100
0000
0001
0000
,  // measure 71
0010
0000
1000
0000
0001
1000
0001
0000
,  // measure 72
0010
0000
0100
0000
1000
0100
1000
0000
,  // measure 73
0001
1000
0010
1000
,  // measure 74
0001
0000
1000
0001
1000
0000
0010
0000
,  // measure 75
1000
0000
0100
1000
0100
0000
0001
0000
,  // measure 76
1000
0000
0001
1000
0001
0000
0010
0000
,  // measure 77
1000
1010
1100
1001
,  // measure 78
1010
0000
0000
0000
;
