#TITLE:Starry Sky;
#SUBTITLE:;
#ARTIST:capsule;
#TITLETRANSLIT:;
#SUBTITLETRANSLIT:;
#ARTISTTRANSLIT:;
#GENRE:Dance;
#CREDIT:AznPunk07/Frozen_Heat/GuardianFrozen;
#MENUCOLOR:#617998;
#METERTYPE:DDR;
#BANNER:Starry Sky-bn.png;
#BACKGROUND:Starry Sky-bg.png;
#LYRICSPATH:;
#CDTITLE:!cdtitle.png;
#MUSIC:Starry Sky.mp3;
#OFFSET:-0.524;
#SAMPLESTART:45.640;
#SAMPLELENGTH:15.100;
#SELECTABLE:YES;
#LISTSORT:;
#BPMS:0.000=127.000;
#STOPS:;
#BGCHANGES:;
#ATTACKS:;

//---------------dance-single - ----------------
#NOTES:
     dance-single:
     :
     Hard:
     8:
     0.470,0.548,0.196,0.187,0.173: // measure 1
1000
0000
0100
0000
0000
0000
0000
0000
0000
0000
0000
0000
0000
0000
0001
0010
,  // measure 2
0001
0100
0000
0000
0000
0000
0000
0100
,  // measure 3
0010
0000
1000
0000
0000
0000
0000
0000
0000
0000
0000
0000
0000
0000
0100
1000
,  // measure 4
0100
0000
0010
0000
0000
0000
0000
0000
0000
0000
0000
0000
0001
1000
0001
0000
,  // measure 5
0000
0000
0110
0000
0000
0000
0000
0000
0000
0000
0000
0000
0000
0000
1000
0100
,  // measure 6
0010
0001
0000
0000
0000
0000
0000
0100
,  // measure 7
0001
0000
0010
0000
0000
0000
0000
0000
0000
0000
0000
0000
0000
0000
0001
0010
,  // measure 8
0100
0000
1000
0000
0000
0000
0000
0000
0000
0000
0000
0000
0010
0100
0010
0000
,  // measure 9
1010
0101
1100
0011
,  // measure 10
1001
0101
1010
1100
,  // measure 11
1001
0011
1001
0101
,  // measure 12
0110
1010
1100
1001
,  // measure 13
0001
0010
0001
0000
0100
0001
0100
0000
,  // measure 14
1000
0100
0001
0010
1000
0000
0010
0000
,  // measure 15
0002
0203
0320
2030
,  // measure 16
3200
0000
0000
0000
0000
0000
0300
0100
,  // measure 17
0010
0000
0000
0001
0000
0000
0100
0000
0010
0000
0000
1000
0000
0000
0100
0000
,  // measure 18
0010
0000
0001
0000
0100
0000
0000
0010
1000
0000
0000
0010
0100
0000
0001
0000
,  // measure 19
0010
0000
0000
0100
0000
0000
1000
0000
0010
0000
0000
0100
0000
0000
0001
0000
,  // measure 20
0010
0000
0100
0000
1000
0000
0000
1000
0100
0000
0000
0010
0001
0000
0100
0000
,  // measure 21
0010
0000
0000
1000
0000
0000
0001
1000
0001
0000
0000
0010
0000
0000
1000
0001
,  // measure 22
1000
0000
0010
0000
0100
0000
0001
1000
0001
0000
0010
0000
0100
0000
0000
0000
,  // measure 23
1000
0000
1000
0010
0000
0010
1000
0000
0100
0000
0010
0001
0000
0001
0100
0000
,  // measure 24
0010
0000
0010
1000
0010
0000
0100
0001
0100
0000
0001
0000
1001
0000
0000
0000
,  // measure 25
0010
0000
0000
1000
0000
0000
0010
0000
0100
0000
0001
0000
0010
0000
0100
0000
,  // measure 26
1000
0000
0000
0001
0000
0000
1000
0000
0010
0000
0100
0000
0001
0000
0000
0000
,  // measure 27
0010
0001
0100
0000
0100
0001
0010
0000
,  // measure 28
0100
1000
0010
0000
0010
1000
0100
0010
,  // measure 29
0001
0000
0000
0100
0000
0000
0001
0000
0010
0000
1000
0000
0010
0000
0000
0000
,  // measure 30
0100
0000
0000
1000
0000
0000
0100
0000
0001
0000
0100
0000
0010
0000
0001
0000
,  // measure 31
1000
0010
0001
0000
0010
1000
0100
0000
,  // measure 32
1000
0100
0001
0000
0010
0001
0100
0010
,  // measure 33
2000
0000
0100
0000
0000
3001
0010
0001
,  // measure 34
0200
0000
0010
0000
0000
1300
0001
0010
,  // measure 35
0200
0000
0301
0020
0000
0130
1000
0001
,  // measure 36
2000
0000
0000
0000
3010
0000
0200
0000
0000
0000
0301
0000
0000
1000
0000
0000
,  // measure 37
1002
0010
0100
1000
,  // measure 38
0010
0000
0000
0000
0100
0000
0000
0000
0013
0000
0100
0000
0000
1000
0000
0000
,  // measure 39
0020
1000
0100
1000
,  // measure 40
0100
0000
0100
0000
1030
0001
1000
0000
,  // measure 41
0001
0010
0100
1000
0001
0100
0010
1000
,  // measure 42
0001
0100
1000
0100
0001
0010
1000
0010
,  // measure 43
0001
0100
0010
1000
0001
0010
0100
1000
,  // measure 44
0001
0100
1000
0001
0010
1000
0100
0001
,  // measure 45
0100
1000
0010
1000
0100
1000
0001
1000
,  // measure 46
0100
0010
0001
0100
0010
1000
0001
0100
,  // measure 47
0010
1000
0001
1000
0010
1000
0100
1000
,  // measure 48
0010
0100
0001
1000
0100
0001
1000
0010
,  // measure 49
0002
1000
0000
0100
,  // measure 50
1000
0000
0000
0000
0010
0000
0000
0000
0000
0000
0000
0000
1003
0000
0001
0010
,  // measure 51
0200
0000
0000
0000
1000
0000
0000
0000
0000
0000
0000
0000
0310
0000
0000
0100
,  // measure 52
0020
0000
0000
0000
0000
0000
0000
0000
0000
0000
0000
0000
0031
0000
0000
0010
,  // measure 53
0002
0010
0000
0010
,  // measure 54
0000
0010
0000
1000
,  // measure 55
2000
0000
0000
3003
,  // measure 56
0110
0000
0000
0000
1001
0000
0010
0100
0000
0010
0000
0200
0020
0300
0030
0000
;

//---------------dance-single - ----------------
#NOTES:
     dance-single:
     :
     Challenge:
     10:
     0.702,0.861,0.234,0.037,0.836: // measure 1
1000
0000
0100
0000
0010
0000
0000
0000
0010
0000
0000
0000
0010
0000
0001
1000
,  // measure 2
0001
0010
0100
0000
0100
0000
0100
1000
,  // measure 3
0010
0000
1000
0000
0001
0000
0000
0000
0001
0000
0000
0000
0001
0000
0100
0010
,  // measure 4
0100
0000
0001
0000
1000
0000
0000
0000
1000
0000
0000
0000
1000
0001
1000
0000
,  // measure 5
0100
0000
0010
0000
0100
0000
0000
0000
0100
0000
0000
0000
0100
0000
1000
0010
,  // measure 6
0100
0001
0010
0000
0010
0000
0010
0001
,  // measure 7
0100
0000
0010
0000
0001
0000
0000
0000
0001
0000
0000
0000
0001
0000
0010
0100
,  // measure 8
1000
0000
0100
0000
0010
0000
0000
0000
0000
0000
0000
0000
1000
0001
1000
0000
,  // measure 9
0100
0001
1100
0000
0010
1000
0101
0000
,  // measure 10
0010
0001
1010
0000
0100
1000
0011
0000
,  // measure 11
0100
0010
1001
0000
0001
1000
0110
0000
,  // measure 12
0010
0100
1001
0000
1000
0001
0110
0000
,  // measure 13
1100
0001
1100
0000
0101
1000
0101
0000
,  // measure 14
0010
1000
1001
0100
0010
0001
1001
0000
,  // measure 15
0110
1001
1000
0001
,  // measure 16
0220
0000
0000
0000
0000
0000
0000
0000
0000
0000
0000
0000
0330
0000
1000
0100
,  // measure 17
0010
0000
0010
0001
0000
0010
0001
0100
0010
0000
1000
0010
0000
1000
0010
0000
,  // measure 18
0100
0000
0001
1000
0001
0000
0010
0000
0100
1000
0000
1000
0100
0000
0010
0001
,  // measure 19
0100
0000
0100
0001
0000
0010
0001
0100
0010
0000
0010
1000
0000
1000
0100
1000
,  // measure 20
0100
0000
0010
0001
1000
0001
0010
0100
1000
0100
0000
0010
0001
1000
0000
0001
,  // measure 21
0100
0000
0100
0001
0000
0001
1000
0100
0010
0000
0100
1000
0000
0001
1000
0001
,  // measure 22
0100
0000
0001
1000
0100
1000
0010
0100
0001
0010
0100
1000
0010
0100
0001
0010
,  // measure 23
0100
0000
1000
0100
0000
1000
0010
0001
0010
0000
0010
0100
0000
0100
0001
0010
,  // measure 24
0100
1000
0010
0100
1000
0100
0001
0010
0100
0010
0001
1000
0010
1000
0001
0000
,  // measure 25
0010
0000
0000
0100
0000
0000
1000
0000
0001
0100
0001
0000
0010
0000
0001
0000
,  // measure 26
1000
0000
0000
0010
0000
0000
0100
0000
0010
1000
0001
0000
0010
0000
0001
1000
,  // measure 27
0000
1000
0001
0000
0100
0000
0010
1000
0000
0010
0000
0100
0000
0001
0010
0001
,  // measure 28
0000
0000
0100
0000
0010
0000
1000
0100
0000
1001
0000
0010
0000
0000
0100
0010
,  // measure 29
0001
0000
0001
1000
0000
0001
1000
0000
0010
0000
0100
0000
0001
0000
1000
0100
,  // measure 30
1000
0000
0010
1000
0000
0001
0100
0000
0010
0000
1000
0000
0100
0000
0010
0001
,  // measure 31
0000
0001
0100
0000
0010
0000
1000
0100
0000
1100
0000
1001
0000
0001
0100
0000
,  // measure 32
0000
0001
0010
0000
0100
0000
0010
0001
0000
1001
0000
1010
0000
0010
0100
0010
,  // measure 33
1000
0000
0100
0000
0000
1000
0001
0100
,  // measure 34
0001
0000
0010
0000
0000
0001
0100
0001
,  // measure 35
0010
0000
0100
1000
0000
0010
1000
0010
,  // measure 36
0100
0000
0000
0000
0100
0000
0001
0000
0000
0000
0001
0000
0000
1000
0000
0000
,  // measure 37
1001
0010
0100
0001
,  // measure 38
1000
0000
0000
0000
0100
0000
0000
0000
0010
0000
0001
0000
0000
1000
0000
0000
,  // measure 39
0001
0010
0001
0100
,  // measure 40
0010
0000
1000
0000
0100
0010
0100
0000
,  // measure 41
1000
0010
1000
0010
0100
0001
0100
0001
0010
0100
1000
0100
0010
0001
0010
0100
,  // measure 42
1000
0000
0100
1000
0000
0010
0100
0000
0001
0010
0000
0010
0001
0100
0001
0010
,  // measure 43
0100
1000
0100
1000
0001
0010
0001
0010
0100
1000
0001
0100
0010
1000
0001
0010
,  // measure 44
0001
0000
0100
0001
0000
0001
0010
0000
0100
1000
0000
1000
0010
0100
0010
1000
,  // measure 45
0001
0100
1000
0100
0010
1000
0100
0010
1000
0001
0100
1000
0001
0100
1000
0001
,  // measure 46
0010
0000
0010
0100
0000
0001
1000
0000
0100
0010
0000
0001
1000
0000
0010
0100
,  // measure 47
0001
0010
1000
0010
0001
1000
0010
0001
0010
0100
0001
0010
0100
0001
0100
1000
,  // measure 48
0001
0100
1000
0100
0001
0010
1000
0010
0001
1000
0001
0100
0010
1000
0100
1000
,  // measure 49
0010
0000
0000
0000
0100
0000
0001
1000
0000
1000
0000
1000
0100
0000
0010
0000
,  // measure 50
0001
0000
0000
0100
0010
0000
1000
0100
0000
1000
0000
0001
0100
0000
0010
1000
,  // measure 51
0001
0000
0000
0000
0010
0000
0100
0010
0000
0010
0000
0010
0001
0000
1000
0010
,  // measure 52
0100
0000
0000
0010
1000
0000
0010
1000
0000
0100
0000
0010
0100
0000
0010
0001
,  // measure 53
0100
0000
0000
0001
1000
0000
0100
0010
0000
0001
0000
1000
0001
0000
1000
0001
,  // measure 54
1000
0000
0010
1000
0100
0000
0010
0001
0000
1000
0000
0001
0010
0000
0100
0000
,  // measure 55
1000
0000
0000
1000
0010
0000
0000
0010
0000
1000
0000
0001
0010
0000
0000
0000
,  // measure 56
0001
0000
0000
0000
1001
0000
1000
0001
0000
0110
0000
0002
2000
0003
3000
0000
;

//---------------dance-single - ----------------
#NOTES:
     dance-single:
     :
     Medium:
     6:
     0.414,0.495,0.224,0.308,0.009: // measure 1
1000
0100
0010
0001
,  // measure 2
1000
0100
1000
0010
,  // measure 3
0100
0001
0010
0001
,  // measure 4
0100
0001
0010
0100
,  // measure 5
1000
0001
0100
0010
,  // measure 6
1000
0001
0010
0001
,  // measure 7
0100
0010
1000
0100
,  // measure 8
0010
0000
0000
0000
,  // measure 9
1002
1003
1020
1030
,  // measure 10
1200
1300
1020
1030
,  // measure 11
1200
1300
1002
1003
,  // measure 12
1200
1300
1020
1030
,  // measure 13
1000
0200
1000
0300
1000
0020
1000
0030
,  // measure 14
1000
0002
1003
0200
1000
0300
1000
0010
,  // measure 15
1200
1300
1020
1030
,  // measure 16
1002
0000
0000
0000
0000
0000
0000
0003
,  // measure 17
0020
0000
0130
1000
0020
0000
0130
0001
,  // measure 18
0020
0000
0130
0000
1000
0001
1000
0000
,  // measure 19
0200
0000
0310
0001
0200
0000
0310
1000
,  // measure 20
0200
0000
0310
0000
0001
1000
0001
0000
,  // measure 21
0200
0000
0310
1000
0002
0000
1003
0010
,  // measure 22
0200
0000
0310
1000
0002
0000
1003
0000
,  // measure 23
0020
0000
0130
0001
2000
0000
3001
0100
,  // measure 24
0020
0000
0130
0001
2000
0000
3001
0000
,  // measure 25
1010
0000
0101
0000
1000
0001
0100
0000
,  // measure 26
0011
0000
1100
0000
0001
1000
0100
0000
,  // measure 27
0010
0001
0010
0000
0100
1000
0100
0000
,  // measure 28
0010
0001
0010
0000
0100
1000
0100
0000
,  // measure 29
1001
0000
0110
0000
1000
0010
0001
0000
,  // measure 30
1001
0000
0110
0000
0001
0100
1000
0000
,  // measure 31
0001
0010
0001
0000
0100
1000
0100
0000
,  // measure 32
0001
0010
0001
0000
0100
1000
0100
0000
,  // measure 33
0020
1000
0000
0130
,  // measure 34
0002
0010
0000
1003
,  // measure 35
1000
0100
0010
0001
,  // measure 36
1000
0010
0100
0001
,  // measure 37
2000
0100
0000
3100
,  // measure 38
0200
0010
0000
0310
,  // measure 39
0001
0100
1000
0100
,  // measure 40
0001
0000
1000
0000
0010
0100
0010
0000
,  // measure 41
1000
0100
0010
0000
0001
0100
0010
0000
,  // measure 42
1010
0100
0011
0100
,  // measure 43
0001
0010
0100
0000
1000
0010
0100
0000
,  // measure 44
0101
0010
1100
0010
,  // measure 45
1000
0100
0001
0000
0001
0100
1000
0000
,  // measure 46
0001
0000
1000
0000
0010
0100
0001
1000
,  // measure 47
0001
0010
1000
0000
1000
0010
0001
0000
,  // measure 48
1000
0000
0010
0000
0100
0010
0100
0001
,  // measure 49
1000
0100
0000
0010
,  // measure 50
0001
1000
0000
0001
,  // measure 51
0100
0001
0000
1000
,  // measure 52
0010
1000
0000
0001
,  // measure 53
1000
0100
0010
0001
,  // measure 54
1000
0010
0100
0001
,  // measure 55
1000
0001
0010
0100
,  // measure 56
0010
0000
0000
0000
1001
0000
0000
0010
0000
0010
0000
0000
0100
0000
0000
0000
;

//---------------dance-single - ----------------
#NOTES:
     dance-single:
     :
     Easy:
     3:
     0.216,0.234,0.019,0.149,0.000: // measure 1
1000
1000
0000
0000
,  // measure 2
0001
0001
0000
0000
,  // measure 3
0100
0100
0000
0000
,  // measure 4
0010
0010
0000
0000
,  // measure 5
1000
1000
0000
0000
,  // measure 6
0100
0100
0000
0000
,  // measure 7
0010
0010
0000
0000
,  // measure 8
0002
0000
0000
0003
,  // measure 9
1000
0001
1000
0001
,  // measure 10
1000
0001
1000
0001
,  // measure 11
1000
0001
1000
0001
,  // measure 12
1000
0001
1000
0001
,  // measure 13
1000
0010
1000
0100
,  // measure 14
1000
0010
1000
0001
,  // measure 15
1000
0100
1000
0001
,  // measure 16
2000
0000
0000
3000
,  // measure 17
0001
0000
0100
0000
,  // measure 18
0010
1000
0100
0000
,  // measure 19
0010
0000
0001
0000
,  // measure 20
0100
0001
0010
0000
,  // measure 21
0100
0000
1000
0000
,  // measure 22
0001
1000
0010
0000
,  // measure 23
0100
0000
0001
0000
,  // measure 24
1000
0100
0010
0001
,  // measure 25
1000
1000
2000
3000
,  // measure 26
0001
0001
0002
0003
,  // measure 27
0100
0100
0010
0010
,  // measure 28
0100
0010
0100
0000
,  // measure 29
0001
0001
0002
0003
,  // measure 30
1000
1000
2000
3000
,  // measure 31
0010
0010
0100
0010
,  // measure 32
0100
0100
0010
0100
,  // measure 33
2000
0000
3000
0000
,  // measure 34
0002
0000
0003
0000
,  // measure 35
0020
0000
0030
0000
,  // measure 36
0200
0000
0300
0000
,  // measure 37
1000
0001
1000
0001
,  // measure 38
1000
0001
1000
0001
,  // measure 39
0010
0100
0010
0100
,  // measure 40
0010
0010
0200
0300
,  // measure 41
1000
0000
0001
0000
,  // measure 42
0100
0100
0100
0100
,  // measure 43
0010
0000
1000
0000
,  // measure 44
0001
0001
0001
0001
,  // measure 45
0010
0000
0100
0000
,  // measure 46
1000
1000
1000
1000
,  // measure 47
0010
0000
0100
0000
,  // measure 48
0001
0001
1000
1000
,  // measure 49
0200
0000
0000
0000
,  // measure 50
0000
0000
0000
0300
,  // measure 51
0020
0000
0000
0030
,  // measure 52
0002
0000
0000
0003
,  // measure 53
2000
0000
0000
0000
,  // measure 54
0000
0000
0000
3000
,  // measure 55
0020
0000
0000
0030
,  // measure 56
0110
0100
0100
1001
;

//---------------dance-single - ----------------
#NOTES:
     dance-single:
     :
     Beginner:
     1:
     0.121,0.182,0.056,0.093,0.000: // measure 1
0000
0000
0000
0000
,  // measure 2
0000
0000
0000
0000
,  // measure 3
0000
0000
0000
0000
,  // measure 4
0000
0000
0000
0000
,  // measure 5
1000
0000
0000
0000
,  // measure 6
0001
0000
0000
0000
,  // measure 7
0010
0000
0000
0000
,  // measure 8
0100
0000
0000
0000
,  // measure 9
1000
0000
1000
0000
,  // measure 10
1000
0000
0000
0000
,  // measure 11
0001
0000
0001
0000
,  // measure 12
0001
0000
0000
0000
,  // measure 13
0010
0000
0010
0000
,  // measure 14
0010
0000
0000
0000
,  // measure 15
0100
0000
0100
0000
,  // measure 16
0200
0000
0300
0000
,  // measure 17
1000
0000
1000
0000
,  // measure 18
1001
0000
0000
0000
,  // measure 19
0001
0000
0001
0000
,  // measure 20
1001
0000
0000
0000
,  // measure 21
0010
0000
0010
0000
,  // measure 22
0110
0000
0000
0000
,  // measure 23
0100
0000
0100
0000
,  // measure 24
0110
0000
0000
0000
,  // measure 25
1000
0000
0000
0000
,  // measure 26
0001
0000
0000
0000
,  // measure 27
0010
0010
0010
0000
,  // measure 28
0010
0010
0010
0000
,  // measure 29
0001
0000
0000
0000
,  // measure 30
1000
0000
0000
0000
,  // measure 31
0100
0100
0100
0000
,  // measure 32
0100
0100
0100
0000
,  // measure 33
0002
0003
0000
0000
,  // measure 34
2000
3000
0000
0000
,  // measure 35
0020
0030
0000
0000
,  // measure 36
0200
0300
0000
0000
,  // measure 37
0001
0000
0001
0000
,  // measure 38
0001
0000
0001
0000
,  // measure 39
1000
0000
1000
0000
,  // measure 40
1000
0000
1000
0000
,  // measure 41
0010
0000
0000
0000
,  // measure 42
1000
0000
0000
0000
,  // measure 43
0001
0000
0000
0000
,  // measure 44
0010
0000
0000
0000
,  // measure 45
0100
0100
0000
0000
,  // measure 46
1000
1000
0000
0000
,  // measure 47
0001
0001
0000
0000
,  // measure 48
0010
0010
0000
0000
,  // measure 49
0002
0003
0000
0000
,  // measure 50
0000
0000
0000
0000
,  // measure 51
2000
3000
0000
0000
,  // measure 52
0020
0030
0000
0000
,  // measure 53
0200
0300
0000
0000
,  // measure 54
0000
0000
0000
0000
,  // measure 55
0002
0003
0000
0000
,  // measure 56
0110
0000
0000
1001
;
